osu file format v14

[General]
AudioFilename: audio.mp3
AudioLeadIn: 0
PreviewTime: 112384
Countdown: 0
SampleSet: None
StackLeniency: 0.7
Mode: 0
LetterboxInBreaks: 0
WidescreenStoryboard: 1

[Editor]
Bookmarks: 42,10147,21515,31620,41726,51831,60673,61936,72042,82147,92252,102357,112463,122568,132673,142778,152884,157936,162989,168042,173094,178147,183199,188252,193305,198357,200884
DistanceSpacing: 1.5
BeatDivisor: 4
GridSize: 4
TimelineZoom: 1

[Metadata]
Title:A New King Is Born
TitleUnicode:A New King Is Born
Artist:Loki
ArtistUnicode:Loki
Creator:Project Railgun
Version:Very Hard
Source:
Tags:project_railgun beatmapping contest mapping with rewards mwr
BeatmapID:1625753
BeatmapSetID:773395

[Difficulty]
HPDrainRate:5.8
CircleSize:3.8
OverallDifficulty:6.2
ApproachRate:8.3
SliderMultiplier:1.4
SliderTickRate:1

[Events]
//Background and Video events
0,0,"bg.jpg",0,0
//Break Periods
2,102557,111759
2,153084,157232
//Storyboard Layer 0 (Background)
//Storyboard Layer 1 (Fail)
//Storyboard Layer 2 (Pass)
//Storyboard Layer 3 (Foreground)
//Storyboard Sound Samples

[TimingPoints]
42,315.789473684211,4,2,0,100,1,0
21515,-100,4,2,0,100,0,1
21594,-100,4,2,0,100,0,0
41726,-100,4,2,0,100,0,1
51752,-100,4,2,0,100,0,0
51831,-100,4,2,0,100,0,1
60673,-100,4,2,0,100,0,0
61936,-100,4,2,0,100,0,1
62015,-100,4,2,0,100,0,0
82147,-100,4,2,0,100,0,1
82226,-100,4,2,0,100,0,0
112463,-100,4,2,0,100,0,1
122489,-100,4,2,0,100,0,0
122568,-100,4,2,0,100,0,1
132673,-100,4,2,0,100,0,0
157936,-100,4,2,0,100,0,1
158015,-100,4,2,0,100,0,0
168042,-100,4,2,0,100,0,1
168120,-100,4,2,0,100,0,0
173094,-100,4,2,0,100,0,1
173173,-100,4,2,0,100,0,0
178147,-100,4,2,0,100,0,1
188173,-100,4,2,0,100,0,0
188252,-100,4,2,0,100,0,1
198357,-100,4,2,0,100,0,0
198515,-100,4,2,0,75,0,0

[Colours]
Combo1 : 156,44,184
Combo2 : 137,104,41
Combo3 : 54,181,184
Combo4 : 60,191,105

[HitObjects]
144,308,42,6,0,P|117:243|122:174,3,140,4|2|2|2,0:0|0:0|0:0|0:0,0:0:0:0:
368,307,1305,2,0,P|393:243|389:174,3,140,4|2|2|2,0:0|0:0|0:0|0:0,0:0:0:0:
144,308,2568,6,0,P|78:289|40:232,1,140,4|2,0:0|0:0,0:0:0:0:
48,128,3042,1,0,0:0:0:0:
116,48,3199,2,0,B|184:40|184:40|219:50,2,105,4|2|2,0:0|0:0|0:0,0:0:0:0:
48,128,3831,6,0,L|58:198,1,70,4|0,0:0|0:0,0:0:0:0:
144,307,4147,2,0,L|154:238,1,70,2|0,0:0|0:0,0:0:0:0:
180,136,4463,1,2,0:0:0:0:
256,204,4620,1,0,0:0:0:0:
331,136,4778,2,0,P|356:111|390:103,1,70,2|0,0:0|0:0,0:0:0:0:
484,208,5094,6,0,B|492:282|492:282|476:346,1,140,4|2,0:0|0:0,0:0:0:0:
372,372,5568,1,0,0:0:0:0:
308,292,5726,2,0,B|256:276|256:276|208:292,2,105,4|2|2,0:0|0:0|0:0,0:0:0:0:
388,224,6357,6,0,P|395:189|392:155,1,70,4|0,0:0|0:0,0:0:0:0:
340,64,6673,1,2,0:0:0:0:
256,128,6831,1,0,0:0:0:0:
172,64,6989,2,0,L|102:70,1,70,2|0,0:0|0:0,0:0:0:0:
88,184,7305,2,0,L|18:190,1,70,2|0,0:0|0:0,0:0:0:0:
80,304,7620,6,0,P|147:296|189:242,1,140,4|2,0:0|0:0,0:0:0:0:
256,128,8094,1,0,0:0:0:0:
323,241,8252,2,0,P|364:294|432:303,1,140,4|2,0:0|0:0,0:0:0:0:
504,224,8726,1,0,0:0:0:0:
448,136,8884,6,0,L|454:66,1,70,4|0,0:0|0:0,0:0:0:0:
332,36,9199,2,0,L|340:-16,2,35,2|0|0,0:0|0:0|0:0,0:0:0:0:
256,128,9515,1,2,0:0:0:0:
180,36,9673,1,0,0:0:0:0:
88,112,9831,2,0,L|53:120,2,35,2|0|0,0:0|0:0|0:0,0:0:0:0:
184,208,10147,6,0,P|166:274|111:316,3,140,4|2|2|2,0:0|0:0|0:0|0:0,0:0:0:0:
401,315,11410,2,0,P|346:273|329:207,3,140,4|2|2|2,0:0|0:0|0:0|0:0,0:0:0:0:
164,360,12673,6,0,P|95:359|48:310,1,140,4|2,0:0|0:0,0:0:0:0:
12,212,13147,1,0,0:0:0:0:
68,124,13305,2,0,P|80:73|70:22,2,105,4|2|2,0:0|0:0|0:0,0:0:0:0:
148,191,13936,6,0,P|182:190|214:176,1,70,4|0,0:0|0:0,0:0:0:0:
364,191,14252,2,0,P|329:190|297:176,1,70,2|0,0:0|0:0,0:0:0:0:
252,68,14568,1,2,0:0:0:0:
160,20,14726,1,0,0:0:0:0:
84,92,14884,2,0,L|87:161,1,70,2|0,0:0|0:0,0:0:0:0:
220,224,15199,6,0,P|287:226|322:283,1,140,4|2,0:0|0:0,0:0:0:0:
256,364,15673,1,0,0:0:0:0:
156,336,15831,2,0,L|40:344,2,105,4|2|2,0:0|0:0|0:0,0:0:0:0:
236,272,16463,6,0,P|246:238|241:204,1,70,4|0,0:0|0:0,0:0:0:0:
137,100,16778,2,0,P|127:133|132:167,1,70,2|0,0:0|0:0,0:0:0:0:
241,204,17094,1,2,0:0:0:0:
313,124,17252,1,0,0:0:0:0:
393,188,17410,2,0,L|463:188,1,70,2|0,0:0|0:0,0:0:0:0:
388,312,17726,6,0,L|294:312,2,93.3333333333333,4|2|2,0:0|0:0|0:0,0:0:0:0:
463,188,18357,2,0,P|436:124|376:90,1,140,4|2,0:0|0:0,0:0:0:0:
200,216,18989,6,0,L|191:285,1,70,4|0,0:0|0:0,0:0:0:0:
84,200,19305,2,0,L|75:130,1,70,2|0,0:0|0:0,0:0:0:0:
88,8,19620,1,2,0:0:0:0:
176,96,19778,2,0,L|182:130,2,35,0|0|2,0:0|0:0|0:0,0:0:0:0:
256,4,20094,1,0,0:0:0:0:
336,96,20252,6,0,L|405:102,1,70,4|0,0:0|0:0,0:0:0:0:
480,208,20568,2,0,L|410:214,1,70,2|0,0:0|0:0,0:0:0:0:
304,232,20884,1,2,0:0:0:0:
184,148,21042,2,0,L|177:113,2,35,2|0|2,0:0|0:0|0:0,0:0:0:0:
132,276,21357,1,2,0:0:0:0:
255,335,21515,6,0,P|323:345|383:311,1,140,4|2,0:0|0:0,0:0:0:0:
444,224,21989,1,0,0:0:0:0:
384,136,22147,2,0,B|312:124|312:124|253:156,1,140,2|8,0:0|0:0,0:0:0:0:
256,264,22620,1,0,0:0:0:0:
340,328,22778,6,0,L|410:328,1,70,4|0,0:0|0:0,0:0:0:0:
256,264,23094,1,2,0:0:0:0:
256,264,23252,1,0,0:0:0:0:
172,328,23410,2,0,P|103:325|59:273,1,140,4|8,0:0|0:0,0:0:0:0:
188,96,24042,6,0,P|254:76|321:93,1,140,4|2,0:0|0:0,0:0:0:0:
408,152,24515,1,0,0:0:0:0:
339,231,24673,2,0,P|325:263|322:298,1,70,2|0,0:0|0:0,0:0:0:0:
189,298,24989,2,0,P|186:263|172:231,1,70,8|0,0:0|0:0,0:0:0:0:
56,172,25305,5,4,0:0:0:0:
256,8,25620,1,2,0:0:0:0:
456,172,25936,1,4,0:0:0:0:
256,340,26252,1,2,0:0:0:0:
48,128,26568,6,0,P|92:76|161:71,1,140,4|2,0:0|0:0,0:0:0:0:
256,116,27042,1,0,0:0:0:0:
332,188,27199,2,0,B|336:296|336:296|310:277,1,140,2|8,0:0|0:0,0:0:0:0:
212,236,27673,1,0,0:0:0:0:
360,372,27831,6,0,P|391:357|413:330,1,70,4|0,0:0|0:0,0:0:0:0:
464,236,28147,1,2,0:0:0:0:
356,144,28305,1,0,0:0:0:0:
260,264,28463,2,0,P|194:276|139:235,1,140,4|8,0:0|0:0,0:0:0:0:
92,140,28936,1,0,0:0:0:0:
192,84,29094,6,0,B|200:44|200:44|196:15,1,70,4|0,0:0|0:0,0:0:0:0:
316,15,29410,2,0,B|312:44|312:44|320:84,1,70,2|0,0:0|0:0,0:0:0:0:
420,140,29726,1,2,0:0:0:0:
200,284,30042,2,0,L|112:288,1,70,8|0,0:0|0:0,0:0:0:0:
44,228,30357,6,0,P|35:194|38:159,1,70,4|0,0:0|0:0,0:0:0:0:
84,24,30673,1,2,0:0:0:0:
168,136,30831,1,0,0:0:0:0:
256,24,30989,1,4,0:0:0:0:
440,264,31305,1,8,0:0:0:0:
440,264,31620,6,0,B|452:192|452:192|440:126,1,140,4|2,0:0|0:0,0:0:0:0:
352,68,32094,1,0,0:0:0:0:
256,24,32252,2,0,P|191:41|168:104,1,140,2|8,0:0|0:0,0:0:0:0:
256,188,32726,1,0,0:0:0:0:
344,248,32884,6,0,P|379:252|413:243,1,70,4|0,0:0|0:0,0:0:0:0:
256,188,33199,1,2,0:0:0:0:
256,188,33357,1,0,0:0:0:0:
169,247,33515,2,0,P|100:250|50:204,1,140,4|8,0:0|0:0,0:0:0:0:
20,104,33989,1,0,0:0:0:0:
88,24,34147,5,4,0:0:0:0:
256,152,34463,1,2,0:0:0:0:
312,248,34620,1,0,0:0:0:0:
200,248,34778,1,2,0:0:0:0:
384,56,35094,2,0,L|453:66,1,70,8|0,0:0|0:0,0:0:0:0:
456,172,35410,5,4,0:0:0:0:
256,340,35725,1,2,0:0:0:0:
56,172,36041,1,4,0:0:0:0:
256,8,36357,1,2,0:0:0:0:
468,220,36673,6,0,B|400:224|400:224|329:208,1,140,4|2,0:0|0:0,0:0:0:0:
256,128,37147,1,0,0:0:0:0:
180,55,37305,2,0,P|114:45|69:95,1,140,2|8,0:0|0:0,0:0:0:0:
56,200,37778,1,0,0:0:0:0:
128,276,37936,6,0,P|163:279|198:276,1,70,4|0,0:0|0:0,0:0:0:0:
296,224,38252,1,2,0:0:0:0:
392,336,38410,1,0,0:0:0:0:
497,231,38568,2,0,B|496:176|496:176|476:140|476:140|476:96,1,140,4|8,0:0|0:0,0:0:0:0:
392,24,39042,1,0,0:0:0:0:
296,76,39199,6,0,L|227:72,1,70,4|0,0:0|0:0,0:0:0:0:
112,84,39515,1,2,0:0:0:0:
72,192,39673,1,0,0:0:0:0:
148,280,39831,1,2,0:0:0:0:
364,140,40147,1,8,0:0:0:0:
148,280,40463,6,0,L|79:276,1,70,4|0,0:0|0:0,0:0:0:0:
0,176,40778,1,2,0:0:0:0:
68,48,40936,1,0,0:0:0:0:
188,132,41094,2,0,P|254:147|312:110,1,140,4|8,0:0|0:0,0:0:0:0:
468,252,41726,6,0,L|458:322,1,70,4|0,0:0|0:0,0:0:0:0:
348,272,42042,2,0,L|338:203,1,70
256,136,42357,2,0,P|194:166|126:152,1,140,2|2,0:0|0:0,0:0:0:0:
36,92,42831,1,0,0:0:0:0:
12,196,42989,6,0,L|19:265,1,70,4|0,0:0|0:0,0:0:0:0:
124,280,43305,2,0,L|131:349,1,70
237,336,43620,2,0,P|305:341|357:298,1,140,2|2,0:0|0:0,0:0:0:0:
412,208,44094,1,0,0:0:0:0:
368,112,44252,6,0,L|299:104,1,70,4|0,0:0|0:0,0:0:0:0:
356,16,44568,2,0,L|426:23,1,70,2|0,0:0|0:0,0:0:0:0:
213,104,44884,2,0,L|144:112,1,70,4|0,0:0|0:0,0:0:0:0:
86,23,45200,2,0,L|156:16,1,70,2|0,0:0|0:0,0:0:0:0:
368,112,45515,6,0,P|364:146|346:176,1,70,4|0,0:0|0:0,0:0:0:0:
165,176,45831,2,0,P|147:146|143:112,1,70,2|0,0:0|0:0,0:0:0:0:
256,32,46147,1,2,0:0:0:0:
360,8,46305,1,0,0:0:0:0:
456,56,46463,1,2,0:0:0:0:
480,156,46620,1,0,0:0:0:0:
440,252,46778,6,0,P|392:300|328:281,1,140,4|0,0:0|0:0,0:0:0:0:
256,208,47252,1,0,0:0:0:0:
180,136,47410,2,0,L|189:67,1,70,2|0,0:0|0:0,0:0:0:0:
72,116,47726,2,0,L|81:186,1,70,2|0,0:0|0:0,0:0:0:0:
160,252,48042,6,0,P|226:236|288:265,1,140,4|0,0:0|0:0,0:0:0:0:
372,328,48515,1,0,0:0:0:0:
444,252,48673,2,0,L|449:183,1,70,2|0,0:0|0:0,0:0:0:0:
348,144,48989,2,0,L|343:74,1,70,2|0,0:0|0:0,0:0:0:0:
252,24,49305,6,0,L|182:31,1,70,4|0,0:0|0:0,0:0:0:0:
96,136,49621,2,0,L|166:129,1,70,2|0,0:0|0:0,0:0:0:0:
188,251,49937,2,0,P|192:285|185:319,1,70,4|0,0:0|0:0,0:0:0:0:
326,319,50252,2,0,P|319:285|324:251,1,70,2|0,0:0|0:0,0:0:0:0:
412,188,50568,6,0,P|413:153|403:119,1,70,4|0,0:0|0:0,0:0:0:0:
300,36,50884,1,2,0:0:0:0:
192,116,51042,1,0,0:0:0:0:
140,240,51199,2,0,L|146:309,1,70,4|0,0:0|0:0,0:0:0:0:
32,132,51515,2,0,L|38:201,1,70,2|0,0:0|0:0,0:0:0:0:
220,360,51831,6,0,P|254:356|287:343,1,70,4|0,0:0|0:0,0:0:0:0:
360,268,52147,2,0,P|357:234|345:201,1,70
288,112,52463,2,0,P|335:61|403:55,1,140,2|2,0:0|0:0,0:0:0:0:
484,120,52936,1,0,0:0:0:0:
456,220,53094,6,0,L|448:289,1,70,4|0,0:0|0:0,0:0:0:0:
348,352,53410,2,0,L|340:282,1,70
255,219,53726,2,0,P|188:213|145:265,1,140,2|2,0:0|0:0,0:0:0:0:
176,364,54199,1,0,0:0:0:0:
246,289,54357,6,0,L|256:219,1,70,4|0,0:0|0:0,0:0:0:0:
372,172,54673,2,0,L|361:102,1,70,2|0,0:0|0:0,0:0:0:0:
266,150,54989,2,0,L|256:220,1,70,4|0,0:0|0:0,0:0:0:0:
350,32,55305,2,0,L|361:102,1,70,2|0,0:0|0:0,0:0:0:0:
460,200,55620,6,0,P|444:231|416:251,1,70,4|0,0:0|0:0,0:0:0:0:
264,232,55936,2,0,L|195:226,1,70,2|0,0:0|0:0,0:0:0:0:
128,144,56252,1,2,0:0:0:0:
40,200,56410,1,0,0:0:0:0:
64,304,56568,1,2,0:0:0:0:
168,316,56726,1,0,0:0:0:0:
264,232,56884,6,0,P|340:216|392:256,1,140,4|0,0:0|0:0,0:0:0:0:
460,324,57357,1,0,0:0:0:0:
492,224,57515,2,0,L|489:154,1,70,2|0,0:0|0:0,0:0:0:0:
380,72,57831,2,0,L|377:141,1,70,2|0,0:0|0:0,0:0:0:0:
312,224,58147,6,0,P|246:244|185:215,1,140,4|0,0:0|0:0,0:0:0:0:
128,128,58620,1,0,0:0:0:0:
64,212,58778,2,0,L|68:281,1,70,2|0,0:0|0:0,0:0:0:0:
0,132,59094,2,0,L|4:62,1,70,2|0,0:0|0:0,0:0:0:0:
100,24,59410,5,4,0:0:0:0:
172,108,59568,1,0,0:0:0:0:
256,24,59726,1,2,0:0:0:0:
352,104,59884,1,0,0:0:0:0:
389,223,60042,2,0,P|373:255|347:278,1,70,4|0,0:0|0:0,0:0:0:0:
166,278,60357,2,0,P|140:255|124:223,1,70,2|0,0:0|0:0,0:0:0:0:
256,24,60673,1,4,0:0:0:0:
255,169,61936,6,0,B|240:232|284:232|262:306,2,140,4|2|2,0:0|0:0|0:0,0:0:0:0:
312,80,62726,1,0,0:0:0:0:
416,84,62884,1,2,0:0:0:0:
448,184,63042,1,0,0:0:0:0:
385,269,63199,2,0,P|317:313|261:305,2,140,4|2|2,0:0|0:0|0:0,0:0:0:0:
256,32,64147,1,2,0:0:0:0:
127,305,64463,5,4,0:0:0:0:
385,269,64778,2,0,L|454:274,1,70,2|0,0:0|0:0,0:0:0:0:
384,160,65094,2,0,L|314:154,1,70,2|0,0:0|0:0,0:0:0:0:
176,152,65410,2,0,P|156:120|153:87,1,70,2|0,0:0|0:0,0:0:0:0:
256,8,65726,5,4,0:0:0:0:
480,192,66042,1,2,0:0:0:0:
256,360,66357,1,4,0:0:0:0:
152,352,66515,1,0,0:0:0:0:
92,264,66673,1,2,0:0:0:0:
100,160,66831,1,0,0:0:0:0:
148,67,66989,6,0,P|212:45|276:71,1,140,4|2,0:0|0:0,0:0:0:0:
416,228,67620,2,0,L|419:297,1,70,2|0,0:0|0:0,0:0:0:0:
296,240,67936,2,0,L|299:170,1,70,2|0,0:0|0:0,0:0:0:0:
200,116,68252,2,0,B|132:136|132:88|62:112,2,140,4|2|2,0:0|0:0|0:0,0:0:0:0:
400,12,69199,1,2,0:0:0:0:
452,232,69515,6,0,P|430:296|369:327,1,140,4|2,0:0|0:0,0:0:0:0:
276,272,69989,2,0,P|208:266|162:315,1,140,2|2,0:0|0:0,0:0:0:0:
92,212,70463,2,0,L|89:142,1,70,2|0,0:0|0:0,0:0:0:0:
207,123,70778,6,0,P|269:143|299:85,1,140,4|2,0:0|0:0,0:0:0:0:
214,22,71252,2,0,P|147:28|112:85,1,140,2|2,0:0|0:0,0:0:0:0:
224,224,71726,2,0,P|257:231|290:220,1,70,2|0,0:0|0:0,0:0:0:0:
103,200,72042,6,0,P|53:244|59:311,2,140,4|2|2,0:0|0:0|0:0,0:0:0:0:
160,112,72831,1,0,0:0:0:0:
256,68,72989,1,2,0:0:0:0:
352,112,73147,1,0,0:0:0:0:
408,200,73305,2,0,P|458:244|452:311,2,140,4|2|2,0:0|0:0|0:0,0:0:0:0:
256,348,74252,1,2,0:0:0:0:
32,120,74568,5,4,0:0:0:0:
224,40,74884,2,0,L|293:34,1,70,2|0,0:0|0:0,0:0:0:0:
248,152,75199,2,0,L|178:146,1,70,2|0,0:0|0:0,0:0:0:0:
272,252,75515,2,0,L|341:246,1,70,2|0,0:0|0:0,0:0:0:0:
480,192,75831,5,4,0:0:0:0:
256,8,76147,1,2,0:0:0:0:
100,160,76462,1,4,0:0:0:0:
92,264,76620,1,0,0:0:0:0:
152,352,76778,1,2,0:0:0:0:
256,360,76936,1,0,0:0:0:0:
344,300,77094,6,0,P|412:296|466:338,1,140,4|2,0:0|0:0,0:0:0:0:
336,172,77726,2,0,P|324:139|326:104,1,70,2|0,0:0|0:0,0:0:0:0:
185,104,78042,2,0,P|187:139|176:172,1,70,2|0,0:0|0:0,0:0:0:0:
256,332,78357,2,0,B|232:263|280:263|260:195,2,140,4|2|2,0:0|0:0|0:0,0:0:0:0:
256,56,79305,1,2,0:0:0:0:
76,131,79620,6,0,P|69:200|100:261,1,140,4|2,0:0|0:0,0:0:0:0:
196,312,80094,2,0,P|262:295|320:330,1,140,2|2,0:0|0:0,0:0:0:0:
392,224,80568,2,0,L|388:132,1,70,2|0,0:0|0:0,0:0:0:0:
256,8,80884,5,4,0:0:0:0:
56,172,81199,1,2,0:0:0:0:
256,340,81515,1,4,0:0:0:0:
456,172,81831,1,2,0:0:0:0:
256,8,82147,6,0,L|116:18,1,140,4|2,0:0|0:0,0:0:0:0:
48,100,82620,1,0,0:0:0:0:
64,204,82778,2,0,P|98:262|164:281,1,140,2|8,0:0|0:0,0:0:0:0:
256,228,83252,1,0,0:0:0:0:
332,156,83410,6,0,P|365:148|399:157,1,70,4|0,0:0|0:0,0:0:0:0:
256,228,83726,1,2,0:0:0:0:
256,228,83884,1,0,0:0:0:0:
163,281,84042,2,0,P|95:287|37:250,1,140,4|8,0:0|0:0,0:0:0:0:
188,104,84673,6,0,B|256:88|256:88|324:103,1,140,4|2,0:0|0:0,0:0:0:0:
396,180,85147,1,0,0:0:0:0:
380,284,85305,2,0,B|348:308|348:308|318:313,1,70,2|0,0:0|0:0,0:0:0:0:
132,284,85620,2,0,B|164:308|164:308|193:313,1,70,8|0,0:0|0:0,0:0:0:0:
56,172,85937,5,4,0:0:0:0:
256,8,86252,1,2,0:0:0:0:
456,172,86568,1,4,0:0:0:0:
256,340,86884,1,2,0:0:0:0:
48,128,87199,6,0,P|108:100|180:120,1,140,4|2,0:0|0:0,0:0:0:0:
256,188,87673,1,0,0:0:0:0:
344,244,87831,2,0,B|448:240|448:240|420:216,1,140,2|8,0:0|0:0,0:0:0:0:
472,124,88305,1,0,0:0:0:0:
296,20,88463,6,0,L|226:23,1,70,4|0,0:0|0:0,0:0:0:0:
148,96,88778,1,2,0:0:0:0:
256,188,88936,1,0,0:0:0:0:
364,94,89094,2,0,P|430:84|480:130,1,140,4|8,0:0|0:0,0:0:0:0:
476,236,89568,1,0,0:0:0:0:
385,331,89726,6,0,B|356:348|356:348|320:352,1,70,4|0,0:0|0:0,0:0:0:0:
126,331,90042,2,0,B|156:348|156:348|192:352,1,70,2|0,0:0|0:0,0:0:0:0:
256,248,90357,1,2,0:0:0:0:
428,128,90673,2,0,P|435:94|428:60,1,70,8|0,0:0|0:0,0:0:0:0:
332,16,90989,6,0,L|262:13,1,70,4|0,0:0|0:0,0:0:0:0:
132,24,91305,1,2,0:0:0:0:
40,132,91463,1,0,0:0:0:0:
108,256,91620,1,4,0:0:0:0:
404,256,91936,1,8,0:0:0:0:
404,256,92252,6,0,B|388:188|388:188|396:116,1,140,4|2,0:0|0:0,0:0:0:0:
472,44,92726,1,0,0:0:0:0:
372,12,92884,2,0,L|232:23,1,140,2|8,0:0|0:0,0:0:0:0:
136,68,93357,1,0,0:0:0:0:
64,144,93515,6,0,P|59:178|65:212,1,70,4|0,0:0|0:0,0:0:0:0:
136,68,93831,1,2,0:0:0:0:
136,68,93989,1,0,0:0:0:0:
228,120,94147,2,0,P|296:126|356:91,1,140,4|8,0:0|0:0,0:0:0:0:
436,24,94620,1,0,0:0:0:0:
492,112,94778,5,4,0:0:0:0:
336,252,95094,1,2,0:0:0:0:
256,332,95252,1,0,0:0:0:0:
176,252,95410,1,2,0:0:0:0:
328,60,95726,2,0,P|361:51|395:58,1,70,8|0,0:0|0:0,0:0:0:0:
456,172,96042,5,4,0:0:0:0:
256,340,96357,1,2,0:0:0:0:
56,172,96673,1,4,0:0:0:0:
256,8,96989,1,2,0:0:0:0:
468,200,97305,6,0,B|480:272|480:272|459:335,1,140,4|2,0:0|0:0,0:0:0:0:
360,372,97778,1,0,0:0:0:0:
276,308,97936,2,0,B|224:316|224:316|188:304|188:304|139:311,1,140,2|8,0:0|0:0,0:0:0:0:
44,356,98410,1,0,0:0:0:0:
12,256,98568,6,0,L|23:186,1,70,4|0,0:0|0:0,0:0:0:0:
68,84,98884,1,2,0:0:0:0:
176,176,99042,1,0,0:0:0:0:
256,56,99199,2,0,P|317:24|383:39,1,140,4|8,0:0|0:0,0:0:0:0:
464,108,99673,1,0,0:0:0:0:
400,192,99831,6,0,B|388:224|388:224|393:259,1,70,4|0,0:0|0:0,0:0:0:0:
332,356,100147,1,2,0:0:0:0:
256,272,100305,1,0,0:0:0:0:
180,356,100463,1,2,0:0:0:0:
72,100,100778,2,0,L|141:93,1,70,8|0,0:0|0:0,0:0:0:0:
256,8,101094,5,4,0:0:0:0:
371,93,101252,1,0,0:0:0:0:
256,180,101410,1,2,0:0:0:0:
141,93,101568,1,0,0:0:0:0:
56,204,101726,2,0,B|36:264|36:264|46:339,1,140,4|8,0:0|0:0,0:0:0:0:
388,272,102357,5,4,0:0:0:0:
416,312,112463,6,0,P|464:260|464:184,1,140,4|2,0:0|0:0,0:0:0:0:
380,108,112936,1,0,0:0:0:0:
380,108,113094,2,0,B|344:96|344:96|312:95,1,70,2|0,0:0|0:0,0:0:0:0:
200,95,113410,2,0,B|168:96|168:96|132:108,1,70,2|2,0:0|0:0,0:0:0:0:
44,200,113726,6,0,L|40:340,1,140,4|2,0:0|0:0,0:0:0:0:
152,296,114199,1,0,0:0:0:0:
152,296,114357,2,0,P|185:308|220:305,1,70,2|0,0:0|0:0,0:0:0:0:
308,240,114673,2,0,P|342:236|375:248,1,70,2|2,0:0|0:0,0:0:0:0:
468,300,114989,6,0,L|478:369,2,70,4|0|2,0:0|0:0|0:0,0:0:0:0:
452,196,115463,1,0,0:0:0:0:
384,116,115620,2,0,L|314:112,1,70,2|0,0:0|0:0,0:0:0:0:
192,188,115936,2,0,L|261:191,1,70,2|2,0:0|0:0,0:0:0:0:
287,291,116252,6,0,P|223:280|190:337,2,140,4|2|2,0:0|0:0|0:0,0:0:0:0:
388,260,117042,1,0,0:0:0:0:
388,260,117199,2,0,L|384:190,1,70,2|2,0:0|0:0,0:0:0:0:
304,83,117515,6,0,P|237:103|168:96,1,140,4|2,0:0|0:0,0:0:0:0:
52,44,117989,1,0,0:0:0:0:
52,44,118147,2,0,B|42:113,1,70,2|0,0:0|0:0,0:0:0:0:
116,248,118463,2,0,B|106:178,1,70,2|2,0:0|0:0,0:0:0:0:
192,303,118778,6,0,P|256:328|324:312,1,140,4|2,0:0|0:0,0:0:0:0:
360,136,119252,1,0,0:0:0:0:
359,136,119410,2,0,P|347:168|349:203,1,70,2|0,0:0|0:0,0:0:0:0:
252,248,119726,2,0,P|253:213|241:180,1,70,2|2,0:0|0:0,0:0:0:0:
184,92,120042,6,0,L|190:22,2,70,4|0|2,0:0|0:0|0:0,0:0:0:0:
108,164,120515,1,0,0:0:0:0:
148,260,120673,2,0,P|176:279|211:278,1,70,2|0,0:0|0:0,0:0:0:0:
364,260,120989,2,0,P|335:279|300:278,1,70,2|2,0:0|0:0,0:0:0:0:
216,176,121305,6,0,P|216:100|256:52,1,140,4|2,0:0|0:0,0:0:0:0:
352,16,121778,1,0,0:0:0:0:
424,92,121936,2,0,L|430:161,1,70,4|0,0:0|0:0,0:0:0:0:
340,216,122252,1,2,0:0:0:0:
340,216,122410,1,2,0:0:0:0:
232,120,122568,6,0,B|172:104|172:104|94:114,1,140,4|2,0:0|0:0,0:0:0:0:
20,200,123042,1,0,0:0:0:0:
88,288,123199,2,0,L|78:357,1,70,2|0,0:0|0:0,0:0:0:0:
196,280,123515,2,0,L|186:210,1,70,2|2,0:0|0:0,0:0:0:0:
256,344,123831,6,0,P|324:345|377:301,1,140,4|2,0:0|0:0,0:0:0:0:
432,212,124305,1,0,0:0:0:0:
380,120,124463,2,0,L|387:50,1,70,2|0,0:0|0:0,0:0:0:0:
248,96,124778,2,0,L|255:165,1,70,2|2,0:0|0:0,0:0:0:0:
168,247,125094,6,0,P|133:249|102:234,2,70,4|0|2,0:0|0:0|0:0,0:0:0:0:
256,308,125568,1,0,0:0:0:0:
343,248,125726,2,0,P|378:249|409:234,1,70,2|0,0:0|0:0,0:0:0:0:
348,124,126042,2,0,L|279:121,1,70,2|2,0:0|0:0,0:0:0:0:
392,28,126357,6,0,P|440:56|452:140,2,140,4|2|2,0:0|0:0|0:0,0:0:0:0:
288,36,127147,1,0,0:0:0:0:
196,88,127305,2,0,L|112:84,1,70,2|2,0:0|0:0,0:0:0:0:
20,176,127620,6,0,B|16:240|16:240|36:320,1,140,4|2,0:0|0:0,0:0:0:0:
136,340,128094,1,0,0:0:0:0:
200,256,128252,2,0,L|206:186,1,70,2|0,0:0|0:0,0:0:0:0:
300,328,128568,2,0,L|306:258,1,70,2|2,0:0|0:0,0:0:0:0:
364,127,128884,6,0,P|427:103|489:133,1,140,4|2,0:0|0:0,0:0:0:0:
472,244,129357,1,0,0:0:0:0:
408,336,129515,2,0,L|339:341,1,70,2|0,0:0|0:0,0:0:0:0:
272,236,129831,2,0,L|203:241,1,70,2|2,0:0|0:0,0:0:0:0:
56,296,130147,6,0,P|47:330|57:363,2,70,4|0|2,0:0|0:0|0:0,0:0:0:0:
100,192,130620,1,0,0:0:0:0:
168,100,130778,2,0,L|174:30,1,70,2|0,0:0|0:0,0:0:0:0:
337,30,131094,2,0,L|344:100,1,70,2|2,0:0|0:0,0:0:0:0:
320,220,131410,6,0,P|256:245|193:219,1,140,4|2,0:0|0:0,0:0:0:0:
116,116,131884,1,0,0:0:0:0:
32,212,132042,2,0,L|41:281,1,70,4|0,0:0|0:0,0:0:0:0:
172,344,132357,1,2,0:0:0:0:
172,344,132515,1,2,0:0:0:0:
340,344,132673,5,4,0:0:0:0:
492,196,132989,2,0,L|485:126,1,70,2|0,0:0|0:0,0:0:0:0:
396,72,133305,2,0,L|403:2,2,70,2|0|2,0:0|0:0|0:0,0:0:0:0:
324,148,133778,1,0,0:0:0:0:
256,68,133936,5,2,0:0:0:0:
88,192,134252,1,2,0:0:0:0:
256,316,134568,2,0,B|327:342|327:286|392:305,1,140,2|8,0:0|0:0,0:0:0:0:
488,344,135042,1,0,0:0:0:0:
472,240,135199,5,2,0:0:0:0:
312,104,135515,2,0,P|306:69|317:36,1,70,2|0,0:0|0:0,0:0:0:0:
194,36,135831,2,0,P|205:69|200:104,2,70,2|0|2,0:0|0:0|0:0,0:0:0:0:
92,8,136305,1,0,0:0:0:0:
16,80,136463,5,2,0:0:0:0:
124,260,136778,1,2,0:0:0:0:
200,188,136936,1,0,0:0:0:0:
256,276,137094,2,0,L|325:278,1,70,4|0,0:0|0:0,0:0:0:0:
428,164,137410,2,0,L|358:161,1,70,8|0,0:0|0:0,0:0:0:0:
256,64,137726,5,2,0:0:0:0:
164,252,138042,2,0,P|163:286|174:319,1,70,2|0,0:0|0:0,0:0:0:0:
336,319,138357,2,0,P|348:285|346:251,1,70,2|0,0:0|0:0,0:0:0:0:
256,184,138673,2,0,L|256:114,1,70,2|0,0:0|0:0,0:0:0:0:
256,8,138989,5,2,0:0:0:0:
88,136,139305,1,2,0:0:0:0:
244,276,139620,2,0,P|310:263|340:203,1,140,2|8,0:0|0:0,0:0:0:0:
332,96,140094,1,0,0:0:0:0:
256,24,140252,5,2,0:0:0:0:
84,144,140568,2,0,L|76:213,1,70,2|0,0:0|0:0,0:0:0:0:
184,292,140884,2,0,L|176:222,2,70,2|0|2,0:0|0:0|0:0,0:0:0:0:
256,368,141357,1,0,0:0:0:0:
352,328,141515,5,2,0:0:0:0:
428,132,141831,1,2,0:0:0:0:
376,40,141989,1,0,0:0:0:0:
292,104,142147,2,0,L|222:100,1,70,4|0,0:0|0:0,0:0:0:0:
128,216,142463,2,0,L|197:219,1,70,8|0,0:0|0:0,0:0:0:0:
256,348,142778,5,4,0:0:0:0:
428,224,143094,2,0,P|432:189|427:154,2,70,2|0|2,0:0|0:0|0:0,0:0:0:0:
352,296,143568,1,0,0:0:0:0:
260,244,143726,2,0,L|172:248,1,70,2|0,0:0|0:0,0:0:0:0:
100,192,144042,5,2,0:0:0:0:
256,8,144357,1,2,0:0:0:0:
411,191,144673,2,0,P|394:257|332:283,1,140,2|8,0:0|0:0,0:0:0:0:
256,212,145147,1,0,0:0:0:0:
180,283,145305,5,2,0:0:0:0:
64,108,145620,2,0,L|58:38,2,70,2|0|2,0:0|0:0|0:0,0:0:0:0:
152,168,146094,1,0,0:0:0:0:
239,112,146252,2,0,P|273:104|308:109,1,70,2|0,0:0|0:0,0:0:0:0:
408,144,146568,5,2,0:0:0:0:
256,324,146884,1,2,0:0:0:0:
188,244,147042,1,0,0:0:0:0:
96,296,147199,2,0,L|92:365,1,70,4|0,0:0|0:0,0:0:0:0:
12,228,147515,2,0,L|8:297,1,70,8|0,0:0|0:0,0:0:0:0:
80,140,147831,5,2,0:0:0:0:
256,24,148147,2,0,L|325:26,1,70,2|0,0:0|0:0,0:0:0:0:
416,84,148463,1,2,0:0:0:0:
356,168,148620,1,0,0:0:0:0:
435,235,148778,2,0,P|443:270|438:304,1,70,2|0,0:0|0:0,0:0:0:0:
356,368,149094,5,2,0:0:0:0:
148,240,149410,1,2,0:0:0:0:
260,28,149726,2,0,B|332:16|332:16|397:30,1,140,2|8,0:0|0:0,0:0:0:0:
496,64,150199,1,0,0:0:0:0:
428,144,150357,5,2,0:0:0:0:
320,323,150673,2,0,P|352:336|387:337,2,70,2|0|2,0:0|0:0|0:0,0:0:0:0:
256,240,151147,1,0,0:0:0:0:
191,324,151305,2,0,P|159:336|124:337,1,70,2|0,0:0|0:0,0:0:0:0:
20,328,151620,5,2,0:0:0:0:
4,92,151936,1,2,0:0:0:0:
84,24,152094,1,0,0:0:0:0:
140,116,152252,2,0,P|174:115|207:102,1,70,4|0,0:0|0:0,0:0:0:0:
372,116,152568,2,0,P|337:115|304:102,1,70,8|0,0:0|0:0,0:0:0:0:
256,244,152884,5,4,0:0:0:0:
68,256,157936,6,0,B|56:184|56:184|66:117,1,140,4|2,0:0|0:0,0:0:0:0:
136,36,158410,1,0,0:0:0:0:
220,100,158568,2,0,B|256:108|256:108|288:100,1,70,2|0,0:0|0:0,0:0:0:0:
288,208,158884,2,0,B|255:200|255:200|219:208,1,70,2|0,0:0|0:0,0:0:0:0:
196,312,159199,6,0,P|257:340|320:312,1,140,4|2,0:0|0:0,0:0:0:0:
384,228,159673,1,0,0:0:0:0:
322,144,159831,2,0,B|309:112|309:112|309:76,1,70,2|0,0:0|0:0,0:0:0:0:
202,76,160147,2,0,B|202:112|202:112|190:144,1,70,2|0,0:0|0:0,0:0:0:0:
64,132,160463,6,0,L|66:201,1,70,4|0,0:0|0:0,0:0:0:0:
138,278,160778,2,0,P|168:293|203:292,1,70,2|0,0:0|0:0,0:0:0:0:
309,292,161094,2,0,P|343:293|374:277,1,70,2|0,0:0|0:0,0:0:0:0:
445,201,161410,2,0,L|448:132,1,70,2|0,0:0|0:0,0:0:0:0:
378,54,161726,6,0,B|342:50|342:50|309:59,1,70,4|0,0:0|0:0,0:0:0:0:
202,59,162042,2,0,B|170:50|170:50|134:54,1,70,2|0,0:0|0:0,0:0:0:0:
64,132,162357,2,0,L|70:201,1,70,2|0,0:0|0:0,0:0:0:0:
88,304,162673,1,2,0:0:0:0:
88,304,162831,1,0,0:0:0:0:
196,212,162989,6,0,B|260:184|260:240|331:215,1,140,4|2,0:0|0:0,0:0:0:0:
424,164,163463,1,0,0:0:0:0:
480,252,163620,2,0,P|482:286|476:321,1,70,2|0,0:0|0:0,0:0:0:0:
376,356,163936,2,0,P|341:358|306:352,1,70,2|0,0:0|0:0,0:0:0:0:
208,312,164252,6,0,P|175:251|185:182,1,140,4|2,0:0|0:0,0:0:0:0:
256,104,164726,1,0,0:0:0:0:
340,40,164884,2,0,L|409:41,1,70,2|0,0:0|0:0,0:0:0:0:
444,140,165199,2,0,L|374:138,1,70,2|0,0:0|0:0,0:0:0:0:
248,96,165515,6,0,B|176:84|176:84|111:100,1,140,4|2,0:0|0:0,0:0:0:0:
44,180,165989,1,0,0:0:0:0:
104,268,166147,2,0,L|107:337,1,70,2|0,0:0|0:0,0:0:0:0:
208,372,166463,2,0,L|211:302,1,70,2|0,0:0|0:0,0:0:0:0:
312,280,166778,6,0,P|379:288|428:242,1,140,4|2,0:0|0:0,0:0:0:0:
472,148,167252,1,0,0:0:0:0:
412,60,167410,2,0,B|376:56|376:56|344:64,1,70,2|0,0:0|0:0,0:0:0:0:
256,120,167726,1,2,0:0:0:0:
256,120,167884,1,0,0:0:0:0:
188,240,168042,6,0,L|184:309,1,70,4|0,0:0|0:0,0:0:0:0:
328,309,168357,2,0,L|324:240,1,70,2|0,0:0|0:0,0:0:0:0:
256,120,168673,2,0,P|203:75|135:80,1,140,2|2,0:0|0:0,0:0:0:0:
44,136,169147,1,0,0:0:0:0:
20,236,169305,6,0,P|40:288|72:308,1,70,4|0,0:0|0:0,0:0:0:0:
152,360,169620,2,0,L|221:356,1,70,2|0,0:0|0:0,0:0:0:0:
288,256,169936,2,0,P|353:241|405:284,1,140,2|2,0:0|0:0,0:0:0:0:
476,364,170410,1,0,0:0:0:0:
508,264,170568,6,0,L|511:194,1,70,4|0,0:0|0:0,0:0:0:0:
416,88,170884,2,0,L|424:168,1,70,2|0,0:0|0:0,0:0:0:0:
368,248,171199,2,0,P|334:255|300:248,1,70,2|0,0:0|0:0,0:0:0:0:
144,248,171515,2,0,P|177:255|211:248,1,70,2|0,0:0|0:0,0:0:0:0:
256,152,171831,6,0,L|256:82,1,70,4|0,0:0|0:0,0:0:0:0:
340,16,172147,2,0,B|376:4|376:4|408:6,1,70,2|0,0:0|0:0,0:0:0:0:
436,144,172463,2,0,B|400:156|400:156|368:154,1,70,2|0,0:0|0:0,0:0:0:0:
256,82,172778,1,2,0:0:0:0:
256,82,172936,1,0,0:0:0:0:
144,154,173094,6,0,B|156:202|156:202|140:242|140:242|150:288,1,140,4|2,0:0|0:0,0:0:0:0:
224,364,173568,1,0,0:0:0:0:
319,320,173726,2,0,P|354:315|386:328,1,70,2|0,0:0|0:0,0:0:0:0:
488,264,174042,2,0,L|477:195,1,70,2|0,0:0|0:0,0:0:0:0:
392,100,174357,6,0,B|340:108|340:108|312:96|312:96|256:104,1,140,4|2,0:0|0:0,0:0:0:0:
188,184,174831,1,0,0:0:0:0:
151,284,174989,2,0,P|162:316|189:338,1,70,2|0,0:0|0:0,0:0:0:0:
322,338,175305,2,0,P|349:316|360:284,1,70,2|0,0:0|0:0,0:0:0:0:
252,175,175620,6,0,P|184:166|148:109,1,140,4|2,0:0|0:0,0:0:0:0:
184,12,176094,1,0,0:0:0:0:
288,0,176252,2,0,L|357:3,1,70,2|0,0:0|0:0,0:0:0:0:
428,128,176568,2,0,L|358:124,1,70,2|0,0:0|0:0,0:0:0:0:
256,92,176884,5,4,0:0:0:0:
160,144,177042,1,0,0:0:0:0:
152,248,177199,1,2,0:0:0:0:
216,332,177357,1,0,0:0:0:0:
339,363,177515,2,0,P|406:351|435:291,1,140,4|2,0:0|0:0,0:0:0:0:
224,124,178147,6,0,L|228:40,1,70,4|0,0:0|0:0,0:0:0:0:
100,8,178463,2,0,L|103:77,1,70,2|0,0:0|0:0,0:0:0:0:
132,180,178778,1,2,0:0:0:0:
204,256,178936,1,0,0:0:0:0:
304,292,179094,1,2,0:0:0:0:
404,264,179252,1,0,0:0:0:0:
448,168,179410,6,0,L|451:98,1,70,4|0,0:0|0:0,0:0:0:0:
328,24,179726,2,0,L|331:93,1,70,2|0,0:0|0:0,0:0:0:0:
256,168,180042,1,2,0:0:0:0:
181,93,180199,1,0,0:0:0:0:
96,156,180357,2,0,P|92:190|100:224,1,70,2|0,0:0|0:0,0:0:0:0:
180,292,180673,6,0,B|249:288,1,70,4|0,0:0|0:0,0:0:0:0:
328,360,180989,2,0,B|397:356,1,70,2|0,0:0|0:0,0:0:0:0:
492,256,181305,2,0,L|484:187,1,70,2|0,0:0|0:0,0:0:0:0:
392,136,181620,2,0,L|401:67,1,70,2|0,0:0|0:0,0:0:0:0:
300,32,181936,6,0,P|249:78|181:73,1,140,4|2,0:0|0:0,0:0:0:0:
84,36,182410,1,0,0:0:0:0:
52,136,182568,2,0,L|57:205,1,70,4|0,0:0|0:0,0:0:0:0:
160,304,182884,2,0,L|156:338,2,35,2|0|0,0:0|0:0|0:0,0:0:0:0:
288,240,183199,6,0,L|357:236,1,70,4|0,0:0|0:0,0:0:0:0:
416,112,183515,2,0,L|346:108,1,70,2|0,0:0|0:0,0:0:0:0:
256,48,183831,1,2,0:0:0:0:
160,88,183989,1,0,0:0:0:0:
104,176,184147,1,2,0:0:0:0:
136,276,184305,1,0,0:0:0:0:
220,336,184463,6,0,P|254:339|288:333,1,70,4|0,0:0|0:0,0:0:0:0:
392,240,184778,2,0,L|403:170,1,70,2|0,0:0|0:0,0:0:0:0:
488,104,185094,1,2,0:0:0:0:
432,16,185252,1,0,0:0:0:0:
348,80,185410,2,0,P|315:92|280:91,1,70,2|0,0:0|0:0,0:0:0:0:
184,44,185726,6,0,L|114:50,1,70,4|0,0:0|0:0,0:0:0:0:
48,156,186042,2,0,B|40:192|40:192|48:224,1,70,2|0,0:0|0:0,0:0:0:0:
168,304,186357,2,0,B|176:268|176:268|168:236,1,70,2|0,0:0|0:0,0:0:0:0:
256,124,186673,1,2,0:0:0:0:
256,124,186831,1,0,0:0:0:0:
343,183,186989,6,0,P|410:185|451:131,1,140,4|2,0:0|0:0,0:0:0:0:
360,24,187463,1,0,0:0:0:0:
256,124,187620,2,0,L|186:126,1,70,4|0,0:0|0:0,0:0:0:0:
56,196,187936,2,0,L|59:230,2,35,2|0|0,0:0|0:0|0:0,0:0:0:0:
108,328,188252,6,0,P|141:335|176:333,1,70,4|0,0:0|0:0,0:0:0:0:
256,264,188568,1,2,0:0:0:0:
256,264,188726,1,0,0:0:0:0:
328,184,188884,2,0,L|325:114,1,70,2|0,0:0|0:0,0:0:0:0:
456,44,189199,2,0,L|453:113,1,70,2|0,0:0|0:0,0:0:0:0:
440,236,189515,5,4,0:0:0:0:
440,236,189673,1,0,0:0:0:0:
368,312,189831,1,2,0:0:0:0:
368,312,189989,1,0,0:0:0:0:
272,268,190147,2,0,L|176:272,1,70,2|0,0:0|0:0,0:0:0:0:
132,352,190463,1,2,0:0:0:0:
48,288,190620,1,0,0:0:0:0:
119,208,190778,6,0,P|137:177|144:143,1,70,4|0,0:0|0:0,0:0:0:0:
104,48,191094,1,2,0:0:0:0:
104,48,191252,1,0,0:0:0:0:
200,8,191410,2,0,L|292:12,1,70,2|0,0:0|0:0,0:0:0:0:
372,40,191726,1,2,0:0:0:0:
452,108,191884,1,0,0:0:0:0:
496,204,192042,6,0,P|496:272|440:328,1,140,4|2,0:0|0:0,0:0:0:0:
368,256,192515,1,0,0:0:0:0:
276,308,192673,2,0,L|192:312,1,70,4|0,0:0|0:0,0:0:0:0:
68,344,192989,2,0,L|74:378,2,35,2|0|0,0:0|0:0|0:0,0:0:0:0:
40,204,193305,6,0,L|51:134,1,70,4|0,0:0|0:0,0:0:0:0:
104,44,193620,1,2,0:0:0:0:
104,44,193778,1,0,0:0:0:0:
184,112,193936,2,0,P|218:119|252:118,1,70,2|0,0:0|0:0,0:0:0:0:
372,44,194252,2,0,P|406:43|440:50,1,70,2|0,0:0|0:0,0:0:0:0:
496,144,194568,5,4,0:0:0:0:
496,144,194726,1,0,0:0:0:0:
440,232,194884,1,2,0:0:0:0:
440,232,195042,1,0,0:0:0:0:
344,188,195199,2,0,L|324:120,1,70,2|0,0:0|0:0,0:0:0:0:
256,40,195515,1,2,0:0:0:0:
188,120,195673,1,0,0:0:0:0:
124,204,195831,6,0,P|122:238|130:272,1,70,4|0,0:0|0:0,0:0:0:0:
204,368,196147,1,2,0:0:0:0:
204,368,196305,1,0,0:0:0:0:
312,296,196463,2,0,L|392:300,1,70,2|0,0:0|0:0,0:0:0:0:
484,216,196778,1,2,0:0:0:0:
484,216,196936,1,0,0:0:0:0:
400,103,197094,6,0,P|338:134|270:123,1,140,4|2,0:0|0:0,0:0:0:0:
144,60,197568,1,0,0:0:0:0:
52,168,197726,2,0,L|60:260,1,70,4|0,0:0|0:0,0:0:0:0:
172,324,198042,2,0,L|206:328,2,35,2|0|0,0:0|0:0|0:0,0:0:0:0:
324,288,198357,5,4,0:0:0:0:
256,192,198515,12,0,200884,0:0:0:0:
