osu file format v14

[General]
AudioFilename: audio.mp3
AudioLeadIn: 0
PreviewTime: 112384
Countdown: 0
SampleSet: None
StackLeniency: 0.7
Mode: 0
LetterboxInBreaks: 0
WidescreenStoryboard: 1

[Editor]
Bookmarks: 42,10147,21515,31620,41726,51831,60673,61936,72042,82147,92252,102357,112463,122568,132673,142778,152884,157936,162989,168042,173094,178147,183199,188252,193305,198357,200884
DistanceSpacing: 1.2
BeatDivisor: 2
GridSize: 4
TimelineZoom: 1

[Metadata]
Title:A New King Is Born
TitleUnicode:A New King Is Born
Artist:Loki
ArtistUnicode:Loki
Creator:Project Railgun
Version:Normal
Source:
Tags:project_railgun beatmapping contest mapping with rewards mwr
BeatmapID:1625752
BeatmapSetID:773395

[Difficulty]
HPDrainRate:4.8
CircleSize:3.3
OverallDifficulty:4.6
ApproachRate:5.5
SliderMultiplier:0.9
SliderTickRate:1

[Events]
//Background and Video events
0,0,"bg.jpg",0,0
//Break Periods
2,102557,111338
2,153084,156811
//Storyboard Layer 0 (Background)
//Storyboard Layer 1 (Fail)
//Storyboard Layer 2 (Pass)
//Storyboard Layer 3 (Foreground)
//Storyboard Sound Samples

[TimingPoints]
42,315.789473684211,4,2,0,100,1,0
21515,-100,4,2,0,100,0,1
21594,-100,4,2,0,100,0,0
41726,-100,4,2,0,100,0,1
51752,-100,4,2,0,100,0,0
51831,-100,4,2,0,100,0,1
60673,-100,4,2,0,100,0,0
61936,-100,4,2,0,100,0,1
62015,-100,4,2,0,100,0,0
82147,-100,4,2,0,100,0,1
82226,-100,4,2,0,100,0,0
112463,-100,4,2,0,100,0,1
122489,-100,4,2,0,100,0,0
122568,-100,4,2,0,100,0,1
132673,-100,4,2,0,100,0,0
157936,-100,4,2,0,100,0,1
158015,-100,4,2,0,100,0,0
168042,-100,4,2,0,100,0,1
168120,-100,4,2,0,100,0,0
173094,-100,4,2,0,100,0,1
173173,-100,4,2,0,100,0,0
178147,-100,4,2,0,100,0,1
188173,-100,4,2,0,100,0,0
188252,-100,4,2,0,100,0,1
198357,-100,4,2,0,100,0,0
198515,-100,4,2,0,75,0,0

[Colours]
Combo1 : 156,44,184
Combo2 : 137,104,41
Combo3 : 54,181,184
Combo4 : 60,191,105

[HitObjects]
203,324,42,6,0,P|159:323|118:304,3,90,4|2|2|2,0:0|0:0|0:0|0:0,0:0:0:0:
44,224,1305,2,0,L|47:134,3,90,4|2|2|2,0:0|0:0|0:0|0:0,0:0:0:0:
116,52,2568,6,0,B|160:36|160:36|202:45,1,90,4|2,0:0|0:0,0:0:0:0:
256,64,3042,1,0,0:0:0:0:
309,45,3199,2,0,B|352:36|352:36|396:52,1,90,4|2,0:0|0:0,0:0:0:0:
436,152,3831,2,0,L|429:241,2,90,4|2|2,0:0|0:0|0:0,0:0:0:0:
504,68,4778,1,2,0:0:0:0:
396,52,5094,6,0,B|348:48|348:48|307:56,1,90,4|2,0:0|0:0,0:0:0:0:
256,80,5568,1,0,0:0:0:0:
212,112,5726,2,0,P|199:154|210:198,1,90,4|2,0:0|0:0,0:0:0:0:
292,268,6357,2,0,B|302:311|302:311|296:356,2,90,4|2|2,0:0|0:0|0:0,0:0:0:0:
210,198,7305,1,2,0:0:0:0:
236,92,7620,6,0,L|325:84,1,90,4|0,0:0|0:0,0:0:0:0:
299,190,8252,2,0,L|209:197,1,90,4|0,0:0|0:0,0:0:0:0:
104,164,8884,2,0,B|96:116|96:116|104:75,1,90,4|2,0:0|0:0,0:0:0:0:
136,32,9357,1,0,0:0:0:0:
188,12,9515,2,0,L|278:15,1,90,2|2,0:0|0:0,0:0:0:0:
360,84,10147,6,0,L|368:174,3,90,4|2|2|2,0:0|0:0|0:0|0:0,0:0:0:0:
256,176,11410,2,0,L|248:265,3,90,4|2|2|2,0:0|0:0|0:0|0:0,0:0:0:0:
188,356,12673,6,0,B|140:360|140:360|99:349,1,90,4|2,0:0|0:0,0:0:0:0:
48,332,13147,1,0,0:0:0:0:
12,292,13305,2,0,P|13:247|32:207,1,90,4|2,0:0|0:0,0:0:0:0:
124,152,13936,2,0,P|167:143|211:154,2,90,4|2|2,0:0|0:0|0:0,0:0:0:0:
32,92,14884,1,2,0:0:0:0:
116,24,15199,6,0,B|160:12|160:12|205:16,1,90,4|2,0:0|0:0,0:0:0:0:
256,40,15673,1,0,0:0:0:0:
307,16,15831,2,0,B|352:12|352:12|396:24,1,90,4|2,0:0|0:0,0:0:0:0:
468,104,16462,2,0,P|476:147|465:191,2,90,4|2|2,0:0|0:0|0:0,0:0:0:0:
395,23,17410,1,2,0:0:0:0:
312,92,17726,6,0,L|304:152,2,60,4|2|2,0:0|0:0|0:0,0:0:0:0:
268,36,18357,2,0,P|224:24|180:27,1,90,4|2,0:0|0:0,0:0:0:0:
88,80,18989,2,0,P|79:124|87:168,3,90,4|2|2|2,0:0|0:0|0:0|0:0,0:0:0:0:
128,268,20252,1,2,0:0:0:0:
200,348,20568,1,2,0:0:0:0:
312,348,20884,1,2,0:0:0:0:
384,268,21199,1,2,0:0:0:0:
432,172,21515,6,0,B|432:124|432:124|414:87,1,90,4|2,0:0|0:0,0:0:0:0:
368,56,21989,1,0,0:0:0:0:
320,32,22147,2,0,L|230:32,1,90,2|8,0:0|0:0,0:0:0:0:
128,60,22778,1,4,0:0:0:0:
52,136,23094,2,0,L|7:139,2,45,2|0|2,0:0|0:0|0:0,0:0:0:0:
92,236,23726,1,8,0:0:0:0:
124,340,24042,6,0,B|160:356|160:356|210:349,1,90,4|2,0:0|0:0,0:0:0:0:
256,324,24515,1,2,0:0:0:0:
301,349,24673,2,0,B|352:356|352:356|388:340,1,90,2|8,0:0|0:0,0:0:0:0:
460,260,25305,2,0,L|456:164,1,90,4|2,0:0|0:0,0:0:0:0:
348,164,25936,2,0,L|344:60,1,90,4|2,0:0|0:0,0:0:0:0:
256,12,26568,5,4,0:0:0:0:
168,72,26884,2,0,L|123:65,2,45,2|0|2,0:0|0:0|0:0,0:0:0:0:
256,136,27515,1,8,0:0:0:0:
340,204,27831,2,0,L|336:293,1,90,4|2,0:0|0:0,0:0:0:0:
296,332,28305,1,2,0:0:0:0:
248,352,28463,2,0,P|203:352|164:331,1,90,2|8,0:0|0:0,0:0:0:0:
104,244,29094,5,4,0:0:0:0:
152,148,29410,2,0,L|147:103,2,45,2|0|2,0:0|0:0|0:0,0:0:0:0:
228,224,30042,1,8,0:0:0:0:
319,283,30357,2,0,P|342:287|364:288,1,45,4|0,0:0|0:0,0:0:0:0:
412,260,30673,2,0,L|456:255,2,45,2|0|2,0:0|0:0|0:0,0:0:0:0:
344,176,31305,1,8,0:0:0:0:
256,116,31620,5,4,0:0:0:0:
180,192,31936,2,0,L|176:264,2,45,2|0|2,0:0|0:0|0:0,0:0:0:0:
128,96,32568,1,8,0:0:0:0:
216,32,32884,2,0,P|258:19|300:33,1,90,4|2,0:0|0:0,0:0:0:0:
332,76,33357,1,0,0:0:0:0:
356,124,33515,2,0,B|360:168|360:168|349:212,1,90,2|8,0:0|0:0,0:0:0:0:
256,268,34147,5,4,0:0:0:0:
168,204,34463,2,0,L|123:211,2,45,2|0|2,0:0|0:0|0:0,0:0:0:0:
256,140,35094,1,8,0:0:0:0:
339,71,35410,2,0,P|381:54|425:57,1,90,4|2,0:0|0:0,0:0:0:0:
448,164,36042,2,0,P|406:181|362:178,1,90,4|2,0:0|0:0,0:0:0:0:
256,140,36673,5,4,0:0:0:0:
188,56,36989,2,0,L|184:11,2,45,2|0|2,0:0|0:0|0:0,0:0:0:0:
120,140,37620,1,8,0:0:0:0:
132,248,37936,2,0,P|160:282|202:297,1,90,4|2,0:0|0:0,0:0:0:0:
256,280,38410,1,0,0:0:0:0:
309,297,38568,2,0,P|351:282|379:248,1,90,2|8,0:0|0:0,0:0:0:0:
392,140,39199,5,4,0:0:0:0:
340,44,39515,2,0,L|348:-12,2,45,2|0|2,0:0|0:0|0:0,0:0:0:0:
256,112,40147,1,8,0:0:0:0:
172,48,40463,2,0,P|149:45|127:49,1,45,4|0,0:0|0:0,0:0:0:0:
80,76,40778,2,0,L|36:72,2,45,2|0|2,0:0|0:0|0:0,0:0:0:0:
156,152,41410,1,8,0:0:0:0:
256,112,41726,6,0,L|345:115,1,90,4|0,0:0|0:0,0:0:0:0:
388,216,42357,2,0,L|298:212,1,90,2|2,0:0|0:0,0:0:0:0:
252,312,42989,2,0,L|341:315,1,90,2|0,0:0|0:0,0:0:0:0:
448,288,43620,2,0,P|469:248|471:204,1,90,2|2,0:0|0:0,0:0:0:0:
436,100,44252,5,4,0:0:0:0:
352,28,44568,1,0,0:0:0:0:
256,80,44884,1,2,0:0:0:0:
160,28,45199,1,0,0:0:0:0:
76,100,45515,2,0,L|79:189,1,90,4|0,0:0|0:0,0:0:0:0:
188,196,46147,2,0,L|191:285,1,90,2|0,0:0|0:0,0:0:0:0:
284,340,46778,6,0,P|328:346|371:334,1,90,4|0,0:0|0:0,0:0:0:0:
368,228,47410,2,0,P|324:239|280:233,1,90,2|2,0:0|0:0,0:0:0:0:
272,124,48042,2,0,P|316:130|359:118,1,90,2|0,0:0|0:0,0:0:0:0:
460,80,48673,2,0,L|463:169,1,90,2|2,0:0|0:0,0:0:0:0:
400,256,49305,5,4,0:0:0:0:
312,320,49620,1,0,0:0:0:0:
200,320,49936,1,2,0:0:0:0:
112,256,50252,1,0,0:0:0:0:
76,152,50568,2,0,P|86:108|118:78,1,90,4|2,0:0|0:0,0:0:0:0:
164,48,51042,1,0,0:0:0:0:
212,28,51199,2,0,L|302:28,1,90,2|2,0:0|0:0,0:0:0:0:
384,96,51831,6,0,L|390:185,1,90,4|0,0:0|0:0,0:0:0:0:
296,244,52463,2,0,L|289:154,1,90,2|2,0:0|0:0,0:0:0:0:
188,120,53094,2,0,L|194:209,1,90,2|0,0:0|0:0,0:0:0:0:
232,312,53726,2,0,P|270:334|314:333,1,90,2|2,0:0|0:0,0:0:0:0:
416,296,54357,5,4,0:0:0:0:
496,224,54673,1,0,0:0:0:0:
404,168,54989,1,2,0:0:0:0:
492,104,55305,1,0,0:0:0:0:
400,44,55620,2,0,B|356:32|356:32|311:37,1,90,4|0,0:0|0:0,0:0:0:0:
200,37,56252,2,0,B|156:32|156:32|112:44,1,90,2|0,0:0|0:0,0:0:0:0:
44,128,56884,6,0,P|34:171|41:215,1,90,4|0,0:0|0:0,0:0:0:0:
144,248,57515,2,0,P|137:203|146:159,1,90,2|2,0:0|0:0,0:0:0:0:
248,196,58147,2,0,P|239:240|245:284,1,90,2|0,0:0|0:0,0:0:0:0:
348,320,58778,2,0,L|437:317,1,90,2|2,0:0|0:0,0:0:0:0:
504,232,59410,5,4,0:0:0:0:
460,132,59726,1,0,0:0:0:0:
360,172,60042,1,2,0:0:0:0:
304,80,60357,1,0,0:0:0:0:
400,28,60673,1,4,0:0:0:0:
256,144,61936,6,0,L|256:234,1,90,4|0,0:0|0:0,0:0:0:0:
316,328,62568,1,2,0:0:0:0:
112,252,63199,2,0,P|100:208|102:163,1,90,2|0,0:0|0:0,0:0:0:0:
176,84,63831,2,0,L|265:80,1,90,2|0,0:0|0:0,0:0:0:0:
368,48,64463,1,4,0:0:0:0:
468,239,65094,6,0,P|406:300|322:280,1,180,2|4,0:0|0:0,0:0:0:0:
256,192,66042,1,2,0:0:0:0:
190,280,66357,1,2,0:0:0:0:
88,240,66673,1,0,0:0:0:0:
92,132,66989,6,0,P|115:93|152:70,1,90,4|0,0:0|0:0,0:0:0:0:
256,32,67620,1,2,0:0:0:0:
428,164,68252,2,0,L|434:253,1,90,2|0,0:0|0:0,0:0:0:0:
336,300,68884,2,0,L|329:210,1,90,2|0,0:0|0:0,0:0:0:0:
279,115,69515,6,0,P|199:83|121:124,1,180,4|0,0:0|0:0,0:0:0:0:
88,228,70463,1,2,0:0:0:0:
168,300,70778,2,0,B|256:344|256:272|341:310,1,180,4|0,0:0|0:0,0:0:0:0:
436,364,71726,1,2,0:0:0:0:
464,260,72042,6,0,L|456:170,2,90,4|0|2,0:0|0:0|0:0,0:0:0:0:
352,76,73305,2,0,L|344:165,2,90,2|0|2,0:0|0:0|0:0,0:0:0:0:
256,24,74252,1,0,0:0:0:0:
160,76,74568,1,4,0:0:0:0:
32,248,75199,6,0,P|79:320|165:317,1,180,2|4,0:0|0:0,0:0:0:0:
256,260,76147,1,2,0:0:0:0:
347,317,76463,1,2,0:0:0:0:
436,256,76778,1,0,0:0:0:0:
476,156,77094,6,0,L|472:66,2,90,4|0|2,0:0|0:0|0:0,0:0:0:0:
259,170,78357,2,0,L|255:259,2,90,2|0|2,0:0|0:0|0:0,0:0:0:0:
192,88,79305,1,0,0:0:0:0:
83,100,79620,2,0,P|34:198|143:184,1,270,4|2,0:0|0:0,0:0:0:0:
192,88,80884,1,4,0:0:0:0:
256,296,81515,1,4,0:0:0:0:
320,92,82147,6,0,L|440:88,1,90,4|2,0:0|0:0,0:0:0:0:
452,120,82620,1,0,0:0:0:0:
488,160,82778,2,0,B|489:204|489:204|473:246,1,90,2|8,0:0|0:0,0:0:0:0:
392,320,83410,1,4,0:0:0:0:
320,236,83726,2,0,L|315:191,2,45,2|0|2,0:0|0:0|0:0,0:0:0:0:
256,324,84357,1,8,0:0:0:0:
151,348,84673,6,0,P|107:341|73:313,1,90,4|2,0:0|0:0,0:0:0:0:
36,276,85147,1,0,0:0:0:0:
16,224,85305,2,0,L|23:134,1,90,2|8,0:0|0:0,0:0:0:0:
114,72,85936,2,0,P|157:60|201:66,1,90,4|2,0:0|0:0,0:0:0:0:
310,66,86568,2,0,P|354:60|398:72,1,90,4|2,0:0|0:0,0:0:0:0:
472,152,87199,5,4,0:0:0:0:
436,252,87515,2,0,L|440:296,2,45,2|0|2,0:0|0:0|0:0,0:0:0:0:
344,192,88147,1,8,0:0:0:0:
256,128,88463,2,0,L|164:124,1,90,4|2,0:0|0:0,0:0:0:0:
116,140,88936,1,0,0:0:0:0:
72,172,89094,2,0,B|64:219|64:219|75:259,1,90,2|8,0:0|0:0,0:0:0:0:
164,324,89726,5,4,0:0:0:0:
256,268,90042,2,0,L|258:223,2,45,2|0|2,0:0|0:0|0:0,0:0:0:0:
348,324,90673,1,8,0:0:0:0:
440,268,90989,2,0,P|444:246|445:223,1,45,4|0,0:0|0:0,0:0:0:0:
436,172,91305,2,0,L|433:127,2,45,2|0|2,0:0|0:0|0:0,0:0:0:0:
332,204,91936,1,8,0:0:0:0:
256,128,92252,5,4,0:0:0:0:
180,204,92568,2,0,L|176:248,2,45,2|0|2,0:0|0:0|0:0,0:0:0:0:
88,144,93199,1,8,0:0:0:0:
116,40,93515,2,0,L|205:26,1,90,4|2,0:0|0:0,0:0:0:0:
256,48,93989,1,0,0:0:0:0:
306,26,94147,2,0,L|396:40,1,90,2|8,0:0|0:0,0:0:0:0:
472,120,94778,5,4,0:0:0:0:
436,224,95094,2,0,L|440:268,2,45,2|0|2,0:0|0:0|0:0,0:0:0:0:
352,156,95726,1,8,0:0:0:0:
256,99,96042,2,0,P|211:93|169:107,1,90,4|2,0:0|0:0,0:0:0:0:
168,216,96673,2,0,P|212:221|254:207,1,90,4|2,0:0|0:0,0:0:0:0:
352,156,97305,5,4,0:0:0:0:
432,84,97620,2,0,L|476:88,2,45,2|0|2,0:0|0:0|0:0,0:0:0:0:
348,16,98252,1,8,0:0:0:0:
252,64,98568,2,0,L|162:56,1,90,4|2,0:0|0:0,0:0:0:0:
112,76,99042,1,0,0:0:0:0:
80,116,99199,2,0,P|70:159|83:202,1,90,2|8,0:0|0:0,0:0:0:0:
168,268,99831,5,4,0:0:0:0:
256,332,100147,2,0,L|256:380,2,45,2|0|2,0:0|0:0|0:0,0:0:0:0:
344,268,100778,1,8,0:0:0:0:
420,192,101094,2,0,P|424:169|420:147,1,45,4|0,0:0|0:0,0:0:0:0:
396,100,101410,2,0,L|396:55,2,45,2|0|2,0:0|0:0|0:0,0:0:0:0:
308,160,102042,1,8,0:0:0:0:
204,120,102357,5,4,0:0:0:0:
119,287,112463,6,0,P|161:305|206:305,1,90,4|0,0:0|0:0,0:0:0:0:
256,284,112936,1,0,0:0:0:0:
305,305,113094,2,0,P|350:305|392:287,1,90,2|2,0:0|0:0,0:0:0:0:
448,196,113726,2,0,L|444:106,1,90,4|0,0:0|0:0,0:0:0:0:
428,56,114199,1,0,0:0:0:0:
388,20,114357,2,0,P|343:16|300:28,1,90,2|2,0:0|0:0,0:0:0:0:
204,80,114989,6,0,B|192:124|192:124|196:172,1,90,4|0,0:0|0:0,0:0:0:0:
212,220,115463,1,0,0:0:0:0:
256,248,115620,2,0,L|345:237,1,90,2|2,0:0|0:0,0:0:0:0:
396,332,116252,2,0,L|306:342,2,90,4|2|4,0:0|0:0|0:0,0:0:0:0:
456,240,117199,1,2,0:0:0:0:
468,132,117515,6,0,P|412:88|372:84,1,90,4|0,0:0|0:0,0:0:0:0:
336,104,117989,2,0,P|313:108|291:107,1,45,0|2,0:0|0:0,0:0:0:0:
200,48,118463,1,2,0:0:0:0:
112,112,118778,2,0,L|120:201,1,90,4|0,0:0|0:0,0:0:0:0:
135,255,119252,2,0,P|153:270|173:281,1,45,0|2,0:0|0:0,0:0:0:0:
256,212,119726,1,2,0:0:0:0:
339,281,120042,6,0,L|428:275,1,90,4|0,0:0|0:0,0:0:0:0:
464,232,120515,2,0,P|465:209|463:187,1,45,0|2,0:0|0:0,0:0:0:0:
396,104,120989,1,2,0:0:0:0:
299,51,121305,2,0,P|257:40|213:50,2,90,4|2|4,0:0|0:0|0:0,0:0:0:0:
396,104,122252,1,2,0:0:0:0:
463,187,122568,6,0,L|454:276,1,90,4|0,0:0|0:0,0:0:0:0:
436,328,123042,1,0,0:0:0:0:
391,359,123199,2,0,P|352:340|308:345,1,90,2|2,0:0|0:0,0:0:0:0:
203,345,123831,2,0,P|159:340|120:359,1,90,4|0,0:0|0:0,0:0:0:0:
76,328,124305,1,0,0:0:0:0:
58,276,124463,2,0,L|49:187,1,90,2|2,0:0|0:0,0:0:0:0:
120,104,125094,6,0,B|168:80|168:80|204:84,1,90,4|0,0:0|0:0,0:0:0:0:
256,104,125568,1,0,0:0:0:0:
307,84,125726,2,0,B|344:80|344:80|392:104,1,90,2|2,0:0|0:0,0:0:0:0:
452,192,126357,2,0,L|455:281,1,90,4|2,0:0|0:0,0:0:0:0:
360,336,126989,2,0,L|356:246,1,90,4|2,0:0|0:0,0:0:0:0:
300,152,127620,6,0,P|257:140|213:150,1,90,4|0,0:0|0:0,0:0:0:0:
176,192,128094,2,0,L|178:236,1,45,0|2,0:0|0:0,0:0:0:0:
256,312,128568,1,2,0:0:0:0:
356,352,128884,2,0,L|445:345,1,90,4|0,0:0|0:0,0:0:0:0:
488,312,129357,2,0,P|489:289|487:267,1,45,0|2,0:0|0:0,0:0:0:0:
428,176,129831,1,2,0:0:0:0:
352,100,130147,6,0,L|262:103,1,90,4|0,0:0|0:0,0:0:0:0:
216,128,130620,2,0,P|193:128|171:123,1,45,0|2,0:0|0:0,0:0:0:0:
84,60,131094,1,2,0:0:0:0:
28,152,131410,2,0,B|24:196|24:196|35:241,1,90,4|2,0:0|0:0,0:0:0:0:
60,288,131884,1,0,0:0:0:0:
104,320,132042,2,0,L|193:312,1,90,4|2,0:0|0:0,0:0:0:0:
256,224,132673,5,4,0:0:0:0:
319,311,132989,2,0,P|362:320|404:306,2,90,2|0|2,0:0|0:0|0:0,0:0:0:0:
256,224,133936,1,2,0:0:0:0:
193,311,134252,1,2,0:0:0:0:
116,236,134568,1,2,0:0:0:0:
256,72,135199,5,2,0:0:0:0:
352,20,135515,2,0,P|375:20|397:25,1,45,2|0,0:0|0:0,0:0:0:0:
436,64,135831,2,0,L|480:60,2,45,0|0|2,0:0|0:0|0:0,0:0:0:0:
352,132,136463,1,2,0:0:0:0:
256,72,136778,1,2,0:0:0:0:
159,132,137094,2,0,L|167:221,1,90,4|2,0:0|0:0,0:0:0:0:
256,284,137726,5,2,0:0:0:0:
352,336,138042,2,0,P|393:351|438:347,2,90,2|0|2,0:0|0:0|0:0,0:0:0:0:
256,284,138989,1,2,0:0:0:0:
300,188,139305,1,2,0:0:0:0:
400,232,139620,1,2,0:0:0:0:
256,72,140252,5,2,0:0:0:0:
168,136,140568,2,0,P|146:141|125:133,1,45,2|0,0:0|0:0,0:0:0:0:
88,96,140884,2,0,L|43:99,2,45,0|0|2,0:0|0:0|0:0,0:0:0:0:
160,16,141515,1,2,0:0:0:0:
256,72,141831,1,2,0:0:0:0:
352,16,142147,2,0,L|442:24,1,90,4|2,0:0|0:0,0:0:0:0:
488,124,142778,5,4,0:0:0:0:
420,208,143094,2,0,P|412:252|416:296,2,90,2|0|2,0:0|0:0|0:0,0:0:0:0:
332,144,144042,1,2,0:0:0:0:
256,220,144357,1,2,0:0:0:0:
180,144,144673,1,2,0:0:0:0:
256,348,145305,5,2,0:0:0:0:
348,288,145620,2,0,P|370:284|392:285,1,45,2|0,0:0|0:0,0:0:0:0:
444,304,145936,2,0,P|466:305|488:301,2,45,0|0|2,0:0|0:0|0:0,0:0:0:0:
440,196,146568,1,2,0:0:0:0:
356,128,146884,1,2,0:0:0:0:
255,164,147199,2,0,P|213:176|168:171,1,90,4|2,0:0|0:0,0:0:0:0:
84,104,147831,5,2,0:0:0:0:
40,204,148147,2,0,L|33:293,2,90,2|0|2,0:0|0:0|0:0,0:0:0:0:
84,104,149094,1,2,0:0:0:0:
152,20,149410,1,2,0:0:0:0:
256,52,149726,1,2,0:0:0:0:
256,268,150357,5,2,0:0:0:0:
348,324,150673,2,0,P|370:327|392:328,1,45,2|0,0:0|0:0,0:0:0:0:
443,308,150989,2,0,P|466:303|488:307,2,45,0|0|2,0:0|0:0|0:0,0:0:0:0:
384,220,151620,1,2,0:0:0:0:
332,128,151936,1,2,0:0:0:0:
248,200,152252,2,0,L|159:197,1,90,4|2,0:0|0:0,0:0:0:0:
76,124,152884,5,4,0:0:0:0:
60,144,157936,6,0,L|55:55,1,90,4|0,0:0|0:0,0:0:0:0:
152,104,158568,2,0,L|157:193,1,90,2|2,0:0|0:0,0:0:0:0:
244,252,159199,2,0,P|288:264|332:260,1,90,4|0,0:0|0:0,0:0:0:0:
344,152,159831,2,0,P|300:139|256:143,1,90,2|2,0:0|0:0,0:0:0:0:
157,193,160463,6,0,B|113:213|113:213|72:204,2,90,4|0|2,0:0|0:0|0:0,0:0:0:0:
256,142,161410,1,2,0:0:0:0:
355,193,161726,2,0,B|399:213|399:213|439:204,2,90,4|0|2,0:0|0:0|0:0,0:0:0:0:
256,142,162673,1,2,0:0:0:0:
180,64,162989,6,0,L|91:61,1,90,4|0,0:0|0:0,0:0:0:0:
136,160,163620,2,0,L|46:157,1,90,2|2,0:0|0:0,0:0:0:0:
87,255,164252,2,0,P|129:271|173:261,1,90,4|0,0:0|0:0,0:0:0:0:
256,192,164884,2,0,P|297:176|341:186,1,90,2|2,0:0|0:0,0:0:0:0:
428,120,165515,6,0,L|421:30,2,90,4|0|2,0:0|0:0|0:0,0:0:0:0:
472,220,166463,1,2,0:0:0:0:
400,300,166778,2,0,B|352:312|352:312|311:307,1,90,4|0,0:0|0:0,0:0:0:0:
201,307,167410,2,0,B|160:312|160:312|112:300,1,90,2|2,0:0|0:0,0:0:0:0:
60,204,168042,6,0,B|73:114,1,90,4|0,0:0|0:0,0:0:0:0:
104,68,168515,1,0,0:0:0:0:
148,36,168673,2,0,B|188:20|188:20|234:26,1,90,2|2,0:0|0:0,0:0:0:0:
324,88,169305,2,0,P|335:131|329:175,1,90,4|0,0:0|0:0,0:0:0:0:
304,224,169778,1,0,0:0:0:0:
260,256,169936,2,0,P|252:300|261:343,1,90,2|2,0:0|0:0,0:0:0:0:
372,348,170568,6,0,B|424:340|424:340|464:352,1,90,4|0,0:0|0:0,0:0:0:0:
503,336,171042,2,0,P|509:314|509:292,1,45,0|2,0:0|0:0,0:0:0:0:
484,188,171515,1,2,0:0:0:0:
412,108,171831,2,0,B|364:120|364:120|323:114,1,90,4|0,0:0|0:0,0:0:0:0:
276,92,172305,2,0,L|231:95,1,45,0|2,0:0|0:0,0:0:0:0:
128,60,172778,1,2,0:0:0:0:
40,124,173094,6,0,B|36:168|36:168|46:212,1,90,4|0,0:0|0:0,0:0:0:0:
68,264,173568,1,0,0:0:0:0:
112,296,173726,2,0,P|155:304|199:293,1,90,2|2,0:0|0:0,0:0:0:0:
288,232,174357,2,0,B|336:220|336:220|373:234,1,90,4|0,0:0|0:0,0:0:0:0:
424,252,174831,1,0,0:0:0:0:
468,224,174989,2,0,P|483:182|471:139,1,90,2|2,0:0|0:0,0:0:0:0:
404,56,175620,6,0,B|314:63,1,90,4|0,0:0|0:0,0:0:0:0:
272,96,176094,2,0,L|228:92,1,45,0|2,0:0|0:0,0:0:0:0:
124,56,176568,1,2,0:0:0:0:
48,132,176884,2,0,B|44:180|44:180|55:221,1,90,4|2,0:0|0:0,0:0:0:0:
84,264,177357,1,0,0:0:0:0:
136,276,177515,2,0,P|180:271|215:245,1,90,4|2,0:0|0:0,0:0:0:0:
256,144,178147,6,0,L|259:54,1,90,4|0,0:0|0:0,0:0:0:0:
300,16,178620,1,0,0:0:0:0:
344,44,178778,2,0,B|392:60|392:60|431:60,1,90,2|2,0:0|0:0,0:0:0:0:
492,152,179410,2,0,L|488:241,1,90,4|0,0:0|0:0,0:0:0:0:
456,288,179884,2,0,P|433:290|411:291,1,45,0|2,0:0|0:0,0:0:0:0:
312,248,180357,1,2,0:0:0:0:
223,183,180673,6,0,P|179:180|142:204,1,90,4|0,0:0|0:0,0:0:0:0:
124,256,181147,1,0,0:0:0:0:
124,312,181305,2,0,B|156:344|156:344|200:351,1,90,2|2,0:0|0:0,0:0:0:0:
312,351,181936,2,0,L|408:343,2,90,4|2|4,0:0|0:0|0:0,0:0:0:0:
256,256,182884,1,2,0:0:0:0:
172,192,183199,6,0,P|164:147|169:103,1,90,4|0,0:0|0:0,0:0:0:0:
196,56,183673,1,0,0:0:0:0:
240,24,183831,2,0,B|280:16|280:16|329:20,1,90,2|2,0:0|0:0,0:0:0:0:
428,64,184463,2,0,L|435:153,1,90,4|0,0:0|0:0,0:0:0:0:
404,200,184936,2,0,P|403:222|408:244,1,45,0|2,0:0|0:0,0:0:0:0:
496,312,185410,1,2,0:0:0:0:
392,348,185726,6,0,L|302:357,1,90,4|0,0:0|0:0,0:0:0:0:
256,328,186199,1,0,0:0:0:0:
212,296,186357,2,0,P|202:253|210:209,1,90,2|2,0:0|0:0,0:0:0:0:
256,112,186989,2,0,L|264:-4,2,90,4|0|4,0:0|0:0|0:0,0:0:0:0:
304,208,187936,1,2,0:0:0:0:
372,292,188252,6,0,L|461:300,1,90,4|2,0:0|0:0,0:0:0:0:
504,264,188726,2,0,L|500:219,1,45,0|2,0:0|0:0,0:0:0:0:
424,144,189199,1,2,0:0:0:0:
352,64,189515,2,0,B|308:52|308:52|263:56,1,90,4|2,0:0|0:0,0:0:0:0:
224,92,189989,2,0,L|220:136,1,45,0|2,0:0|0:0,0:0:0:0:
256,244,190463,1,2,0:0:0:0:
336,316,190778,6,0,B|380:312|380:312|425:319,1,90,4|2,0:0|0:0,0:0:0:0:
468,284,191252,2,0,L|476:240,1,45,0|2,0:0|0:0,0:0:0:0:
432,140,191726,1,2,0:0:0:0:
384,44,192042,2,0,P|341:56|298:43,1,90,4|2,0:0|0:0,0:0:0:0:
256,12,192515,1,0,0:0:0:0:
213,43,192673,2,0,P|170:56|128:44,1,90,4|2,0:0|0:0,0:0:0:0:
80,140,193305,6,0,L|83:229,1,90,4|2,0:0|0:0,0:0:0:0:
120,272,193778,2,0,L|164:268,1,45,0|2,0:0|0:0,0:0:0:0:
256,212,194252,1,2,0:0:0:0:
348,156,194568,2,0,L|437:163,1,90,4|2,0:0|0:0,0:0:0:0:
467,208,195042,2,0,P|462:229|453:250,1,45,0|2,0:0|0:0,0:0:0:0:
368,316,195515,1,2,0:0:0:0:
280,248,195831,6,0,B|236:240|236:240|193:255,1,90,4|2,0:0|0:0,0:0:0:0:
140,248,196305,2,0,L|131:203,1,45,0|2,0:0|0:0,0:0:0:0:
124,96,196778,1,2,0:0:0:0:
212,32,197094,2,0,P|254:20|297:31,1,90,4|2,0:0|0:0,0:0:0:0:
340,64,197568,1,0,0:0:0:0:
372,108,197726,2,0,L|378:197,1,90,4|2,0:0|0:0,0:0:0:0:
312,284,198357,5,4,0:0:0:0:
256,192,198515,12,0,200884,0:0:0:0:
