osu file format v14

[General]
AudioFilename: audio.mp3
AudioLeadIn: 0
PreviewTime: 112384
Countdown: 0
SampleSet: None
StackLeniency: 0.7
Mode: 0
LetterboxInBreaks: 0
WidescreenStoryboard: 1

[Editor]
Bookmarks: 42,10147,21515,31620,41726,51831,60673,61936,72042,82147,92252,102357,112463,122568,132673,142778,152884,157936,162989,168042,173094,178147,183199,188252,193305,198357,200884
DistanceSpacing: 1.5
BeatDivisor: 4
GridSize: 4
TimelineZoom: 1

[Metadata]
Title:A New King Is Born
TitleUnicode:A New King Is Born
Artist:Loki
ArtistUnicode:Loki
Creator:Project Railgun
Version:Insane
Source:
Tags:project_railgun beatmapping contest mapping with rewards mwr
BeatmapID:1625751
BeatmapSetID:773395

[Difficulty]
HPDrainRate:6.5
CircleSize:4
OverallDifficulty:6.5
ApproachRate:9.1
SliderMultiplier:1.6
SliderTickRate:1

[Events]
//Background and Video events
0,0,"bg.jpg",0,0
//Break Periods
2,102557,111879
2,153084,157352
//Storyboard Layer 0 (Background)
//Storyboard Layer 1 (Fail)
//Storyboard Layer 2 (Pass)
//Storyboard Layer 3 (Foreground)
//Storyboard Sound Samples

[TimingPoints]
42,315.789473684211,4,2,0,100,1,0
21515,-100,4,2,0,100,0,1
21594,-100,4,2,0,100,0,0
24989,-66.6666666666667,4,2,0,100,0,0
25305,-100,4,2,0,100,0,0
35094,-66.6666666666667,4,2,0,100,0,0
35410,-100,4,2,0,100,0,0
41726,-100,4,2,0,100,0,1
51752,-100,4,2,0,100,0,0
51831,-100,4,2,0,100,0,1
60673,-100,4,2,0,100,0,0
61936,-100,4,2,0,100,0,1
62015,-100,4,2,0,100,0,0
81199,-80,4,2,0,100,0,0
81515,-66.6666666666667,4,2,0,100,0,0
81831,-57.1428571428571,4,2,0,100,0,0
82147,-100,4,2,0,100,0,1
82226,-100,4,2,0,100,0,0
85620,-66.6666666666667,4,2,0,100,0,0
85936,-100,4,2,0,100,0,0
95726,-66.6666666666667,4,2,0,100,0,0
96042,-100,4,2,0,100,0,0
112463,-100,4,2,0,100,0,1
122489,-100,4,2,0,100,0,0
122568,-100,4,2,0,100,0,1
132673,-100,4,2,0,100,0,0
157936,-100,4,2,0,100,0,1
158015,-100,4,2,0,100,0,0
168042,-100,4,2,0,100,0,1
168120,-100,4,2,0,100,0,0
173094,-100,4,2,0,100,0,1
173173,-100,4,2,0,100,0,0
178147,-100,4,2,0,100,0,1
188173,-100,4,2,0,100,0,0
188252,-100,4,2,0,100,0,1
198357,-100,4,2,0,100,0,0
198515,-100,4,2,0,75,0,0

[Colours]
Combo1 : 196,47,47
Combo2 : 137,104,41
Combo3 : 54,181,184
Combo4 : 60,191,105
Combo5 : 156,44,184

[HitObjects]
312,251,42,6,0,P|381:284|449:247,3,160,4|2|2|2,0:0|0:0|0:0|0:0,0:0:0:0:
199,132,1305,2,0,P|130:99|62:136,3,160,4|2|2|2,0:0|0:0|0:0|0:0,0:0:0:0:
256,356,2568,6,0,B|224:276|280:276|258:200,1,160,4|2,0:0|0:0,0:0:0:0:
172,116,3042,1,0,0:0:0:0:
256,32,3199,2,0,B|312:20|312:20|374:26,2,120,4|2|2,0:0|0:0|0:0,0:0:0:0:
80,124,3831,6,0,L|86:203,1,80,4|0,0:0|0:0,0:0:0:0:
204,320,4147,2,0,L|210:240,1,80,2|0,0:0|0:0,0:0:0:0:
256,128,4463,1,2,0:0:0:0:
256,128,4620,1,0,0:0:0:0:
368,248,4778,1,2,0:0:0:0:
420,92,4936,1,0,0:0:0:0:
272,20,5094,6,0,P|195:24|154:90,1,160,4|2,0:0|0:0,0:0:0:0:
168,212,5568,1,0,0:0:0:0:
256,292,5726,2,0,L|375:282,2,120,4|2|2,0:0|0:0|0:0,0:0:0:0:
67,232,6357,22,0,P|58:193|62:153,1,80,4|0,0:0|0:0,0:0:0:0:
204,72,6673,2,0,P|213:110|209:150,1,80,2|0,0:0|0:0,0:0:0:0:
172,264,6989,1,2,0:0:0:0:
172,264,7147,1,0,0:0:0:0:
328,320,7305,1,2,0:0:0:0:
392,168,7463,1,0,0:0:0:0:
239,96,7620,6,0,L|80:88,1,160,4|2,0:0|0:0,0:0:0:0:
316,28,8094,1,0,0:0:0:0:
404,112,8252,2,0,P|407:189|354:246,1,160,4|2,0:0|0:0,0:0:0:0:
488,44,8726,1,0,0:0:0:0:
300,40,8884,6,0,L|220:33,1,80,4|0,0:0|0:0,0:0:0:0:
76,116,9199,2,0,P|72:135|73:155,2,40,2|0|0,0:0|0:0|0:0,0:0:0:0:
124,272,9515,1,2,0:0:0:0:
256,172,9673,1,0,0:0:0:0:
388,272,9831,2,0,L|428:276,2,40,2|0|0,0:0|0:0|0:0,0:0:0:0:
188,68,10147,6,0,P|255:31|322:69,3,160,4|2|2|2,0:0|0:0|0:0|0:0,0:0:0:0:
188,316,11410,2,0,P|255:352|322:314,3,160,4|2|2|2,0:0|0:0|0:0|0:0,0:0:0:0:
488,72,12673,22,0,B|408:35|408:95|332:63,1,160,4|2,0:0|0:0,0:0:0:0:
224,12,13147,1,0,0:0:0:0:
144,100,13305,2,0,P|89:123|31:111,2,120,4|2|2,0:0|0:0|0:0,0:0:0:0:
184,268,13936,6,0,L|172:348,1,80,4|0,0:0|0:0,0:0:0:0:
340,348,14252,2,0,L|328:268,1,80,2|0,0:0|0:0,0:0:0:0:
256,172,14568,1,2,0:0:0:0:
256,172,14726,1,0,0:0:0:0:
192,24,14884,1,2,0:0:0:0:
60,120,15042,1,0,0:0:0:0:
144,256,15199,6,0,P|200:309|277:305,1,160,4|2,0:0|0:0,0:0:0:0:
384,244,15673,1,0,0:0:0:0:
460,152,15831,2,0,L|472:20,2,120,4|2|2,0:0|0:0|0:0,0:0:0:0:
392,300,16463,6,0,P|362:325|323:331,1,80,4|0,0:0|0:0,0:0:0:0:
120,299,16778,2,0,P|149:325|188:331,1,80,2|0,0:0|0:0,0:0:0:0:
256,232,17094,1,2,0:0:0:0:
256,232,17252,1,0,0:0:0:0:
336,88,17410,1,2,0:0:0:0:
464,192,17568,1,0,0:0:0:0:
384,336,17726,22,0,B|332:352|332:352|279:349,2,106.666666666667,4|2|2,0:0|0:0|0:0,0:0:0:0:
240,224,18357,2,0,B|176:216|176:216|136:228|136:228|82:220,1,160,4|2,0:0|0:0,0:0:0:0:
376,36,18989,6,0,P|397:69|397:108,1,80,4|0,0:0|0:0,0:0:0:0:
304,272,19305,2,0,L|307:192,1,80,2|0,0:0|0:0,0:0:0:0:
256,80,19620,1,2,0:0:0:0:
132,20,19778,2,0,L|80:28,2,40,0|0|2,0:0|0:0|0:0,0:0:0:0:
16,96,20094,1,0,0:0:0:0:
120,204,20252,6,0,L|199:193,1,80,4|0,0:0|0:0,0:0:0:0:
392,204,20568,2,0,L|313:193,1,80,2|0,0:0|0:0,0:0:0:0:
256,24,20884,1,2,0:0:0:0:
104,128,21042,2,0,L|60:140,2,40,2|0|2,0:0|0:0|0:0,0:0:0:0:
196,288,21357,1,2,0:0:0:0:
372,348,21515,6,0,P|412:305|418:246,1,120,4|0,0:0|0:0,0:0:0:0:
384,196,21831,2,0,L|387:116,1,80,2|0,0:0|0:0,0:0:0:0:
304,28,22147,2,0,B|240:20|244:56|187:46,1,120,2|0,0:0|0:0,0:0:0:0:
136,76,22463,2,0,L|140:156,1,80,8|0,0:0|0:0,0:0:0:0:
92,312,22778,22,0,B|148:332|148:332|207:321,1,120,4|0,0:0|0:0,0:0:0:0:
256,284,23094,1,2,0:0:0:0:
400,352,23252,1,0,0:0:0:0:
460,204,23410,2,0,L|468:76,1,120,4|0,0:0|0:0,0:0:0:0:
428,36,23726,2,0,P|390:28|350:34,1,80,8|0,0:0|0:0,0:0:0:0:
76,252,24042,6,0,L|195:244,1,120,4|0,0:0|0:0,0:0:0:0:
256,240,24357,1,2,0:0:0:0:
368,128,24515,1,2,0:0:0:0:
472,256,24673,2,0,P|488:324|448:368,1,120,2|0,0:0|0:0,0:0:0:0:
400,360,24989,38,0,L|220:345,1,180.000006866455,4|0,0:0|0:0,0:0:0:0:
111,275,25305,6,0,P|103:198|148:134,1,160,2|2,0:0|0:0,0:0:0:0:
256,80,25778,1,0,0:0:0:0:
400,275,25936,2,0,P|408:198|363:134,1,160,2|2,0:0|0:0,0:0:0:0:
256,80,26409,1,0,0:0:0:0:
168,120,26568,6,0,B|156:80|156:80|169:43,1,80,4|0,0:0|0:0,0:0:0:0:
344,43,26884,2,0,B|356:80|356:80|344:120,1,80,2|0,0:0|0:0,0:0:0:0:
256,240,27199,1,2,0:0:0:0:
352,312,27357,1,0,0:0:0:0:
420,212,27515,2,0,P|457:200|496:206,1,80,8|0,0:0|0:0,0:0:0:0:
384,336,27831,6,0,P|329:358|274:338,1,120,4|0,0:0|0:0,0:0:0:0:
228,300,28147,1,2,0:0:0:0:
84,368,28305,1,0,0:0:0:0:
20,224,28463,2,0,L|32:104,1,120,4|0,0:0|0:0,0:0:0:0:
68,59,28778,2,0,P|106:48|145:52,1,80,8|0,0:0|0:0,0:0:0:0:
256,104,29094,6,0,P|314:105|363:71,1,120,4|0,0:0|0:0,0:0:0:0:
404,28,29410,1,2,0:0:0:0:
492,164,29568,1,0,0:0:0:0:
352,240,29726,2,0,P|331:295|348:351,1,120,2|0,0:0|0:0,0:0:0:0:
284,364,30042,2,0,L|196:356,1,80,8|0,0:0|0:0,0:0:0:0:
68,328,30357,21,4,0:0:0:0:
188,220,30515,1,0,0:0:0:0:
28,176,30673,1,2,0:0:0:0:
136,56,30831,1,0,0:0:0:0:
136,56,30989,2,0,P|194:60|244:28,1,120,4|0,0:0|0:0,0:0:0:0:
256,196,31305,1,8,0:0:0:0:
208,224,31620,6,0,B|200:264|200:264|207:302,1,80,4|0,0:0|0:0,0:0:0:0:
368,352,31936,2,0,L|376:256,1,80,2|0,0:0|0:0,0:0:0:0:
368,152,32252,1,2,0:0:0:0:
256,196,32410,1,0,0:0:0:0:
164,116,32568,2,0,P|125:123|94:148,1,80,8|0,0:0|0:0,0:0:0:0:
76,308,32884,6,0,P|107:357|164:370,1,120,4|0,0:0|0:0,0:0:0:0:
220,352,33199,1,2,0:0:0:0:
356,264,33357,1,0,0:0:0:0:
272,124,33515,2,0,L|141:117,1,120,4|0,0:0|0:0,0:0:0:0:
100,144,33831,2,0,P|91:182|99:221,1,80,8|0,0:0|0:0,0:0:0:0:
256,296,34147,5,4,0:0:0:0:
256,56,34463,1,2,0:0:0:0:
152,180,34620,1,2,0:0:0:0:
348,184,34778,2,0,L|468:191,1,120,2|0,0:0|0:0,0:0:0:0:
484,235,35094,6,0,P|419:263|446:198,1,180.000006866455,4|0,0:0|0:0,0:0:0:0:
496,64,35410,6,0,B|416:48|416:48|341:70,1,160,2|2,0:0|0:0,0:0:0:0:
256,156,35884,1,0,0:0:0:0:
16,64,36042,2,0,B|96:48|96:48|171:70,1,160,2|2,0:0|0:0,0:0:0:0:
256,156,36515,1,0,0:0:0:0:
328,220,36673,6,0,P|339:257|330:296,1,80,4|0,0:0|0:0,0:0:0:0:
181,296,36989,2,0,P|172:257|183:220,1,80,2|0,0:0|0:0,0:0:0:0:
256,88,37305,1,2,0:0:0:0:
360,28,37463,1,0,0:0:0:0:
444,112,37620,2,0,L|441:191,1,80,8|0,0:0|0:0,0:0:0:0:
344,320,37936,6,0,B|304:332|304:332|225:328,1,120,4|0,0:0|0:0,0:0:0:0:
168,316,38252,1,2,0:0:0:0:
44,212,38410,1,0,0:0:0:0:
128,72,38568,2,0,P|180:46|236:64,1,120,4|0,0:0|0:0,0:0:0:0:
288,100,38884,2,0,P|326:108|365:100,1,80,8|0,0:0|0:0,0:0:0:0:
256,288,39199,5,4,0:0:0:0:
152,72,39515,1,2,0:0:0:0:
365,99,39673,1,0,0:0:0:0:
255,288,39831,2,0,P|198:304|140:292,1,120,2|0,0:0|0:0,0:0:0:0:
92,256,40147,2,0,L|94:176,1,80,8|0,0:0|0:0,0:0:0:0:
148,24,40463,21,4,0:0:0:0:
256,160,40620,1,0,0:0:0:0:
364,24,40778,1,2,0:0:0:0:
256,160,40936,1,0,0:0:0:0:
148,24,41094,2,0,P|92:44|62:95,1,120,4|0,0:0|0:0,0:0:0:0:
76,152,41410,1,8,0:0:0:0:
320,336,41726,6,0,L|399:329,1,80,4|0,0:0|0:0,0:0:0:0:
460,176,42042,2,0,L|381:183,1,80
228,244,42357,2,0,L|236:72,1,160,2|2,0:0|0:0,0:0:0:0:
124,28,42831,1,0,0:0:0:0:
35,112,42989,6,0,P|31:151|41:190,1,80,4|0,0:0|0:0,0:0:0:0:
132,324,43305,2,0,P|136:284|126:245,1,80
184,91,43620,2,0,P|252:54|329:71,1,160,2|2,0:0|0:0,0:0:0:0:
416,156,44094,1,0,0:0:0:0:
400,276,44252,6,0,L|408:355,1,80,4|0,0:0|0:0,0:0:0:0:
103,355,44568,2,0,L|112:276,1,80,2|0,0:0|0:0,0:0:0:0:
400,108,44884,2,0,L|408:28,1,80,4|0,0:0|0:0,0:0:0:0:
103,28,45200,2,0,L|112:108,1,80,2|0,0:0|0:0,0:0:0:0:
168,216,45515,5,4,0:0:0:0:
260,292,45673,1,0,0:0:0:0:
380,300,45831,1,2,0:0:0:0:
476,228,45989,1,0,0:0:0:0:
412,128,46147,5,2,0:0:0:0:
476,228,46305,1,0,0:0:0:0:
380,300,46463,1,2,0:0:0:0:
316,200,46620,1,0,0:0:0:0:
199,308,46778,6,0,P|125:329|57:290,1,160,4|0,0:0|0:0,0:0:0:0:
28,172,47252,1,0,0:0:0:0:
104,76,47410,2,0,B|144:44|144:44|172:44,1,80,2|0,0:0|0:0,0:0:0:0:
408,76,47726,2,0,B|368:44|368:44|339:44,1,80,2|0,0:0|0:0,0:0:0:0:
189,148,48042,6,0,L|199:307,1,160,4|0,0:0|0:0,0:0:0:0:
312,348,48515,1,0,0:0:0:0:
392,260,48673,2,0,P|396:220|387:181,1,80,2|0,0:0|0:0,0:0:0:0:
120,124,48989,2,0,P|115:163|124:202,1,80,2|0,0:0|0:0,0:0:0:0:
192,300,49305,5,4,0:0:0:0:
304,348,49463,1,0,0:0:0:0:
156,288,49620,1,2,0:0:0:0:
348,360,49778,1,0,0:0:0:0:
304,160,49936,5,4,0:0:0:0:
264,272,50094,1,0,0:0:0:0:
320,112,50252,1,2,0:0:0:0:
244,320,50410,1,0,0:0:0:0:
472,204,50568,6,0,P|483:165|482:126,1,80,4|0,0:0|0:0,0:0:0:0:
412,28,50884,1,2,0:0:0:0:
320,112,51042,1,0,0:0:0:0:
228,40,51199,2,0,L|132:44,1,80,4|0,0:0|0:0,0:0:0:0:
52,116,51515,1,2,0:0:0:0:
52,116,51673,1,2,0:0:0:0:
128,260,51831,6,0,P|216:292|276:264,1,160,4|0,0:0|0:0,0:0:0:0:
356,180,52305,1,0,0:0:0:0:
404,68,52463,2,0,B|364:48|364:48|328:50,1,80,2|0,0:0|0:0,0:0:0:0:
108,68,52778,2,0,B|148:48|148:48|183:50,1,80,2|0,0:0|0:0,0:0:0:0:
356,180,53094,6,0,L|197:160,1,160,4|0,0:0|0:0,0:0:0:0:
80,196,53568,1,0,0:0:0:0:
104,312,53726,2,0,P|127:344|161:363,1,80,2|0,0:0|0:0,0:0:0:0:
350,363,54042,2,0,P|384:344|407:312,1,80,2|0,0:0|0:0,0:0:0:0:
348,120,54357,6,0,L|428:116,1,80,4|0,0:0|0:0,0:0:0:0:
164,264,54673,2,0,L|84:268,1,80,2|0,0:0|0:0,0:0:0:0:
348,264,54989,2,0,L|428:268,1,80,4|0,0:0|0:0,0:0:0:0:
164,120,55305,2,0,L|84:116,1,80,2|0,0:0|0:0,0:0:0:0:
24,220,55620,5,4,0:0:0:0:
92,320,55778,1,0,0:0:0:0:
208,344,55936,1,2,0:0:0:0:
320,300,56094,1,0,0:0:0:0:
272,192,56252,5,2,0:0:0:0:
320,300,56410,1,0,0:0:0:0:
208,344,56568,1,2,0:0:0:0:
156,236,56726,1,0,0:0:0:0:
244,87,56884,6,0,P|318:67|379:115,1,160,4|0,0:0|0:0,0:0:0:0:
436,220,57357,1,0,0:0:0:0:
395,332,57515,2,0,P|359:348|320:342,1,80,2|0,0:0|0:0,0:0:0:0:
116,332,57831,2,0,P|152:348|191:342,1,80,2|0,0:0|0:0,0:0:0:0:
340,224,58147,6,0,L|324:40,1,160,4|0,0:0|0:0,0:0:0:0:
216,20,58620,1,0,0:0:0:0:
136,112,58778,2,0,P|126:150|134:189,1,80,2|0,0:0|0:0,0:0:0:0:
376,272,59094,2,0,P|385:233|377:194,1,80,2|0,0:0|0:0,0:0:0:0:
304,100,59410,5,4,0:0:0:0:
212,176,59568,1,0,0:0:0:0:
336,68,59726,1,2,0:0:0:0:
176,208,59884,1,0,0:0:0:0:
224,88,60042,5,4,0:0:0:0:
296,184,60199,1,0,0:0:0:0:
184,48,60357,1,2,0:0:0:0:
328,224,60515,1,0,0:0:0:0:
80,264,60673,5,4,0:0:0:0:
256,56,61936,6,0,P|332:47|387:102,1,160,4|2,0:0|0:0,0:0:0:0:
256,340,62568,1,2,0:0:0:0:
256,188,62726,1,0,0:0:0:0:
256,340,62884,1,2,0:0:0:0:
256,188,63042,1,0,0:0:0:0:
152,80,63199,6,0,L|74:100,1,80,4|0,0:0|0:0,0:0:0:0:
256,340,63515,2,0,L|256:260,1,80,2|0,0:0|0:0,0:0:0:0:
360,80,63831,2,0,L|437:100,1,80,4|0,0:0|0:0,0:0:0:0:
143,320,64147,2,0,P|85:315|47:271,1,120,2|0,0:0|0:0,0:0:0:0:
44,212,64463,5,4,0:0:0:0:
308,32,64778,2,0,L|387:35,1,80,2|0,0:0|0:0,0:0:0:0:
212,176,65094,2,0,L|132:179,1,80,2|0,0:0|0:0,0:0:0:0:
312,316,65410,2,0,L|391:319,1,80,2|0,0:0|0:0,0:0:0:0:
484,184,65726,22,0,L|474:64,1,120,4|0,0:0|0:0,0:0:0:0:
420,36,66042,2,0,P|363:17|307:34,1,120,2|0,0:0|0:0,0:0:0:0:
256,68,66357,5,4,0:0:0:0:
256,68,66515,1,0,0:0:0:0:
176,204,66673,1,2,0:0:0:0:
336,204,66831,1,0,0:0:0:0:
205,34,66989,6,0,L|28:48,1,160,4|2,0:0|0:0,0:0:0:0:
256,316,67620,1,2,0:0:0:0:
256,152,67778,1,0,0:0:0:0:
256,316,67936,1,2,0:0:0:0:
256,152,68094,1,0,0:0:0:0:
384,348,68252,6,0,P|423:345|455:322,1,80,4|0,0:0|0:0,0:0:0:0:
256,72,68568,2,0,L|256:152,1,80,2|0,0:0|0:0,0:0:0:0:
128,348,68884,2,0,P|88:345|56:322,1,80,4|0,0:0|0:0,0:0:0:0:
24,164,69199,2,0,L|44:45,1,120,2|0,0:0|0:0,0:0:0:0:
100,24,69515,5,4,0:0:0:0:
100,24,69673,1,0,0:0:0:0:
196,156,69831,1,2,0:0:0:0:
196,156,69989,1,0,0:0:0:0:
296,28,70147,1,2,0:0:0:0:
296,28,70305,1,0,0:0:0:0:
404,148,70463,2,0,L|500:140,1,80,2|0,0:0|0:0,0:0:0:0:
380,292,70778,6,0,P|340:295|303:281,1,80,4|0,0:0|0:0,0:0:0:0:
188,168,71094,1,2,0:0:0:0:
188,168,71252,1,0,0:0:0:0:
60,268,71410,1,2,0:0:0:0:
60,268,71568,1,0,0:0:0:0:
0,120,71726,2,0,L|12:28,1,80,2|0,0:0|0:0,0:0:0:0:
188,168,72042,6,0,P|174:244|106:281,1,160,4|2,0:0|0:0,0:0:0:0:
256,40,72673,1,2,0:0:0:0:
344,144,72831,1,0,0:0:0:0:
256,40,72989,1,2,0:0:0:0:
168,144,73147,1,0,0:0:0:0:
356,268,73305,6,0,B|400:280|400:280|433:274,1,80,4|0,0:0|0:0,0:0:0:0:
156,268,73620,2,0,B|112:280|112:280|78:274,1,80,2|0,0:0|0:0,0:0:0:0:
256,40,73936,2,0,L|256:120,1,80,4|0,0:0|0:0,0:0:0:0:
376,336,74252,2,0,P|434:348|488:308,1,120,2|0,0:0|0:0,0:0:0:0:
496,256,74568,5,4,0:0:0:0:
216,96,74884,2,0,L|222:16,1,80,2|0,0:0|0:0,0:0:0:0:
52,164,75199,2,0,L|58:243,1,80,2|0,0:0|0:0,0:0:0:0:
256,352,75515,2,0,L|262:272,1,80,2|0,0:0|0:0,0:0:0:0:
368,100,75831,22,0,P|425:93|466:134,1,120,4|0,0:0|0:0,0:0:0:0:
448,192,76147,2,0,L|436:311,1,120,2|0,0:0|0:0,0:0:0:0:
380,340,76463,5,4,0:0:0:0:
380,340,76620,1,0,0:0:0:0:
256,204,76778,1,2,0:0:0:0:
132,340,76936,1,0,0:0:0:0:
24,172,77094,6,0,P|18:94|73:40,1,160,4|2,0:0|0:0,0:0:0:0:
256,264,77726,1,2,0:0:0:0:
340,140,77884,1,0,0:0:0:0:
256,264,78042,1,2,0:0:0:0:
172,140,78199,1,0,0:0:0:0:
352,328,78357,6,0,B|388:340|388:340|429:337,1,80,4|0,0:0|0:0,0:0:0:0:
160,328,78673,2,0,B|124:340|124:340|82:337,1,80,2|0,0:0|0:0,0:0:0:0:
256,40,78989,2,0,L|256:120,1,80,4|0,0:0|0:0,0:0:0:0:
56,286,79305,2,0,P|100:324|159:326,1,120,2|0,0:0|0:0,0:0:0:0:
212,300,79620,5,4,0:0:0:0:
212,300,79778,1,0,0:0:0:0:
368,352,79936,1,2,0:0:0:0:
368,352,80094,1,0,0:0:0:0:
444,208,80252,1,2,0:0:0:0:
444,208,80410,1,0,0:0:0:0:
316,104,80568,2,0,B|304:64|304:64|306:25,1,80,2|0,0:0|0:0,0:0:0:0:
56,92,80884,6,0,L|64:216,1,120,4|0,0:0|0:0,0:0:0:0:
136,284,81199,6,0,L|148:124,1,150,2|0,0:0|0:0,0:0:0:0:
216,48,81515,6,0,P|300:36|349:106,1,180.000006866455,4|0,0:0|0:0,0:0:0:0:
372,240,81831,6,0,P|412:272|504:168,1,210.000002002716,2|0,0:0|0:0,0:0:0:0:
424,32,82147,22,0,L|304:40,1,120,4|0,0:0|0:0,0:0:0:0:
248,64,82463,2,0,L|164:52,1,80,2|0,0:0|0:0,0:0:0:0:
64,112,82778,2,0,P|61:171|90:222,1,120,2|0,0:0|0:0,0:0:0:0:
148,240,83094,2,0,P|187:239|222:257,1,80,8|0,0:0|0:0,0:0:0:0:
380,348,83410,6,0,L|390:228,1,120,4|0,0:0|0:0,0:0:0:0:
400,168,83726,1,2,0:0:0:0:
300,40,83884,1,0,0:0:0:0:
191,160,84042,2,0,P|137:182|82:162,1,120,4|0,0:0|0:0,0:0:0:0:
44,116,84357,2,0,P|39:76|49:37,1,80,8|0,0:0|0:0,0:0:0:0:
316,128,84673,6,0,P|324:186|298:239,1,120,4|0,0:0|0:0,0:0:0:0:
256,284,84989,1,2,0:0:0:0:
112,360,85147,1,2,0:0:0:0:
28,224,85305,2,0,L|24:92,1,120,2|0,0:0|0:0,0:0:0:0:
48,48,85620,22,0,P|130:81|224:56,1,180.000006866455,4|0,0:0|0:0,0:0:0:0:
344,28,85936,6,0,B|372:96|372:96|359:181,1,160,2|2,0:0|0:0,0:0:0:0:
256,248,86410,1,0,0:0:0:0:
168,28,86568,2,0,B|140:96|140:96|152:181,1,160,2|2,0:0|0:0,0:0:0:0:
256,248,87042,1,0,0:0:0:0:
344,287,87199,6,0,P|353:249|345:210,1,80,4|0,0:0|0:0,0:0:0:0:
166,210,87515,2,0,P|158:249|167:287,1,80,2|0,0:0|0:0,0:0:0:0:
256,152,87831,1,2,0:0:0:0:
324,52,87989,1,0,0:0:0:0:
420,124,88147,2,0,P|459:121|489:96,1,80,8|0,0:0|0:0,0:0:0:0:
308,40,88463,6,0,L|188:49,1,120,4|0,0:0|0:0,0:0:0:0:
128,60,88778,1,2,0:0:0:0:
28,188,88936,1,0,0:0:0:0:
120,320,89094,2,0,P|171:349|231:350,1,120,4|0,0:0|0:0,0:0:0:0:
284,320,89410,2,0,P|321:307|359:317,1,80,8|0,0:0|0:0,0:0:0:0:
460,248,89726,6,0,L|468:96,1,120,4|0,0:0|0:0,0:0:0:0:
468,68,90042,1,2,0:0:0:0:
316,8,90199,1,0,0:0:0:0:
196,120,90357,2,0,P|138:132|83:109,1,120,2|0,0:0|0:0,0:0:0:0:
36,148,90673,2,0,L|39:227,1,80,8|0,0:0|0:0,0:0:0:0:
96,356,90989,21,4,0:0:0:0:
200,232,91147,1,0,0:0:0:0:
300,360,91305,1,2,0:0:0:0:
412,240,91463,1,0,0:0:0:0:
412,239,91620,2,0,P|424:181|412:120,1,120,4|0,0:0|0:0,0:0:0:0:
256,20,91936,1,8,0:0:0:0:
216,48,92252,6,0,P|209:87|212:127,1,80,4|0,0:0|0:0,0:0:0:0:
332,243,92568,2,0,L|411:239,1,80,2|0,0:0|0:0,0:0:0:0:
496,152,92884,1,2,0:0:0:0:
448,40,93042,1,0,0:0:0:0:
344,100,93199,2,0,P|304:106|268:91,1,80,8|0,0:0|0:0,0:0:0:0:
115,24,93515,6,0,P|81:72|78:131,1,120,4|0,0:0|0:0,0:0:0:0:
92,192,93831,1,2,0:0:0:0:
200,312,93989,1,0,0:0:0:0:
316,200,94147,2,0,L|456:204,1,120,4|0,0:0|0:0,0:0:0:0:
463,255,94463,2,0,P|472:294|459:331,1,80,8|0,0:0|0:0,0:0:0:0:
256,360,94778,5,4,0:0:0:0:
68,192,95094,1,2,0:0:0:0:
204,92,95251,1,2,0:0:0:0:
204,292,95410,2,0,P|262:303|319:288,1,120,2|0,0:0|0:0,0:0:0:0:
344,248,95726,6,0,P|291:196|276:268,1,180.000006866455,4|0,0:0|0:0,0:0:0:0:
404,324,96042,6,0,P|432:250|411:174,1,160,2|2,0:0|0:0,0:0:0:0:
316,104,96515,1,0,0:0:0:0:
107,324,96673,2,0,P|79:250|100:174,1,160,2|2,0:0|0:0,0:0:0:0:
196,104,97146,1,0,0:0:0:0:
256,184,97305,6,0,L|256:264,1,80,4|0,0:0|0:0,0:0:0:0:
404,324,97620,2,0,L|404:244,1,80,2|0,0:0|0:0,0:0:0:0:
460,104,97936,1,2,0:0:0:0:
364,28,98094,1,0,0:0:0:0:
256,80,98252,2,0,P|216:86|178:77,1,80,8|0,0:0|0:0,0:0:0:0:
32,156,98568,6,0,B|24:208|24:208|34:274,1,120,4|0,0:0|0:0,0:0:0:0:
56,332,98884,1,2,0:0:0:0:
180,228,99042,1,0,0:0:0:0:
292,344,99199,2,0,L|411:340,1,120,4|0,0:0|0:0,0:0:0:0:
472,335,99515,2,0,P|484:298|479:258,1,80,8|0,0:0|0:0,0:0:0:0:
256,48,99831,5,4,0:0:0:0:
112,240,100147,1,2,0:0:0:0:
296,344,100305,1,0,0:0:0:0:
440,180,100463,2,0,P|436:124|376:76,1,120,2|0,0:0|0:0,0:0:0:0:
336,48,100778,2,0,L|256:48,1,80,8|0,0:0|0:0,0:0:0:0:
152,152,101094,21,4,0:0:0:0:
256,276,101252,1,0,0:0:0:0:
360,152,101410,1,2,0:0:0:0:
256,276,101568,1,0,0:0:0:0:
152,152,101726,2,0,P|95:157|62:205,1,120,4|0,0:0|0:0,0:0:0:0:
60,268,102042,1,8,0:0:0:0:
412,36,102357,5,4,0:0:0:0:
392,324,112463,6,0,L|471:318,1,80,4|0,0:0|0:0,0:0:0:0:
424,160,112778,2,0,L|344:165,1,80,2|0,0:0|0:0,0:0:0:0:
120,324,113094,2,0,L|40:318,1,80,2|0,0:0|0:0,0:0:0:0:
88,160,113410,2,0,L|167:165,1,80,2|2,0:0|0:0,0:0:0:0:
376,272,113726,6,0,P|376:311|362:348,1,80,4|0,0:0|0:0,0:0:0:0:
149,348,114042,2,0,P|135:311|136:272,1,80,2|0,0:0|0:0,0:0:0:0:
256,164,114357,1,2,0:0:0:0:
256,164,114515,1,0,0:0:0:0:
344,16,114673,1,2,0:0:0:0:
168,16,114831,1,2,0:0:0:0:
60,160,114989,22,0,L|63:239,1,80,4|0,0:0|0:0,0:0:0:0:
204,328,115305,2,0,L|207:248,1,80,2|0,0:0|0:0,0:0:0:0:
320,128,115620,2,0,L|323:207,1,80,2|0,0:0|0:0,0:0:0:0:
488,296,115936,2,0,P|448:301|411:289,1,80,2|2,0:0|0:0,0:0:0:0:
176,136,116252,6,0,P|98:125|39:175,2,160,4|2|2,0:0|0:0|0:0,0:0:0:0:
256,228,117042,1,0,0:0:0:0:
332,320,117199,2,0,L|328:376,2,40,2|0|2,0:0|0:0|0:0,0:0:0:0:
464,152,117515,6,0,L|458:72,1,80,4|0,0:0|0:0,0:0:0:0:
342,180,117831,2,0,L|336:260,1,80,2|0,0:0|0:0,0:0:0:0:
176,260,118147,2,0,L|170:180,1,80,2|0,0:0|0:0,0:0:0:0:
54,72,118463,2,0,L|48:152,1,80,2|2,0:0|0:0,0:0:0:0:
96,288,118778,6,0,P|117:321|153:336,1,80,4|0,0:0|0:0,0:0:0:0:
358,336,119094,2,0,P|394:321|415:288,1,80,2|0,0:0|0:0,0:0:0:0:
256,28,119410,1,2,0:0:0:0:
256,28,119568,1,0,0:0:0:0:
176,164,119726,1,2,0:0:0:0:
336,164,119884,1,2,0:0:0:0:
156,280,120042,22,0,B|116:288|116:288|78:276,1,80,4|0,0:0|0:0,0:0:0:0:
8,132,120357,2,0,L|14:52,1,80,2|0,0:0|0:0,0:0:0:0:
172,16,120673,2,0,L|178:95,1,80,2|0,0:0|0:0,0:0:0:0:
256,220,120989,1,2,0:0:0:0:
334,95,121147,1,2,0:0:0:0:
456,200,121305,6,0,P|456:258|420:305,1,120,4|0,0:0|0:0,0:0:0:0:
364,328,121620,1,2,0:0:0:0:
208,368,121778,1,0,0:0:0:0:
100,248,121936,2,0,L|92:124,1,120,4|0,0:0|0:0,0:0:0:0:
120,72,122252,1,2,0:0:0:0:
120,72,122410,1,2,0:0:0:0:
308,20,122568,6,0,L|387:26,1,80,4|0,0:0|0:0,0:0:0:0:
464,192,122884,2,0,P|450:228|417:250,1,80,2|0,0:0|0:0,0:0:0:0:
256,184,123199,2,0,L|256:104,1,80,2|0,0:0|0:0,0:0:0:0:
48,192,123515,2,0,P|61:228|94:250,1,80,2|2,0:0|0:0,0:0:0:0:
368,152,123831,6,0,L|389:74,1,80,4|0,0:0|0:0,0:0:0:0:
122,74,124147,2,0,L|144:152,1,80,2|0,0:0|0:0,0:0:0:0:
256,348,124463,1,2,0:0:0:0:
256,348,124620,1,0,0:0:0:0:
340,224,124778,1,2,0:0:0:0:
172,224,124936,1,2,0:0:0:0:
312,80,125094,22,0,B|352:76|352:76|404:88,1,80,4|0,0:0|0:0,0:0:0:0:
476,224,125410,2,0,L|479:303,1,80,2|0,0:0|0:0,0:0:0:0:
312,264,125726,2,0,L|315:184,1,80,2|0,0:0|0:0,0:0:0:0:
152,264,126042,2,0,L|155:343,1,80,2|2,0:0|0:0,0:0:0:0:
20,108,126357,6,0,L|12:267,2,160,4|2|2,0:0|0:0|0:0,0:0:0:0:
100,16,127147,1,0,0:0:0:0:
204,76,127305,2,0,P|223:80|243:78,2,40,2|0|2,0:0|0:0|0:0,0:0:0:0:
396,24,127620,6,0,L|475:26,1,80,4|0,0:0|0:0,0:0:0:0:
412,176,127936,2,0,P|408:215|421:253,1,80,2|0,0:0|0:0,0:0:0:0:
256,352,128252,2,0,L|256:260,1,80,2|0,0:0|0:0,0:0:0:0:
100,176,128568,2,0,P|103:215|90:253,1,80,2|2,0:0|0:0,0:0:0:0:
352,312,128884,6,0,P|382:337|421:339,1,80,4|0,0:0|0:0,0:0:0:0:
159,312,129199,2,0,P|129:337|90:339,1,80,2|0,0:0|0:0,0:0:0:0:
256,144,129515,1,2,0:0:0:0:
256,144,129673,1,0,0:0:0:0:
340,24,129831,1,2,0:0:0:0:
172,24,129989,1,2,0:0:0:0:
56,156,130147,22,0,B|56:196|56:196|72:240,1,80,4|0,0:0|0:0,0:0:0:0:
208,324,130463,2,0,L|287:320,1,80,2|0,0:0|0:0,0:0:0:0:
336,168,130778,2,0,L|256:171,1,80,2|0,0:0|0:0,0:0:0:0:
128,96,131094,1,2,0:0:0:0:
256,20,131252,1,2,0:0:0:0:
384,96,131410,6,0,P|414:146|407:205,1,120,4|0,0:0|0:0,0:0:0:0:
372,256,131726,1,2,0:0:0:0:
256,368,131884,1,0,0:0:0:0:
140,256,132042,2,0,L|136:128,1,120,4|0,0:0|0:0,0:0:0:0:
164,84,132357,1,2,0:0:0:0:
164,84,132515,1,2,0:0:0:0:
372,12,132673,5,4,0:0:0:0:
464,240,132989,2,0,B|424:252|424:252|386:245,1,80,2|0,0:0|0:0,0:0:0:0:
256,40,133305,2,0,L|256:124,1,80,2|0,0:0|0:0,0:0:0:0:
48,240,133620,2,0,B|88:252|88:252|125:245,1,80,2|0,0:0|0:0,0:0:0:0:
264,116,133936,6,0,L|383:112,1,120,2|0,0:0|0:0,0:0:0:0:
444,124,134252,2,0,P|456:182|442:240,1,120,2|0,0:0|0:0,0:0:0:0:
394,277,134568,2,0,P|335:272|287:305,1,120,2|0,0:0|0:0,0:0:0:0:
224,305,134884,2,0,P|176:272|118:277,1,120,8|0,0:0|0:0,0:0:0:0:
72,316,135199,21,2,0:0:0:0:
108,80,135515,2,0,B|152:72|152:72|184:85,1,80,2|0,0:0|0:0,0:0:0:0:
404,80,135831,2,0,B|360:72|360:72|327:85,1,80,2|0,0:0|0:0,0:0:0:0:
256,300,136147,2,0,L|256:220,1,80,2|0,0:0|0:0,0:0:0:0:
256,100,136463,5,2,0:0:0:0:
56,232,136778,1,2,0:0:0:0:
124,356,136936,1,0,0:0:0:0:
256,300,137094,2,0,P|313:284|369:303,1,120,4|0,0:0|0:0,0:0:0:0:
420,340,137410,2,0,P|476:327|501:275,1,120,8|0,0:0|0:0,0:0:0:0:
488,216,137726,5,2,0:0:0:0:
316,40,138042,2,0,L|395:33,1,80,2|0,0:0|0:0,0:0:0:0:
208,140,138357,2,0,L|287:133,1,80,2|0,0:0|0:0,0:0:0:0:
88,232,138673,2,0,L|167:225,1,80,2|0,0:0|0:0,0:0:0:0:
0,235,138989,6,0,P|13:178|61:145,1,120,2|0,0:0|0:0,0:0:0:0:
124,140,139305,2,0,P|182:134|222:92,1,120,2|0,0:0|0:0,0:0:0:0:
289,92,139620,2,0,P|329:134|387:140,1,120,2|0,0:0|0:0,0:0:0:0:
450,145,139936,2,0,L|455:265,1,120,8|0,0:0|0:0,0:0:0:0:
424,316,140252,21,2,0:0:0:0:
191,239,140568,2,0,P|185:200|196:162,1,80,2|0,0:0|0:0,0:0:0:0:
344,300,140884,2,0,P|304:306|266:295,1,80,2|0,0:0|0:0,0:0:0:0:
420,164,141199,2,0,P|426:203|415:241,1,80,2|0,0:0|0:0,0:0:0:0:
360,88,141515,6,0,L|216:76,1,120,2|0,0:0|0:0,0:0:0:0:
180,72,141831,2,0,P|116:84|96:104,1,80,2|0,0:0|0:0,0:0:0:0:
56,204,142147,2,0,L|68:292,1,80,4|0,0:0|0:0,0:0:0:0:
256,368,142463,2,0,L|263:288,1,80,8|0,0:0|0:0,0:0:0:0:
456,204,142778,5,4,0:0:0:0:
288,32,143094,2,0,L|208:39,1,80,2|0,0:0|0:0,0:0:0:0:
112,168,143410,2,0,L|191:160,1,80,2|0,0:0|0:0,0:0:0:0:
300,280,143726,2,0,L|220:287,1,80,2|0,0:0|0:0,0:0:0:0:
356,368,144042,6,0,P|397:325|399:267,1,120,2|0,0:0|0:0,0:0:0:0:
383,207,144357,2,0,P|346:163|288:163,1,120,2|0,0:0|0:0,0:0:0:0:
223,163,144673,2,0,P|165:163|128:207,1,120,2|0,0:0|0:0,0:0:0:0:
88,256,144989,2,0,L|76:112,1,120,8|0,0:0|0:0,0:0:0:0:
108,84,145305,21,2,0:0:0:0:
340,31,145620,2,0,P|378:25|414:42,1,80,2|0,0:0|0:0,0:0:0:0:
296,196,145936,2,0,P|257:204|218:195,1,80,2|0,0:0|0:0,0:0:0:0:
97,42,146252,2,0,P|133:25|171:31,1,80,2|0,0:0|0:0,0:0:0:0:
256,120,146568,5,2,0:0:0:0:
356,336,146884,1,2,0:0:0:0:
476,260,147042,1,0,0:0:0:0:
408,136,147199,2,0,L|284:120,1,120,4|0,0:0|0:0,0:0:0:0:
228,128,147515,2,0,P|208:183|221:241,1,120,8|0,0:0|0:0,0:0:0:0:
256,292,147831,5,2,0:0:0:0:
432,128,148147,2,0,L|439:48,1,80,2|0,0:0|0:0,0:0:0:0:
344,216,148463,2,0,L|336:136,1,80,2|0,0:0|0:0,0:0:0:0:
448,312,148778,2,0,L|455:232,1,80,2|0,0:0|0:0,0:0:0:0:
327,347,149094,6,0,P|276:320|220:336,1,120,2|0,0:0|0:0,0:0:0:0:
163,360,149410,2,0,P|106:370|57:338,1,120,2|0,0:0|0:0,0:0:0:0:
40,280,149726,2,0,L|46:160,1,120,2|0,0:0|0:0,0:0:0:0:
80,108,150042,2,0,P|136:92|191:114,1,120,8|0,0:0|0:0,0:0:0:0:
228,164,150357,21,2,0:0:0:0:
396,336,150673,2,0,P|434:346|472:337,1,80,2|0,0:0|0:0,0:0:0:0:
332,196,150989,2,0,P|321:234|330:272,1,80,2|0,0:0|0:0,0:0:0:0:
480,132,151305,2,0,P|441:121|403:130,1,80,2|0,0:0|0:0,0:0:0:0:
248,72,151620,6,0,L|120:80,1,120,2|0,0:0|0:0,0:0:0:0:
76,112,151936,2,0,P|72:176|84:200,1,80,2|0,0:0|0:0,0:0:0:0:
172,300,152252,2,0,L|94:321,1,80,4|0,0:0|0:0,0:0:0:0:
340,300,152568,2,0,L|417:321,1,80,8|0,0:0|0:0,0:0:0:0:
256,140,152884,5,4,0:0:0:0:
448,287,157936,6,0,P|462:250|457:211,1,80,4|0,0:0|0:0,0:0:0:0:
344,80,158252,2,0,P|329:117|334:156,1,80,2|0,0:0|0:0,0:0:0:0:
177,156,158568,2,0,P|182:117|168:80,1,80,2|0,0:0|0:0,0:0:0:0:
54,211,158884,2,0,P|49:250|63:287,1,80,2|0,0:0|0:0,0:0:0:0:
160,360,159199,21,4,0:0:0:0:
160,360,159357,1,0,0:0:0:0:
256,288,159515,2,0,L|335:294,1,80,2|0,0:0|0:0,0:0:0:0:
424,144,159831,2,0,L|344:150,1,80,2|0,0:0|0:0,0:0:0:0:
216,32,160147,2,0,L|295:38,1,80,2|0,0:0|0:0,0:0:0:0:
416,48,160463,5,4,0:0:0:0:
416,48,160620,1,0,0:0:0:0:
504,128,160778,2,0,P|500:184|480:212,1,80,2|0,0:0|0:0,0:0:0:0:
335,294,161094,2,0,L|339:214,1,80,2|0,0:0|0:0,0:0:0:0:
172,214,161410,2,0,L|177:294,1,80,2|0,0:0|0:0,0:0:0:0:
88,376,161726,6,0,P|59:348|52:310,1,80,4|0,0:0|0:0,0:0:0:0:
40,188,162042,2,0,P|47:149|75:122,1,80,2|0,0:0|0:0,0:0:0:0:
176,60,162357,1,2,0:0:0:0:
256,152,162515,1,0,0:0:0:0:
336,60,162673,2,0,B|376:52|376:52|414:58,1,80,2|0,0:0|0:0,0:0:0:0:
484,156,162989,6,0,P|496:193|491:232,1,80,4|0,0:0|0:0,0:0:0:0:
348,344,163305,2,0,P|363:307|362:267,1,80,2|0,0:0|0:0,0:0:0:0:
150,267,163620,2,0,P|149:306|164:343,1,80,2|0,0:0|0:0,0:0:0:0:
20,232,163936,2,0,P|15:193|28:156,1,80,2|0,0:0|0:0,0:0:0:0:
104,60,164252,21,4,0:0:0:0:
104,60,164410,1,0,0:0:0:0:
216,20,164568,2,0,L|295:23,1,80,2|0,0:0|0:0,0:0:0:0:
396,152,164884,2,0,L|316:155,1,80,2|0,0:0|0:0,0:0:0:0:
240,296,165199,2,0,L|319:299,1,80,2|0,0:0|0:0,0:0:0:0:
432,344,165515,5,4,0:0:0:0:
432,344,165673,1,0,0:0:0:0:
496,244,165831,2,0,P|504:205|494:166,1,80,2|0,0:0|0:0,0:0:0:0:
376,60,166147,2,0,B|336:44|336:44|299:49,1,80,2|0,0:0|0:0,0:0:0:0:
136,60,166463,2,0,B|176:44|176:44|212:49,1,80,2|0,0:0|0:0,0:0:0:0:
256,160,166778,6,0,L|264:239,1,80,4|0,0:0|0:0,0:0:0:0:
376,280,167094,2,0,L|384:200,1,80,2|0,0:0|0:0,0:0:0:0:
432,88,167410,1,2,0:0:0:0:
340,12,167568,1,0,0:0:0:0:
256,96,167726,2,0,B|216:104|216:104|177:97,1,80,2|0,0:0|0:0,0:0:0:0:
60,72,168042,6,0,P|79:127|67:185,1,120,4|0,0:0|0:0,0:0:0:0:
44,240,168357,2,0,P|58:296|106:330,1,120,2|0,0:0|0:0,0:0:0:0:
168,344,168673,2,0,L|272:340,1,80,2|0,0:0|0:0,0:0:0:0:
368,328,168989,1,2,0:0:0:0:
368,328,169147,1,0,0:0:0:0:
452,240,169305,22,0,L|448:100,1,120,4|0,0:0|0:0,0:0:0:0:
431,63,169620,2,0,P|379:39|327:65,1,120,2|0,0:0|0:0,0:0:0:0:
283,108,169936,2,0,P|245:116|206:108,1,80,2|0,0:0|0:0,0:0:0:0:
108,40,170252,1,2,0:0:0:0:
108,40,170410,1,0,0:0:0:0:
28,128,170568,6,0,L|31:247,1,120,4|0,0:0|0:0,0:0:0:0:
40,308,170884,2,0,P|84:352|160:336,1,120,2|0,0:0|0:0,0:0:0:0:
188,316,171199,2,0,P|225:304|264:310,1,80,2|0,0:0|0:0,0:0:0:0:
376,356,171515,1,2,0:0:0:0:
376,356,171673,1,0,0:0:0:0:
460,272,171831,6,0,P|472:213|459:155,1,120,4|0,0:0|0:0,0:0:0:0:
412,120,172147,2,0,L|280:124,1,120,2|0,0:0|0:0,0:0:0:0:
236,152,172463,1,2,0:0:0:0:
152,64,172620,1,0,0:0:0:0:
60,140,172778,2,0,B|52:180|52:180|63:217,1,80,2|0,0:0|0:0,0:0:0:0:
176,324,173094,6,0,P|232:307|288:325,1,120,4|0,0:0|0:0,0:0:0:0:
344,348,173410,2,0,P|401:359|456:336,1,120,2|0,0:0|0:0,0:0:0:0:
492,288,173726,2,0,L|495:208,1,80,2|0,0:0|0:0,0:0:0:0:
408,72,174042,2,0,L|411:151,1,80,2|0,0:0|0:0,0:0:0:0:
292,40,174357,22,0,P|237:63|179:54,1,120,4|0,0:0|0:0,0:0:0:0:
124,32,174673,2,0,P|65:29|24:71,1,120,2|0,0:0|0:0,0:0:0:0:
12,132,174989,2,0,L|15:211,1,80,2|0,0:0|0:0,0:0:0:0:
144,312,175305,2,0,L|147:232,1,80,2|0,0:0|0:0,0:0:0:0:
244,360,175620,6,0,L|363:353,1,120,4|0,0:0|0:0,0:0:0:0:
416,324,175936,2,0,P|436:264|404:196,1,120,2|0,0:0|0:0,0:0:0:0:
364,180,176252,2,0,P|351:142|360:103,1,80,2|0,0:0|0:0,0:0:0:0:
152,103,176568,2,0,P|160:141|148:179,1,80,2|0,0:0|0:0,0:0:0:0:
256,232,176884,5,4,0:0:0:0:
156,364,177042,1,0,0:0:0:0:
256,232,177199,1,2,0:0:0:0:
356,364,177357,1,0,0:0:0:0:
156,364,177515,2,0,P|106:333|91:276,1,120,4|0,0:0|0:0,0:0:0:0:
104,216,177831,2,0,L|112:172,3,40,2|0|0|0,0:0|0:0|0:0|0:0,0:0:0:0:
344,48,178147,6,0,P|383:45|418:63,1,80,4|0,0:0|0:0,0:0:0:0:
167,48,178463,2,0,P|128:45|93:63,1,80,2|0,0:0|0:0,0:0:0:0:
8,148,178778,1,2,0:0:0:0:
40,280,178936,1,0,0:0:0:0:
144,192,179094,1,2,0:0:0:0:
40,280,179252,1,0,0:0:0:0:
136,352,179410,22,0,B|173:359|173:359|213:343,1,80,4|0,0:0|0:0,0:0:0:0:
376,352,179726,2,0,B|339:359|339:359|299:343,1,80,2|0,0:0|0:0,0:0:0:0:
256,232,180042,1,2,0:0:0:0:
256,232,180199,1,0,0:0:0:0:
164,152,180357,2,0,P|125:144|84:152,1,80,2|0,0:0|0:0,0:0:0:0:
24,256,180673,6,0,L|32:335,1,80,4|0,0:0|0:0,0:0:0:0:
155,231,180989,2,0,L|163:152,1,80,2|0,0:0|0:0,0:0:0:0:
208,40,181305,1,2,0:0:0:0:
308,108,181463,1,0,0:0:0:0:
168,16,181620,1,2,0:0:0:0:
352,140,181778,1,0,0:0:0:0:
155,231,181936,6,0,P|105:201|89:145,1,120,4|0,0:0|0:0,0:0:0:0:
120,92,182252,1,2,0:0:0:0:
256,4,182410,1,0,0:0:0:0:
392,92,182568,2,0,L|384:211,1,120,4|0,0:0|0:0,0:0:0:0:
344,260,182884,2,0,L|346:299,3,40,2|0|0|0,0:0|0:0|0:0|0:0,0:0:0:0:
108,368,183199,6,0,P|87:334|82:294,1,80,4|0,0:0|0:0,0:0:0:0:
404,368,183515,2,0,P|424:334|429:294,1,80,2|0,0:0|0:0,0:0:0:0:
364,192,183831,1,2,0:0:0:0:
296,72,183989,1,0,0:0:0:0:
188,156,184147,1,2,0:0:0:0:
296,72,184305,1,0,0:0:0:0:
188,20,184463,22,0,B|144:20|144:20|111:34,1,80,4|0,0:0|0:0,0:0:0:0:
48,192,184778,2,0,L|39:112,1,80,2|0,0:0|0:0,0:0:0:0:
160,136,185094,1,2,0:0:0:0:
160,136,185252,1,0,0:0:0:0:
256,208,185410,2,0,P|293:219|333:212,1,80,2|0,0:0|0:0,0:0:0:0:
388,104,185726,6,0,L|375:25,1,80,4|0,0:0|0:0,0:0:0:0:
136,25,186042,2,0,L|124:104,1,80,2|0,0:0|0:0,0:0:0:0:
104,224,186357,1,2,0:0:0:0:
218,258,186515,1,0,0:0:0:0:
58,208,186673,1,2,0:0:0:0:
267,271,186831,1,0,0:0:0:0:
460,160,186989,6,0,P|447:100|395:64,1,120,4|0,0:0|0:0,0:0:0:0:
352,36,187305,1,2,0:0:0:0:
256,164,187463,1,0,0:0:0:0:
160,36,187620,2,0,L|41:55,1,120,4|0,0:0|0:0,0:0:0:0:
3,104,187936,2,0,P|3:123|9:143,3,40,2|0|0|0,0:0|0:0|0:0|0:0,0:0:0:0:
160,348,188252,6,0,P|175:311|172:271,1,80,4|0,0:0|0:0,0:0:0:0:
351,347,188568,2,0,P|336:311|338:272,1,80,2|0,0:0|0:0,0:0:0:0:
256,56,188884,1,2,0:0:0:0:
176,192,189042,1,0,0:0:0:0:
336,192,189199,1,2,0:0:0:0:
256,56,189357,1,0,0:0:0:0:
160,212,189515,22,0,L|80:219,1,80,4|0,0:0|0:0,0:0:0:0:
352,212,189831,2,0,L|431:219,1,80,2|0,0:0|0:0,0:0:0:0:
496,116,190147,1,2,0:0:0:0:
420,24,190305,1,0,0:0:0:0:
312,80,190463,2,0,P|272:82|235:69,1,80,2|0,0:0|0:0,0:0:0:0:
124,20,190778,6,0,L|117:99,1,80,4|0,0:0|0:0,0:0:0:0:
16,224,191094,2,0,L|9:144,1,80,2|0,0:0|0:0,0:0:0:0:
92,288,191410,1,2,0:0:0:0:
92,288,191568,1,0,0:0:0:0:
224,188,191726,1,2,0:0:0:0:
312,328,191884,1,0,0:0:0:0:
460,251,192042,6,0,P|475:194|467:135,1,120,4|0,0:0|0:0,0:0:0:0:
432,88,192357,1,2,0:0:0:0:
296,0,192515,1,0,0:0:0:0:
192,124,192673,2,0,P|139:150|83:134,1,120,4|0,0:0|0:0,0:0:0:0:
52,80,192989,2,0,L|48:40,3,40,2|0|0|0,0:0|0:0|0:0|0:0,0:0:0:0:
104,288,193305,6,0,L|183:277,1,80,4|0,0:0|0:0,0:0:0:0:
408,288,193620,2,0,L|328:277,1,80,2|0,0:0|0:0,0:0:0:0:
256,144,193936,1,2,0:0:0:0:
344,20,194094,1,0,0:0:0:0:
168,20,194252,1,2,0:0:0:0:
256,144,194410,1,0,0:0:0:0:
376,12,194568,22,0,L|456:24,1,80,4|0,0:0|0:0,0:0:0:0:
420,184,194884,2,0,L|340:196,1,80,2|0,0:0|0:0,0:0:0:0:
256,280,195199,1,2,0:0:0:0:
172,196,195357,1,0,0:0:0:0:
79,272,195515,2,0,P|74:311|85:349,1,80,2|0,0:0|0:0,0:0:0:0:
32,184,195831,6,0,L|38:104,1,80,4|0,0:0|0:0,0:0:0:0:
180,28,196147,2,0,L|186:107,1,80,2|0,0:0|0:0,0:0:0:0:
340,48,196463,1,2,0:0:0:0:
340,48,196620,1,0,0:0:0:0:
460,160,196778,1,2,0:0:0:0:
384,308,196936,1,0,0:0:0:0:
208,180,197094,6,0,P|150:175|110:217,1,120,4|0,0:0|0:0,0:0:0:0:
116,276,197410,1,2,0:0:0:0:
256,360,197568,1,0,0:0:0:0:
396,276,197726,2,0,L|404:136,1,120,4|0,0:0|0:0,0:0:0:0:
432,104,198042,2,0,P|451:103|470:111,3,40,2|0|0|0,0:0|0:0|0:0|0:0,0:0:0:0:
208,44,198357,5,4,0:0:0:0:
256,192,198515,12,0,200884,0:0:0:0:
