osu file format v14

[General]
AudioFilename: audio.mp3
AudioLeadIn: 0
PreviewTime: 112384
Countdown: 0
SampleSet: None
StackLeniency: 0.7
Mode: 0
LetterboxInBreaks: 0
WidescreenStoryboard: 1

[Editor]
Bookmarks: 42,10147,21515,31620,41726,51831,60673,61936,72042,82147,92252,102357,112463,122568,132673,142778,152884,157936,162989,168042,173094,178147,183199,188252,193305,198357,200884
DistanceSpacing: 1.7
BeatDivisor: 1
GridSize: 4
TimelineZoom: 1

[Metadata]
Title:A New King Is Born
TitleUnicode:A New King Is Born
Artist:Loki
ArtistUnicode:Loki
Creator:Project Railgun
Version:Easy
Source:
Tags:project_railgun beatmapping contest mapping with rewards mwr
BeatmapID:1625749
BeatmapSetID:773395

[Difficulty]
HPDrainRate:3.2
CircleSize:3
OverallDifficulty:2.6
ApproachRate:3.5
SliderMultiplier:0.6
SliderTickRate:1

[Events]
//Background and Video events
0,0,"bg.jpg",0,0
//Break Periods
2,102557,111083
2,153084,156556
//Storyboard Layer 0 (Background)
//Storyboard Layer 1 (Fail)
//Storyboard Layer 2 (Pass)
//Storyboard Layer 3 (Foreground)
//Storyboard Sound Samples

[TimingPoints]
42,315.789473684211,4,2,0,100,1,0
21515,-100,4,2,0,100,0,1
21594,-100,4,2,0,100,0,0
41726,-100,4,2,0,100,0,1
51752,-100,4,2,0,100,0,0
51831,-100,4,2,0,100,0,1
60673,-100,4,2,0,100,0,0
61936,-100,4,2,0,100,0,1
62015,-100,4,2,0,100,0,0
82147,-100,4,2,0,100,0,1
82226,-100,4,2,0,100,0,0
112463,-100,4,2,0,100,0,1
122489,-100,4,2,0,100,0,0
122568,-100,4,2,0,100,0,1
132673,-100,4,2,0,100,0,0
157936,-100,4,2,0,100,0,1
158015,-100,4,2,0,100,0,0
168042,-100,4,2,0,100,0,1
168120,-100,4,2,0,100,0,0
173094,-100,4,2,0,100,0,1
173173,-100,4,2,0,100,0,0
178147,-100,4,2,0,100,0,1
188173,-100,4,2,0,100,0,0
188252,-100,4,2,0,100,0,1
198357,-100,4,2,0,100,0,0
198515,-100,4,2,0,75,0,0

[Colours]
Combo1 : 156,44,184
Combo2 : 137,104,41
Combo3 : 54,181,184
Combo4 : 60,191,105

[HitObjects]
55,91,42,6,0,P|121:34|206:51,1,180,4|2,0:0|0:0,0:0:0:0:
305,51,1305,2,0,P|390:34|456:92,1,180,4|2,0:0|0:0,0:0:0:0:
428,188,2568,6,0,L|435:307,1,120,4|4,0:0|0:0,0:0:0:0:
344,356,3515,1,2,0:0:0:0:
256,308,3831,2,0,B|210:215|298:215|265:138,1,180,4|2,0:0|0:0,0:0:0:0:
188,72,5094,6,0,P|128:73|78:103,1,120,4|4,0:0|0:0,0:0:0:0:
24,188,6042,1,2,0:0:0:0:
52,288,6357,2,0,P|126:334|212:316,1,180,4|2,0:0|0:0,0:0:0:0:
256,224,7620,6,0,L|256:104,1,120,4|4,0:0|0:0,0:0:0:0:
448,36,8884,2,2,L|448:96,1,60,4|2,0:0|0:0,0:0:0:0:
364,156,9515,2,2,L|364:216,1,60
452,268,10147,6,0,P|370:239|302:292,1,180,4|2,0:0|0:0,0:0:0:0:
209,292,11410,2,0,P|141:239|60:268,1,180,4|2,0:0|0:0,0:0:0:0:
8,180,12673,6,0,L|23:60,1,120,4|4,0:0|0:0,0:0:0:0:
108,4,13620,1,2,0:0:0:0:
172,84,13936,2,0,B|257:119|257:43|345:80,1,180,4|2,0:0|0:0,0:0:0:0:
412,156,15199,6,0,P|422:214|401:269,1,120,4|4,0:0|0:0,0:0:0:0:
332,344,16147,1,2,0:0:0:0:
256,276,16463,2,0,B|196:272|196:272|144:300|144:300|84:296,1,180,4|2,0:0|0:0,0:0:0:0:
28,208,17726,6,0,P|29:149|47:92,1,120,4|4,0:0|0:0,0:0:0:0:
124,24,18673,1,2,0:0:0:0:
212,76,18989,2,0,L|403:59,1,180,4|2,0:0|0:0,0:0:0:0:
443,148,20252,2,0,L|379:153,1,60,2|2,0:0|0:0,0:0:0:0:
355,252,20884,2,0,L|414:246,1,60,2|2,0:0|0:0,0:0:0:0:
371,340,21515,6,0,P|313:333|273:290,1,120,4|2,0:0|0:0,0:0:0:0:
166,132,22778,2,0,L|157:252,1,120,2|2,0:0|0:0,0:0:0:0:
355,252,24042,2,0,L|345:132,1,120,2|2,0:0|0:0,0:0:0:0:
256,80,24989,1,4,0:0:0:0:
168,28,25305,2,0,L|108:28,1,60,2|0,0:0|0:0,0:0:0:0:
72,124,25936,2,0,L|132:124,1,60,2|0,0:0|0:0,0:0:0:0:
200,199,26568,6,0,P|255:219|309:198,1,120,4|2,0:0|0:0,0:0:0:0:
468,68,27831,2,0,L|476:188,1,120,2|2,0:0|0:0,0:0:0:0:
317,317,29094,2,0,L|309:197,1,120,2|2,0:0|0:0,0:0:0:0:
256,112,30042,1,4,0:0:0:0:
176,48,30357,2,0,L|117:53,2,60,2|0|2,0:0|0:0|0:0,0:0:0:0:
256,112,31305,1,0,0:0:0:0:
336,47,31620,6,0,P|394:37|446:65,1,120,4|2,0:0|0:0,0:0:0:0:
492,264,32884,2,0,L|488:324,2,60,2|0|2,0:0|0:0|0:0,0:0:0:0:
324,148,34147,2,0,L|328:88,2,60,2|0|2,0:0|0:0|0:0,0:0:0:0:
256,224,35094,1,4,0:0:0:0:
179,292,35410,2,0,P|151:302|122:301,1,60,2|0,0:0|0:0,0:0:0:0:
36,244,36042,2,0,L|27:184,1,60,2|0,0:0|0:0,0:0:0:0:
72,92,36673,6,0,P|117:129|175:130,1,120,4|2,0:0|0:0,0:0:0:0:
344,12,37936,2,0,P|373:8|403:12,2,60,2|0|2,0:0|0:0|0:0,0:0:0:0:
175,130,39199,2,0,P|145:133|115:130,2,60,2|0|2,0:0|0:0|0:0,0:0:0:0:
256,68,40147,1,4,0:0:0:0:
344,12,40463,2,0,P|373:8|403:11,2,60,2|0|2,0:0|0:0|0:0,0:0:0:0:
256,68,41410,1,0,0:0:0:0:
167,11,41726,6,0,P|109:22|64:61,1,120,4|2,0:0|0:0,0:0:0:0:
24,156,42673,1,2,0:0:0:0:
84,240,42989,2,0,L|208:228,1,120,2|2,0:0|0:0,0:0:0:0:
304,252,43936,1,2,0:0:0:0:
364,172,44252,6,0,B|372:112|372:112|354:55,1,120,4|2,0:0|0:0,0:0:0:0:
157,55,45515,2,0,B|140:112|140:112|148:172,1,120,2|2,0:0|0:0,0:0:0:0:
192,264,46463,1,2,0:0:0:0:
256,344,46778,6,0,L|375:328,1,120,4|2,0:0|0:0,0:0:0:0:
436,248,47726,1,2,0:0:0:0:
424,148,48042,2,0,P|400:93|352:58,1,120,2|2,0:0|0:0,0:0:0:0:
256,96,48989,1,2,0:0:0:0:
184,168,49305,6,0,L|178:287,1,120,4|2,0:0|0:0,0:0:0:0:
32,144,50568,2,0,L|35:84,1,60,2|0,0:0|0:0,0:0:0:0:
136,72,51199,2,0,L|139:12,1,60,2|0,0:0|0:0,0:0:0:0:
228,68,51831,6,0,P|279:95|338:87,1,120,4|2,0:0|0:0,0:0:0:0:
428,40,52778,1,2,0:0:0:0:
496,116,53094,2,0,L|504:244,1,120,2|2,0:0|0:0,0:0:0:0:
440,316,54042,1,2,0:0:0:0:
364,248,54357,6,0,B|344:192|344:192|357:132,1,120,4|2,0:0|0:0,0:0:0:0:
154,132,55620,2,0,B|168:192|168:192|148:248,1,120,2|2,0:0|0:0,0:0:0:0:
72,316,56568,1,2,0:0:0:0:
8,235,56884,6,0,L|16:116,1,120,4|2,0:0|0:0,0:0:0:0:
84,40,57831,1,2,0:0:0:0:
156,112,58147,2,0,P|210:134|268:121,1,120,2|2,0:0|0:0,0:0:0:0:
348,56,59094,1,2,0:0:0:0:
432,112,59410,6,0,L|442:231,1,120,4|2,0:0|0:0,0:0:0:0:
388,316,60357,2,0,P|401:342|424:360,1,60,2|4,0:0|0:0,0:0:0:0:
256,160,61936,6,0,L|120:168,1,120,4|2,0:0|0:0,0:0:0:0:
320,256,63199,2,0,P|343:237|357:211,1,60,2|0,0:0|0:0,0:0:0:0:
356,108,63831,2,0,P|337:84|311:70,1,60,2|0,0:0|0:0,0:0:0:0:
256,160,64463,5,4,0:0:0:0:
83,267,65094,2,0,P|60:213|66:154,1,120,2|2,0:0|0:0,0:0:0:0:
131,75,66042,2,0,P|161:77|191:72,1,60,2|2,0:0|0:0,0:0:0:0:
288,36,66673,1,0,0:0:0:0:
356,112,66989,6,0,L|364:232,1,120,4|2,0:0|0:0,0:0:0:0:
240,72,68252,2,0,L|287:35,1,60,2|0,0:0|0:0,0:0:0:0:
392,32,68884,2,0,L|446:56,1,60,2|0,0:0|0:0,0:0:0:0:
491,147,69515,6,0,P|488:235|424:295,1,180,4|2,0:0|0:0,0:0:0:0:
340,240,70778,2,0,B|280:244|280:244|224:220|224:220|165:227,1,180,4|2,0:0|0:0,0:0:0:0:
87,295,72042,6,0,L|82:355,2,60,4|0|2,0:0|0:0|0:0,0:0:0:0:
24,100,73305,2,0,L|28:40,2,60,2|0|2,0:0|0:0|0:0,0:0:0:0:
104,164,74252,2,0,P|133:169|161:160,1,60,0|4,0:0|0:0,0:0:0:0:
328,44,75199,6,0,P|383:24|442:33,1,120,2|2,0:0|0:0,0:0:0:0:
508,112,76147,2,0,L|511:171,1,60,2|2,0:0|0:0,0:0:0:0:
472,268,76778,1,0,0:0:0:0:
400,340,77094,6,0,P|341:348|284:332,1,120,4|2,0:0|0:0,0:0:0:0:
176,160,78357,2,0,P|169:130|167:100,2,60,2|0|2,0:0|0:0|0:0,0:0:0:0:
256,224,79305,1,0,0:0:0:0:
336,159,79620,6,0,P|385:89|472:86,1,180,4|2,0:0|0:0,0:0:0:0:
440,184,80884,1,4,0:0:0:0:
256,352,82147,6,0,L|256:232,1,120,4|2,0:0|0:0,0:0:0:0:
164,52,83410,2,0,P|140:106|152:164,1,120,2|2,0:0|0:0,0:0:0:0:
359,164,84673,2,0,P|371:106|348:52,1,120,2|2,0:0|0:0,0:0:0:0:
256,8,85620,1,4,0:0:0:0:
164,52,85936,2,0,L|104:43,1,60,2|0,0:0|0:0,0:0:0:0:
56,132,86568,2,0,L|115:140,1,60,2|0,0:0|0:0,0:0:0:0:
188,212,87199,6,0,P|191:271|170:327,1,120,4|2,0:0|0:0,0:0:0:0:
272,152,88463,2,0,L|390:168,1,120,2|2,0:0|0:0,0:0:0:0:
219,59,89726,2,0,P|162:47|111:76,1,120,2|2,0:0|0:0,0:0:0:0:
60,164,90673,1,4,0:0:0:0:
12,252,90989,2,0,L|18:311,2,60,2|0|2,0:0|0:0|0:0,0:0:0:0:
60,164,91936,1,0,0:0:0:0:
148,216,92252,6,0,P|205:228|261:208,1,120,4|2,0:0|0:0,0:0:0:0:
420,80,93515,2,0,L|479:86,2,60,2|0|2,0:0|0:0|0:0,0:0:0:0:
261,208,94778,2,0,L|201:201,2,60,2|0|2,0:0|0:0|0:0,0:0:0:0:
336,276,95726,1,4,0:0:0:0:
423,224,96042,2,0,P|430:194|429:164,1,60,2|0,0:0|0:0,0:0:0:0:
388,72,96673,2,0,P|364:53|336:42,1,60,2|0,0:0|0:0,0:0:0:0:
256,108,97305,6,0,L|247:227,1,120,4|2,0:0|0:0,0:0:0:0:
116,72,98568,2,0,L|121:13,2,60,2|0|2,0:0|0:0|0:0,0:0:0:0:
24,256,99831,2,0,L|19:315,2,60,2|0|2,0:0|0:0|0:0,0:0:0:0:
72,164,100778,1,4,0:0:0:0:
116,72,101094,2,0,L|111:13,2,60,2|0|2,0:0|0:0|0:0,0:0:0:0:
188,144,102042,2,0,P|217:147|247:141,1,60,0|4,0:0|0:0,0:0:0:0:
72,256,112463,6,0,B|128:240|128:240|189:248,1,120,4|2,0:0|0:0,0:0:0:0:
256,328,113410,1,2,0:0:0:0:
322,248,113726,2,0,B|384:240|384:240|440:256,1,120,4|2,0:0|0:0,0:0:0:0:
492,168,114673,1,2,0:0:0:0:
408,112,114989,6,0,P|354:86|321:37,1,120,4|2,0:0|0:0,0:0:0:0:
256,116,115936,1,2,0:0:0:0:
196,199,116252,2,0,P|194:229|201:259,1,60,4|2,0:0|0:0,0:0:0:0:
310,259,116884,2,0,P|317:229|316:199,1,60,4|2,0:0|0:0,0:0:0:0:
256,116,117515,6,0,P|208:82|149:76,1,120,4|2,0:0|0:0,0:0:0:0:
56,120,118463,1,2,0:0:0:0:
20,216,118778,2,0,L|34:335,1,120,4|2,0:0|0:0,0:0:0:0:
132,368,119726,1,2,0:0:0:0:
199,292,120042,6,0,P|257:276|313:294,1,120,4|2,0:0|0:0,0:0:0:0:
372,212,120989,1,2,0:0:0:0:
432,132,121305,2,0,L|437:72,2,60,4|2|4,0:0|0:0|0:0,0:0:0:0:
312,294,122568,6,0,P|258:316|204:293,1,120,4|2,0:0|0:0,0:0:0:0:
140,212,123515,1,2,0:0:0:0:
96,120,123831,2,0,L|102:60,1,60,4|0,0:0|0:0,0:0:0:0:
200,32,124463,2,0,L|193:91,1,60,2|2,0:0|0:0,0:0:0:0:
256,172,125094,6,0,P|313:188|370:174,1,120,4|2,0:0|0:0,0:0:0:0:
440,100,126042,1,2,0:0:0:0:
366,28,126357,2,0,L|307:16,1,60,4|2,0:0|0:0,0:0:0:0:
204,16,126989,2,0,L|146:28,1,60,4|2,0:0|0:0,0:0:0:0:
76,100,127620,6,0,L|81:219,1,120,4|2,0:0|0:0,0:0:0:0:
136,308,128568,1,2,0:0:0:0:
224,256,128884,2,0,P|253:252|283:254,1,60,4|0,0:0|0:0,0:0:0:0:
288,356,129515,2,0,P|258:358|228:354,1,60,2|2,0:0|0:0,0:0:0:0:
135,307,130147,6,0,P|120:250|130:192,1,120,4|2,0:0|0:0,0:0:0:0:
196,112,131094,1,2,0:0:0:0:
260,32,131410,2,0,L|319:25,2,60,4|2|4,0:0|0:0|0:0,0:0:0:0:
130,190,132673,6,0,L|249:179,1,120,4|2,0:0|0:0,0:0:0:0:
76,76,133936,2,0,L|16:81,2,60,2|2|2,0:0|0:0|0:0,0:0:0:0:
249,179,135199,6,0,L|259:298,1,120,2|2,0:0|0:0,0:0:0:0:
424,176,136463,2,0,L|418:116,2,60,2|2|4,0:0|0:0|0:0,0:0:0:0:
376,264,137410,1,2,0:0:0:0:
296,324,137726,6,0,P|236:326|182:301,1,120,2|2,0:0|0:0,0:0:0:0:
40,156,138989,2,0,L|36:96,2,60,2|2|2,0:0|0:0|0:0,0:0:0:0:
208,44,140252,6,0,P|265:30|321:50,1,120,2|2,0:0|0:0,0:0:0:0:
436,220,141515,2,0,L|440:280,2,60,2|2|4,0:0|0:0|0:0,0:0:0:0:
484,128,142463,1,2,0:0:0:0:
412,56,142778,6,0,B|352:68|352:32|294:48,1,120,4|2,0:0|0:0,0:0:0:0:
200,84,143726,1,2,0:0:0:0:
116,140,144042,2,0,P|104:167|106:196,2,60,2|2|2,0:0|0:0|0:0,0:0:0:0:
256,288,145305,6,0,P|312:307|369:294,1,120,2|2,0:0|0:0,0:0:0:0:
452,232,146252,1,2,0:0:0:0:
495,139,146568,2,0,L|492:80,1,60,2|2,0:0|0:0,0:0:0:0:
392,48,147199,2,0,L|397:107,1,60,4|2,0:0|0:0,0:0:0:0:
316,172,147831,6,0,B|256:156|256:192|197:172,1,120,2|2,0:0|0:0,0:0:0:0:
120,104,148778,1,2,0:0:0:0:
32,156,149094,2,0,P|23:184|23:214,2,60,2|2|2,0:0|0:0|0:0,0:0:0:0:
124,340,150357,6,0,P|182:349|239:331,1,120,2|2,0:0|0:0,0:0:0:0:
304,252,151305,1,2,0:0:0:0:
356,164,151620,2,0,P|355:134|353:104,1,60,2|2,0:0|0:0,0:0:0:0:
444,60,152252,2,0,P|444:89|446:119,1,60,4|2,0:0|0:0,0:0:0:0:
504,212,152884,5,4,0:0:0:0:
72,308,157936,6,0,B|112:352|112:352|171:340,1,120,4|2,0:0|0:0,0:0:0:0:
256,288,158884,1,2,0:0:0:0:
340,340,159199,2,0,B|400:352|400:352|440:308,1,120,4|2,0:0|0:0,0:0:0:0:
484,216,160147,1,2,0:0:0:0:
428,128,160463,6,0,B|384:96|360:96|360:96|316:120,1,120,4|2,0:0|0:0,0:0:0:0:
256,200,161410,1,2,0:0:0:0:
200,284,161726,2,0,P|197:313|203:343,1,60,4|0,0:0|0:0,0:0:0:0:
308,343,162357,2,0,P|314:313|312:284,1,60,2|2,0:0|0:0,0:0:0:0:
255,199,162989,6,4,P|196:184|136:208,1,120,4|2,0:0|0:0,0:0:0:0:
64,268,163936,1,2,0:0:0:0:
12,180,164252,2,0,L|24:60,1,120,4|2,0:0|0:0,0:0:0:0:
108,4,165199,1,2,0:0:0:0:
184,76,165515,6,0,B|212:104|252:108|252:108|292:91,1,120,4|2,0:0|0:0,0:0:0:0:
376,32,166463,1,2,0:0:0:0:
460,88,166778,2,0,L|456:148,1,60,4|0,0:0|0:0,0:0:0:0:
372,208,167410,2,0,L|368:268,1,60,2|2,0:0|0:0,0:0:0:0:
444,340,168042,6,0,L|324:328,1,120,4|2,0:0|0:0,0:0:0:0:
256,248,168989,1,2,0:0:0:0:
188,328,169305,2,0,L|68:340,1,120,4|2,0:0|0:0,0:0:0:0:
28,244,170252,1,2,0:0:0:0:
104,176,170568,6,0,B|108:144|108:144|107:116,1,60,4|0,0:0|0:0,0:0:0:0:
204,80,171199,2,0,B|200:112|200:112|200:139,1,60,2|2,0:0|0:0,0:0:0:0:
311,139,171831,2,0,B|312:112|312:112|308:80,1,60,4|0,0:0|0:0,0:0:0:0:
404,116,172462,2,0,B|404:144|404:144|408:176,1,60,2|2,0:0|0:0,0:0:0:0:
432,276,173094,6,0,P|379:303|321:294,1,120,4|2,0:0|0:0,0:0:0:0:
256,216,174042,1,2,0:0:0:0:
190,294,174357,2,0,P|132:303|80:276,1,120,4|2,0:0|0:0,0:0:0:0:
28,188,175305,1,2,0:0:0:0:
64,92,175620,6,0,B|120:64|120:64|177:64,1,120,4|2,0:0|0:0,0:0:0:0:
256,128,176568,1,2,0:0:0:0:
335,64,176884,2,0,L|394:65,1,60,4|2,0:0|0:0,0:0:0:0:
472,140,177515,1,4,0:0:0:0:
395,327,178147,6,0,P|346:295|320:242,1,120,4|2,0:0|0:0,0:0:0:0:
256,164,179094,1,2,0:0:0:0:
191,242,179410,2,0,P|165:295|116:327,1,120,4|2,0:0|0:0,0:0:0:0:
36,264,180357,1,2,0:0:0:0:
4,168,180673,6,0,L|24:44,1,120,4|2,0:0|0:0,0:0:0:0:
116,4,181620,1,2,0:0:0:0:
208,48,181936,2,0,P|237:51|267:46,2,60,4|2|4,0:0|0:0|0:0,0:0:0:0:
92,216,183199,6,0,B|108:248|136:260|136:260|164:264|191:249,1,120,4|2,0:0|0:0,0:0:0:0:
256,172,184147,1,2,0:0:0:0:
320,249,184463,2,0,B|348:264|376:260|376:260|404:248|420:216,1,120,4|2,0:0|0:0,0:0:0:0:
456,124,185410,1,2,0:0:0:0:
376,60,185726,6,0,L|256:67,1,120,4|2,0:0|0:0,0:0:0:0:
168,120,186673,1,2,0:0:0:0:
88,184,186989,2,0,P|80:213|80:243,2,60,4|2|4,0:0|0:0|0:0,0:0:0:0:
256,68,188252,6,0,L|268:138,1,60,4|2,0:0|0:0,0:0:0:0:
368,144,188884,2,0,L|354:203,1,60,2|2,0:0|0:0,0:0:0:0:
352,304,189515,2,0,P|331:325|305:339,1,60,4|2,0:0|0:0,0:0:0:0:
206,339,190147,2,0,P|180:325|160:304,1,60,2|2,0:0|0:0,0:0:0:0:
80,236,190778,6,0,L|20:241,2,60,4|2|2,0:0|0:0|0:0,0:0:0:0:
140,152,191726,1,2,0:0:0:0:
228,99,192042,2,0,P|257:95|287:99,1,60,4|2,0:0|0:0,0:0:0:0:
288,200,192673,2,0,P|258:203|228:199,1,60,4|2,0:0|0:0,0:0:0:0:
140,152,193305,6,0,L|129:92,1,60,4|2,0:0|0:0,0:0:0:0:
56,164,193936,2,0,L|66:223,1,60,2|2,0:0|0:0,0:0:0:0:
148,284,194568,2,0,B|178:292|178:292|206:289,1,60,4|2,0:0|0:0,0:0:0:0:
306,289,195199,2,0,B|334:292|334:292|364:284,1,60,2|2,0:0|0:0,0:0:0:0:
448,220,195831,6,0,L|457:160,1,60,4|2,0:0|0:0,0:0:0:0:
360,128,196463,2,0,L|369:68,1,60,2|2,0:0|0:0,0:0:0:0:
288,8,197094,2,0,P|258:3|228:6,2,60,4|2|4,0:0|0:0|0:0,0:0:0:0:
104,100,198357,5,4,0:0:0:0:
256,192,198515,12,0,200884,0:0:0:0:
