osu file format v14

[General]
AudioFilename: audio.mp3
AudioLeadIn: 0
PreviewTime: 112384
Countdown: 0
SampleSet: None
StackLeniency: 0.7
Mode: 0
LetterboxInBreaks: 0
WidescreenStoryboard: 1

[Editor]
Bookmarks: 42,10147,21515,31620,41726,51831,60673,61936,72042,82147,92252,102357,112463,122568,132673,142778,152884,157936,162989,168042,173094,178147,183199,188252,193305,198357,200884
DistanceSpacing: 1.3
BeatDivisor: 1
GridSize: 4
TimelineZoom: 1

[Metadata]
Title:A New King Is Born
TitleUnicode:A New King Is Born
Artist:Loki
ArtistUnicode:Loki
Creator:Project Railgun
Version:Beginner
Source:
Tags:project_railgun beatmapping contest mapping with rewards mwr
BeatmapID:1625748
BeatmapSetID:773395

[Difficulty]
HPDrainRate:1.8
CircleSize:2.5
OverallDifficulty:1.5
ApproachRate:2.2
SliderMultiplier:0.500000005960464
SliderTickRate:1

[Events]
//Background and Video events
0,0,"bg.jpg",0,0
//Break Periods
2,102557,110928
2,153084,156401
//Storyboard Layer 0 (Background)
//Storyboard Layer 1 (Fail)
//Storyboard Layer 2 (Pass)
//Storyboard Layer 3 (Foreground)
//Storyboard Sound Samples

[TimingPoints]
42,315.789473684211,4,2,0,100,1,0
21515,-100,4,2,0,100,0,1
21594,-100,4,2,0,100,0,0
41726,-100,4,2,0,100,0,1
51752,-100,4,2,0,100,0,0
51831,-100,4,2,0,100,0,1
60673,-100,4,2,0,100,0,0
61936,-100,4,2,0,100,0,1
62015,-100,4,2,0,100,0,0
82147,-100,4,2,0,100,0,1
82226,-100,4,2,0,100,0,0
112463,-100,4,2,0,100,0,1
122489,-100,4,2,0,100,0,0
122568,-100,4,2,0,100,0,1
132673,-100,4,2,0,100,0,0
157936,-100,4,2,0,100,0,1
158015,-100,4,2,0,100,0,0
168042,-100,4,2,0,100,0,1
168120,-100,4,2,0,100,0,0
173094,-100,4,2,0,100,0,1
173173,-100,4,2,0,100,0,0
178147,-100,4,2,0,100,0,1
188173,-100,4,2,0,100,0,0
188252,-100,4,2,0,100,0,1
198357,-100,4,2,0,100,0,0
198515,-100,4,2,0,75,0,0

[Colours]
Combo1 : 156,44,184
Combo2 : 137,104,41
Combo3 : 54,181,184
Combo4 : 60,191,105

[HitObjects]
60,111,42,6,0,P|134:52|225:83,1,200.000002384186,4|4,0:0|0:0,0:0:0:0:
348,312,2568,2,0,P|398:314|443:293,1,100.000001192093,4|4,0:0|0:0,0:0:0:0:
484,172,3831,2,0,P|437:114|365:99,1,150.000001788139,4|2,0:0|0:0,0:0:0:0:
308,132,5094,6,0,L|208:128,1,100.000001192093,4|4,0:0|0:0,0:0:0:0:
88,175,6357,2,0,P|62:244|92:312,1,150.000001788139,4|2,0:0|0:0,0:0:0:0:
148,344,7620,5,4,0:0:0:0:
256,272,8252,1,4,0:0:0:0:
363,343,8884,2,0,P|425:305|449:235,1,150.000001788139,4|2,0:0|0:0,0:0:0:0:
446,170,10147,6,0,P|387:96|292:111,1,200.000002384186,4|4,0:0|0:0,0:0:0:0:
152,328,12673,2,0,L|44:336,1,100.000001192093,4|4,0:0|0:0,0:0:0:0:
11,211,13936,2,0,P|34:142|98:108,1,150.000001788139,4|2,0:0|0:0,0:0:0:0:
164,124,15199,6,0,P|212:136|260:125,1,100.000001192093,4|4,0:0|0:0,0:0:0:0:
380,72,16463,2,0,L|391:221,1,150.000001788139,4|2,0:0|0:0,0:0:0:0:
353,271,17726,5,4,0:0:0:0:
256,356,18357,1,4,0:0:0:0:
159,271,18989,2,0,P|111:188|148:100,1,200.000002384186,4|2,0:0|0:0,0:0:0:0:
256,24,20884,1,2,0:0:0:0:
363,100,21515,6,0,L|462:92,2,100.000001192093,4|2|2,0:0|0:0|0:0,0:0:0:0:
256,172,23410,1,2,0:0:0:0:
147,99,24042,2,0,P|80:73|18:111,1,150.000001788139,2|4,0:0|0:0,0:0:0:0:
20,176,25305,2,0,L|29:275,1,100.000001192093,2|2,0:0|0:0,0:0:0:0:
128,360,26568,6,0,P|154:317|160:268,2,100.000001192093,4|2|2,0:0|0:0|0:0,0:0:0:0:
256,332,28463,1,2,0:0:0:0:
256,204,29094,2,0,L|256:104,1,100.000001192093,2|2,0:0|0:0,0:0:0:0:
364,28,30357,1,2,0:0:0:0:
452,124,30989,1,2,0:0:0:0:
452,252,31620,6,0,P|413:283|364:291,1,100.000001192093,4|2,0:0|0:0,0:0:0:0:
256,216,32884,1,2,0:0:0:0:
148,291,33515,1,2,0:0:0:0:
52,200,34147,2,0,P|35:128|75:67,1,150.000001788139,2|4,0:0|0:0,0:0:0:0:
128,28,35410,2,0,L|227:24,1,100.000001192093,2|2,0:0|0:0,0:0:0:0:
348,72,36673,6,0,P|356:121|349:170,1,100.000001192093,4|2,0:0|0:0,0:0:0:0:
256,260,37936,1,2,0:0:0:0:
163,170,38568,1,2,0:0:0:0:
52,236,39199,2,0,L|60:372,1,100.000001192093,2|2,0:0|0:0,0:0:0:0:
184,368,40463,1,2,0:0:0:0:
256,260,41094,1,2,0:0:0:0:
328,368,41726,6,0,L|428:356,1,100.000001192093,4|2,0:0|0:0,0:0:0:0:
440,228,42989,2,0,L|340:240,1,100.000001192093,2|2,0:0|0:0,0:0:0:0:
216,276,44252,1,4,0:0:0:0:
92,232,44884,1,2,0:0:0:0:
92,104,45515,1,2,0:0:0:0:
196,24,46147,1,2,0:0:0:0:
308,88,46778,6,0,L|320:188,1,100.000001192093,4|2,0:0|0:0,0:0:0:0:
196,232,48042,2,0,L|184:132,1,100.000001192093,2|2,0:0|0:0,0:0:0:0:
96,36,49305,1,4,0:0:0:0:
12,136,49936,1,2,0:0:0:0:
52,260,50568,2,0,P|80:300|124:322,1,100.000001192093,2|2,0:0|0:0,0:0:0:0:
256,308,51831,6,0,L|355:311,1,100.000001192093,4|2,0:0|0:0,0:0:0:0:
320,184,53094,2,0,L|419:187,1,100.000001192093,2|2,0:0|0:0,0:0:0:0:
488,76,54357,1,4,0:0:0:0:
372,20,54989,1,2,0:0:0:0:
256,76,55620,1,2,0:0:0:0:
140,20,56252,1,2,0:0:0:0:
24,76,56884,6,0,L|28:175,1,100.000001192093,4|2,0:0|0:0,0:0:0:0:
152,132,58147,2,0,L|155:231,1,100.000001192093,2|2,0:0|0:0,0:0:0:0:
256,312,59410,1,4,0:0:0:0:
357,231,60042,1,2,0:0:0:0:
256,152,60673,1,4,0:0:0:0:
352,336,61936,6,0,P|401:334|440:305,1,100.000001192093,4|2,0:0|0:0,0:0:0:0:
484,180,63199,2,0,L|480:80,1,100.000001192093,2|2,0:0|0:0,0:0:0:0:
360,28,64463,1,4,0:0:0:0:
256,104,65094,1,2,0:0:0:0:
152,28,65726,2,0,P|102:27|58:49,1,100.000001192093,2|2,0:0|0:0,0:0:0:0:
12,172,66989,6,0,L|16:272,1,100.000001192093,4|2,0:0|0:0,0:0:0:0:
140,312,68252,2,0,L|136:212,1,100.000001192093,2|2,0:0|0:0,0:0:0:0:
104,84,69515,2,0,P|166:45|239:57,1,150.000001788139,4|2,0:0|0:0,0:0:0:0:
288,100,70778,2,0,B|360:132|360:68|432:102,1,150.000001788139,4|2,0:0|0:0,0:0:0:0:
484,140,72042,6,0,L|487:239,1,100.000001192093,4|2,0:0|0:0,0:0:0:0:
432,356,73305,2,0,P|382:364|333:357,1,100.000001192093,2|2,0:0|0:0,0:0:0:0:
256,252,74568,1,4,0:0:0:0:
179,357,75199,1,2,0:0:0:0:
76,276,75831,2,0,L|70:176,1,100.000001192093,2|2,0:0|0:0,0:0:0:0:
116,56,77094,6,0,P|165:53|206:80,1,100.000001192093,4|2,0:0|0:0,0:0:0:0:
160,200,78357,2,0,P|110:202|69:175,1,100.000001192093,2|2,0:0|0:0,0:0:0:0:
116,56,79620,2,0,B|214:20|214:100|308:68,1,200.000002384186,4|4,0:0|0:0,0:0:0:0:
472,208,82147,6,0,L|483:307,2,100.000001192093,4|2|2,0:0|0:0|0:0,0:0:0:0:
380,116,84042,1,2,0:0:0:0:
276,36,84673,2,0,P|203:28|149:76,1,150.000001788139,2|4,0:0|0:0,0:0:0:0:
120,132,85936,2,0,L|124:231,1,100.000001192093,2|2,0:0|0:0,0:0:0:0:
156,360,87199,6,0,P|202:344|233:305,2,100.000001192093,4|2|2,0:0|0:0|0:0,0:0:0:0:
52,280,89094,1,2,0:0:0:0:
16,156,89726,2,0,L|27:56,1,100.000001192093,2|2,0:0|0:0,0:0:0:0:
152,24,90989,1,2,0:0:0:0:
256,100,91620,1,2,0:0:0:0:
360,24,92252,6,0,P|409:19|455:37,1,100.000001192093,4|2,0:0|0:0,0:0:0:0:
508,156,93515,1,2,0:0:0:0:
440,268,94147,1,2,0:0:0:0:
328,336,94778,2,0,P|256:353|190:321,1,150.000001788139,2|4,0:0|0:0,0:0:0:0:
148,272,96042,2,0,L|144:172,1,100.000001192093,2|2,0:0|0:0,0:0:0:0:
208,60,97305,6,0,P|256:47|304:60,1,100.000001192093,4|2,0:0|0:0,0:0:0:0:
368,172,98568,1,2,0:0:0:0:
324,296,99199,1,2,0:0:0:0:
204,248,99831,2,0,L|104:255,1,100.000001192093,2|2,0:0|0:0,0:0:0:0:
48,136,101094,1,2,0:0:0:0:
140,44,101726,1,2,0:0:0:0:
256,100,102357,5,4,0:0:0:0:
175,191,112463,6,0,P|176:142|190:94,1,100.000001192093,4|2,0:0|0:0,0:0:0:0:
321,94,113726,2,0,P|335:142|336:191,1,100.000001192093,4|2,0:0|0:0,0:0:0:0:
268,300,114989,2,0,L|168:306,1,100.000001192093,4|2,0:0|0:0,0:0:0:0:
86,205,116252,2,0,P|78:155|88:107,1,100.000001192093,4|4,0:0|0:0,0:0:0:0:
172,8,117515,5,4,0:0:0:0:
256,108,118147,1,2,0:0:0:0:
340,8,118778,1,4,0:0:0:0:
424,108,119410,1,2,0:0:0:0:
404,236,120042,2,0,P|369:270|320:281,1,100.000001192093,4|2,0:0|0:0,0:0:0:0:
191,281,121305,2,0,P|142:270|108:236,1,100.000001192093,4|4,0:0|0:0,0:0:0:0:
88,108,122568,5,4,0:0:0:0:
192,32,123199,1,2,0:0:0:0:
320,32,123831,1,4,0:0:0:0:
424,108,124463,1,2,0:0:0:0:
320,188,125094,2,0,P|311:236|323:285,1,100.000001192093,4|2,0:0|0:0,0:0:0:0:
188,285,126357,2,0,P|200:236|192:188,1,100.000001192093,4|4,0:0|0:0,0:0:0:0:
92,104,127620,6,0,L|190:84,1,100.000001192093,4|2,0:0|0:0,0:0:0:0:
321,84,128884,2,0,L|420:104,1,100.000001192093,4|2,0:0|0:0,0:0:0:0:
464,227,130147,2,0,P|448:275|415:312,1,100.000001192093,4|2,0:0|0:0,0:0:0:0:
304,244,131410,2,0,P|254:235|205:244,1,100.000001192093,4|4,0:0|0:0,0:0:0:0:
96,312,132673,6,0,P|63:275|48:227,1,100.000001192093,4|2,0:0|0:0,0:0:0:0:
96,108,133936,2,0,L|191:79,1,100.000001192093,2|2,0:0|0:0,0:0:0:0:
320,79,135199,2,0,L|416:108,1,100.000001192093,2|2,0:0|0:0,0:0:0:0:
464,228,136463,1,2,0:0:0:0:
376,324,137094,1,4,0:0:0:0:
256,272,137726,6,0,L|256:172,1,100.000001192093,2|2,0:0|0:0,0:0:0:0:
148,96,138989,2,0,P|100:81|51:89,1,100.000001192093,2|2,0:0|0:0,0:0:0:0:
40,220,140252,2,0,P|87:234|136:226,1,100.000001192093,2|2,0:0|0:0,0:0:0:0:
256,172,141515,1,2,0:0:0:0:
336,276,142147,1,4,0:0:0:0:
448,208,142778,6,0,L|444:108,1,100.000001192093,4|2,0:0|0:0,0:0:0:0:
348,20,144042,1,2,0:0:0:0:
256,112,144673,1,2,0:0:0:0:
164,20,145305,2,0,P|114:20|69:42,1,100.000001192093,2|2,0:0|0:0,0:0:0:0:
28,168,146568,1,2,0:0:0:0:
112,268,147199,1,4,0:0:0:0:
208,180,147831,6,0,P|255:168|303:181,1,100.000001192093,2|2,0:0|0:0,0:0:0:0:
400,268,149094,1,2,0:0:0:0:
472,160,149726,1,2,0:0:0:0:
384,64,150357,2,0,L|284:56,1,100.000001192093,2|2,0:0|0:0,0:0:0:0:
156,44,151620,1,2,0:0:0:0:
60,132,152252,1,4,0:0:0:0:
120,248,152884,5,4,0:0:0:0:
164,224,157936,6,0,P|163:273|189:315,1,100.000001192093,4|2,0:0|0:0,0:0:0:0:
322,315,159199,2,0,P|348:273|348:224,1,100.000001192093,4|2,0:0|0:0,0:0:0:0:
256,132,160463,2,0,L|256:16,2,100.000001192093,4|2|4,0:0|0:0|0:0,0:0:0:0:
256,260,162357,1,2,0:0:0:0:
136,208,162989,6,0,P|109:165|102:116,1,100.000001192093,4|2,0:0|0:0,0:0:0:0:
204,32,164252,2,0,L|303:36,1,100.000001192093,4|2,0:0|0:0,0:0:0:0:
348,160,165515,2,0,L|249:156,2,100.000001192093,4|2|4,0:0|0:0|0:0,0:0:0:0:
464,216,167410,1,2,0:0:0:0:
416,336,168042,6,0,P|367:344|319:330,1,100.000001192093,4|2,0:0|0:0,0:0:0:0:
192,330,169305,2,0,P|144:344|96:336,1,100.000001192093,4|2,0:0|0:0,0:0:0:0:
20,232,170568,1,4,0:0:0:0:
56,108,171199,1,2,0:0:0:0:
156,24,171831,1,4,0:0:0:0:
256,104,172463,1,2,0:0:0:0:
356,24,173094,6,0,L|455:27,1,100.000001192093,4|2,0:0|0:0,0:0:0:0:
388,136,174357,2,0,L|288:132,1,100.000001192093,4|2,0:0|0:0,0:0:0:0:
160,128,175620,1,4,0:0:0:0:
72,224,176252,1,2,0:0:0:0:
144,332,176884,1,4,0:0:0:0:
256,264,177515,1,4,0:0:0:0:
368,332,178147,6,0,P|416:325|455:294,1,100.000001192093,4|2,0:0|0:0,0:0:0:0:
484,168,179410,2,0,L|473:68,1,100.000001192093,4|2,0:0|0:0,0:0:0:0:
344,44,180673,2,0,L|354:143,1,100.000001192093,4|2,0:0|0:0,0:0:0:0:
303,264,181936,2,0,P|254:271|205:263,1,100.000001192093,4|4,0:0|0:0,0:0:0:0:
157,143,183199,6,0,P|159:94|189:54,1,100.000001192093,4|2,0:0|0:0,0:0:0:0:
322,54,184463,2,0,P|352:94|354:143,1,100.000001192093,4|2,0:0|0:0,0:0:0:0:
256,228,185725,2,0,L|256:336,1,100.000001192093,4|2,0:0|0:0,0:0:0:0:
132,292,186988,2,0,P|93:261|78:214,1,100.000001192093,4|4,0:0|0:0,0:0:0:0:
148,108,188252,5,4,0:0:0:0:
256,36,188884,1,2,0:0:0:0:
364,108,189515,1,4,0:0:0:0:
320,232,190147,1,2,0:0:0:0:
192,232,190778,1,4,0:0:0:0:
148,108,191410,1,2,0:0:0:0:
52,196,192042,2,0,P|50:245|75:288,1,100.000001192093,4|4,0:0|0:0,0:0:0:0:
192,348,193305,5,4,0:0:0:0:
320,348,193936,1,2,0:0:0:0:
384,236,194568,1,4,0:0:0:0:
322,120,195199,1,2,0:0:0:0:
190,120,195831,1,4,0:0:0:0:
128,236,196463,1,2,0:0:0:0:
192,348,197094,2,0,L|292:348,1,100.000001192093,4|4,0:0|0:0,0:0:0:0:
408,292,198357,5,4,0:0:0:0:
256,192,198515,12,0,200884,0:0:0:0:
