osu file format v14

[General]
AudioFilename: audio.mp3
AudioLeadIn: 0
PreviewTime: 61936
Countdown: 0
SampleSet: Soft
StackLeniency: 0.7
Mode: 0
LetterboxInBreaks: 0
WidescreenStoryboard: 1

[Editor]
Bookmarks: 77726
DistanceSpacing: 1.2
BeatDivisor: 4
GridSize: 4
TimelineZoom: 2.1

[Metadata]
Title:A New King Is Born
TitleUnicode:A New King Is Born
Artist:Loki
ArtistUnicode:Loki
Creator:DTM9 Nowa
Version:Insane
Source:osu!
Tags:Mapping with rewards MWR The Fall of a Hero symphonic metal
BeatmapID:1605664
BeatmapSetID:760694

[Difficulty]
HPDrainRate:6
CircleSize:4
OverallDifficulty:7
ApproachRate:9
SliderMultiplier:1.5
SliderTickRate:1

[Events]
//Background and Video events
0,0,"Some kind of a castle.jpg",0,0
//Break Periods
2,153084,157336
//Storyboard Layer 0 (Background)
//Storyboard Layer 1 (Fail)
//Storyboard Layer 2 (Pass)
//Storyboard Layer 3 (Foreground)
//Storyboard Sound Samples

[TimingPoints]
42,315.789473684211,4,2,0,55,1,0
42,-200,4,2,0,55,0,0
1226,-200,4,2,0,5,0,0
1305,-200,4,2,0,55,0,0
2489,-200,4,2,0,5,0,0
2568,-200,4,2,0,55,0,0
6910,-200,4,2,0,5,0,0
6989,-200,4,2,0,55,0,0
11331,-200,4,2,0,5,0,0
11410,-200,4,2,0,55,0,0
12594,-200,4,2,0,5,0,0
12673,-200,4,2,0,55,0,0
17015,-200,4,2,0,5,0,0
17094,-200,4,2,0,55,0,0
21515,-100,4,1,0,60,0,0
21752,-100,4,1,0,5,0,0
21831,-100,4,1,0,50,0,0
23015,-100,4,1,0,5,0,0
23094,-100,4,1,0,50,0,0
24989,-71.4285714285714,4,1,0,50,0,0
25226,-71.4285714285714,4,1,0,5,0,0
25305,-100,4,1,0,50,0,0
31305,-142.857142857143,4,1,0,50,0,0
31542,-142.857142857143,4,1,0,5,0,0
31620,-100,4,1,0,50,0,0
33120,-100,4,1,0,5,0,0
33199,-100,4,1,0,50,0,0
34068,-100,4,1,0,5,0,0
34147,-100,4,1,0,50,0,0
35094,-71.4285714285714,4,1,0,50,0,0
35331,-71.4285714285714,4,1,0,5,0,0
35410,-100,4,1,0,50,0,0
35647,-100,4,1,0,5,0,0
35726,-100,4,1,0,50,0,0
41726,-100,4,1,0,55,0,0
50568,-133.333333333333,4,1,0,50,0,0
51831,-100,4,1,0,50,0,0
61936,-86.9565217391304,4,1,0,60,0,1
63831,-200,4,1,0,60,0,1
64778,-86.9565217391304,4,1,0,60,0,1
68884,-200,4,1,0,60,0,1
69515,-133.333333333333,4,1,0,60,0,1
70463,-100,4,1,0,60,0,1
70778,-86.9565217391304,4,1,0,60,0,1
73936,-200,4,1,0,60,0,1
74884,-86.9565217391304,4,1,0,60,0,1
78989,-200,4,1,0,60,0,1
79620,-133.333333333333,4,1,0,60,0,1
80568,-100,4,1,0,60,0,1
80884,-133.333333333333,4,1,0,60,0,0
82147,-100,4,1,0,50,0,0
83647,-100,4,1,0,5,0,0
83726,-100,4,1,0,50,0,0
85620,-71.4285714285714,4,1,0,50,0,0
85857,-71.4285714285714,4,1,0,5,0,0
85936,-100,4,1,0,50,0,0
91936,-142.857142857143,4,1,0,50,0,0
92173,-142.857142857143,4,1,0,5,0,0
92252,-100,4,1,0,50,0,0
95726,-71.4285714285714,4,1,0,50,0,0
95963,-71.4285714285714,4,1,0,5,0,0
96042,-100,4,1,0,50,0,0
102199,-100,4,2,0,50,0,0
102357,-200,4,2,0,60,0,0
102377,-200,4,2,0,30,0,0
108673,-166.666666666667,4,2,0,35,0,0
109305,-125,4,2,0,35,0,0
109936,-100,4,2,0,45,0,0
111831,-100,4,2,0,60,0,0
112463,-80,4,1,0,65,0,1
121305,-100,4,1,0,65,0,1
122568,-80,4,1,0,65,0,1
132673,-100,4,1,0,45,0,0
136699,-100,4,1,0,5,0,0
136778,-100,4,1,0,45,0,0
137331,-100,4,1,0,5,0,0
137410,-100,4,1,0,45,0,0
140173,-100,4,1,0,5,0,0
140252,-100,4,1,0,45,0,0
147436,-100,4,1,0,5,0,0
147515,-100,4,1,0,45,0,0
168042,-83.3333333333333,4,1,0,50,0,0
173094,-83.3333333333333,4,1,0,55,0,0
174357,-83.3333333333333,4,1,0,60,0,0
175620,-83.3333333333333,4,1,0,65,0,0
177515,-58.8235294117647,4,1,0,70,0,0
177831,-58.8235294117647,4,1,0,60,0,0
178147,-71.4285714285714,4,1,0,65,0,1
186989,-100,4,1,0,65,0,1
187936,-100,4,1,0,65,0,0
188252,-71.4285714285714,4,1,0,70,0,1
198357,-100,4,1,0,60,0,0
201198,-100,4,2,0,5,0,0

[Colours]
Combo1 : 185,153,117
Combo2 : 153,153,77
Combo3 : 175,175,216
Combo4 : 248,158,129

[HitObjects]
119,101,42,6,0,B|251:34|252:161|395:90,1,281.25,6|0,0:0|0:0,0:0:0:0:
418,84,1305,2,0,P|332:166|395:303,1,281.25,6|0,0:0|0:0,0:0:0:0:
402,311,2568,6,0,P|343:306|290:328,1,112.5,6|0,0:0|0:0,0:0:0:0:
182,370,3199,2,0,P|212:326|219:300,1,75,6|2,0:0|0:0,0:0:0:0:
239,147,3831,2,0,P|264:200|309:235,1,112.5,6|0,0:0|0:0,0:0:0:0:
400,184,4463,1,8,0:0:0:0:
400,184,4778,1,4,0:3:0:0:
177,71,5094,6,0,L|165:183,1,112.5,6|0,0:0|0:0,0:0:0:0:
92,270,5726,2,0,L|84:195,1,75,6|2,0:0|0:0,0:0:0:0:
276,169,6357,2,0,L|163:183,1,112.5,6|0,0:0|0:0,0:0:0:0:
84,195,6989,1,8,0:0:0:0:
145,77,7620,6,0,P|168:121|163:185,1,112.5,6|0,0:0|0:0,0:0:0:0:
123,265,8252,2,0,P|149:223|207:195,1,112.5,6|0,0:0|0:0,0:0:0:0:
367,214,8884,5,8,0:0:0:0:
262,263,9042,1,8,0:0:0:0:
282,149,9199,1,8,3:0:0:0:
283,153,9277,1,8,3:0:0:0:
285,157,9356,1,8,3:0:0:0:
367,214,9515,6,0,P|343:220|316:222,1,37.5,12|12,0:3|0:3,0:0:0:0:
282,149,9831,1,8,3:0:0:0:
283,153,9909,1,8,3:0:0:0:
285,157,9988,1,8,3:0:0:0:
412,129,10147,6,0,B|388:355|388:355|374:302,1,281.25,6|0,0:0|0:0,0:0:0:0:
366,290,11410,2,0,B|273:290|273:290|187:316|187:316|79:316,1,281.25,6|0,0:0|0:0,0:0:0:0:
70,316,12673,6,0,L|84:191,1,112.5,6|0,0:0|0:0,0:0:0:0:
150,122,13305,2,0,L|160:211,1,75,6|2,0:0|0:0,0:0:0:0:
212,326,13936,2,0,P|267:290|313:285,1,112.5,6|0,0:0|0:0,0:0:0:0:
396,351,14568,1,8,0:0:0:0:
396,351,14884,1,12,0:3:0:0:
323,173,15199,6,0,L|311:290,1,112.5,6|0,0:0|0:0,0:0:0:0:
233,352,15831,2,0,L|220:269,1,75,6|2,0:0|0:0,0:0:0:0:
199,163,16463,2,0,P|265:187|328:169,1,131.25,6|0,0:0|0:0,0:0:0:0:
332,164,17094,1,8,0:0:0:0:
172,56,17726,5,6,0:0:0:0:
172,56,18042,2,0,P|171:74|168:93,1,37.5,2|2,0:0|0:0,0:0:0:0:
91,185,18357,6,0,P|88:166|87:147,1,37.5,6|2,0:0|0:0,0:0:0:0:
93,63,18673,1,2,0:0:0:0:
247,119,18989,2,0,L|510:102,1,262.5,6|0,0:0|0:0,0:0:0:0:
454,261,20252,5,0,3:0:0:0:
441,187,20410,1,0,3:0:0:0:
376,284,20568,1,0,3:0:0:0:
360,191,20726,1,0,3:0:0:0:
433,335,20884,5,8,3:2:0:0:
301,256,21042,1,0,3:0:0:0:
301,256,21120,1,0,3:0:0:0:
301,256,21199,1,8,3:2:0:0:
454,261,21357,1,8,3:2:0:0:
280,330,21515,6,0,L|179:319,1,75,6|0,0:0|0:0,0:0:0:0:
63,240,21831,1,8,0:0:0:0:
81,343,21989,1,0,0:0:0:0:
159,218,22147,2,0,P|163:174|156:133,1,75,2|0,0:0|0:0,0:0:0:0:
32,56,22463,2,0,P|68:81|107:95,1,75,10|2,0:0|0:0,0:0:0:0:
247,45,22778,6,0,P|241:109|251:170,1,112.5,2|0,0:0|0:0,0:0:0:0:
262,179,23094,2,0,L|356:182,1,75,10|0,0:0|0:0,0:0:0:0:
452,82,23410,2,0,P|428:111|408:165,1,75,2|0,0:0|0:0,0:0:0:0:
511,256,23726,2,0,P|496:220|460:176,1,75,10|0,0:0|0:0,0:0:0:0:
272,254,24042,6,0,L|431:258,1,150,2|10,0:0|0:0,0:0:0:0:
281,344,24515,1,2,0:0:0:0:
262,179,24673,2,0,L|271:253,1,75,2|0,0:0|0:0,0:0:0:0:
402,356,24989,6,0,L|417:191,1,157.499995193482,8|0,0:0|0:0,0:0:0:0:
418,187,25305,6,0,L|319:196,1,75,2|0,0:0|0:0,0:0:0:0:
213,84,25620,2,0,L|287:90,1,75,10|0,0:0|0:0,0:0:0:0:
151,216,25936,1,2,0:0:0:0:
96,73,26094,1,2,0:0:0:0:
96,73,26173,1,0,0:0:0:0:
96,73,26252,2,0,P|131:111|144:161,1,75,14|0,0:0|0:0,0:0:0:0:
18,291,26568,6,0,P|12:226|50:145,1,150,6|8,0:0|0:0,0:0:0:0:
229,258,27042,1,0,0:0:0:0:
59,352,27199,2,0,P|46:316|40:279,1,75,2|0,0:0|0:0,0:0:0:0:
195,164,27515,1,10,0:0:0:0:
135,292,27673,1,2,0:0:0:0:
45,150,27831,6,0,L|210:165,1,150,2|10,0:0|0:0,0:0:0:0:
313,173,28305,1,0,0:0:0:0:
215,321,28463,2,0,L|208:247,1,75,2|0,0:0|0:0,0:0:0:0:
306,98,28778,2,0,P|309:132|312:171,1,75,10|2,0:0|0:0,0:0:0:0:
441,294,29094,6,0,P|472:236|465:146,1,150,2|10,0:0|0:0,0:0:0:0:
237,190,29568,1,0,0:0:0:0:
352,343,29726,2,0,L|341:242,1,75,2|0,0:0|0:0,0:0:0:0:
244,115,30042,2,0,L|233:215,1,75,10|0,0:0|0:0,0:0:0:0:
432,94,30357,5,2,3:2:0:0:
349,109,30515,1,2,3:2:0:0:
364,192,30673,1,2,3:2:0:0:
447,177,30831,1,2,3:2:0:0:
349,109,30989,5,10,3:1:0:0:
301,261,31147,1,0,3:1:0:0:
301,261,31226,1,0,3:1:0:0:
301,261,31305,2,0,P|324:279|380:294,1,78.7499975967408,12|0,3:1|0:0,0:0:0:0:
391,302,31620,6,0,P|302:315|253:362,1,150,6|8,0:0|0:0,0:0:0:0:
466,339,32094,1,0,0:0:0:0:
401,146,32252,2,0,P|389:182|389:235,1,75,2|0,0:0|0:0,0:0:0:0:
258,353,32568,2,0,P|255:315|243:280,1,75,10|2,0:0|0:0,0:0:0:0:
27,317,32884,6,0,P|84:345|188:330,1,150,2|10,0:0|0:0,0:0:0:0:
247,177,33357,1,2,0:0:0:0:
258,353,33515,1,2,0:0:0:0:
119,238,33673,1,0,0:0:0:0:
291,267,33831,2,0,L|436:255,1,112.5,10|0,0:0|0:0,0:0:0:0:
414,255,34147,6,0,P|348:210|343:113,1,150,2|10,0:0|0:0,0:0:0:0:
411,6,34620,1,2,0:0:0:0:
504,160,34778,2,0,P|461:166|406:153,1,75,2|0,0:0|0:0,0:0:0:0:
305,47,35094,6,0,L|289:240,1,157.499995193482,8|0,0:0|0:0,0:0:0:0:
292,214,35410,6,0,P|262:180|231:166,1,75,2|0,0:0|0:0,0:0:0:0:
112,296,35726,2,0,P|156:287|184:267,1,75,10|0,0:0|0:0,0:0:0:0:
142,93,36042,1,2,0:0:0:0:
11,236,36199,1,0,0:0:0:0:
11,236,36278,1,0,0:0:0:0:
11,236,36357,2,0,L|0:145,1,75,14|0,0:0|0:0,0:0:0:0:
121,314,36673,6,0,L|136:156,1,150,6|8,0:0|0:0,0:0:0:0:
149,17,37147,1,0,0:0:0:0:
297,136,37305,2,0,L|213:150,1,75,2|0,0:0|0:0,0:0:0:0:
68,80,37620,2,0,L|152:94,1,75,10|2,0:0|0:0,0:0:0:0:
153,241,37936,6,0,L|139:62,1,150,2|10,0:0|0:0,0:0:0:0:
5,209,38410,1,2,0:0:0:0:
147,315,38568,2,0,L|153:225,1,75,2|0,0:0|0:0,0:0:0:0:
68,80,38884,2,0,L|74:169,1,75,10|0,0:0|0:0,0:0:0:0:
293,191,39199,6,0,P|230:143|155:157,1,150,2|10,0:0|0:0,0:0:0:0:
252,311,39673,1,2,0:0:0:0:
364,171,39831,2,0,P|321:178|279:200,1,75,2|0,0:0|0:0,0:0:0:0:
327,363,40147,2,0,P|342:322|344:274,1,75,10|0,0:0|0:0,0:0:0:0:
208,241,40463,5,2,3:2:0:0:
194,360,40620,1,2,3:2:0:0:
104,206,40778,1,2,3:2:0:0:
118,325,40935,1,2,3:2:0:0:
0,171,41094,1,10,3:1:0:0:
35,312,41252,2,0,L|46:349,2,37.5,0|0|12,3:1|3:1|3:1,0:0:0:0:
148,29,41726,6,0,L|54:37,1,75,6|8,0:0|0:0,0:0:0:0:
206,113,42042,1,0,0:0:0:0:
250,19,42199,1,8,0:0:0:0:
121,113,42357,2,0,P|109:169|113:219,1,75,2|8,0:0|0:0,0:0:0:0:
245,292,42674,1,2,0:0:0:0:
191,208,42831,1,10,0:0:0:0:
59,287,42989,6,0,L|167:291,1,75,2|8,0:0|0:0,0:0:0:0:
296,185,43305,1,0,0:0:0:0:
191,209,43463,1,8,0:0:0:0:
319,337,43620,2,0,P|328:295|318:240,1,75,2|8,0:0|0:0,0:0:0:0:
234,120,43936,1,2,0:0:0:0:
234,120,44015,1,0,0:0:0:0:
234,120,44094,1,10,0:0:0:0:
116,208,44252,6,0,P|155:211|194:209,1,75,6|8,0:0|0:0,0:0:0:0:
303,148,44568,1,0,0:0:0:0:
298,151,44646,1,0,0:0:0:0:
294,154,44725,1,8,0:0:0:0:
120,243,44884,6,0,P|158:236|195:225,1,75,6|8,0:0|0:0,0:0:0:0:
307,143,45199,1,0,0:0:0:0:
303,148,45277,1,0,0:0:0:0:
299,152,45356,1,8,0:0:0:0:
136,279,45515,6,0,P|171:262|205:241,1,75,6|8,0:0|0:0,0:0:0:0:
309,138,45831,1,0,0:0:0:0:
307,143,45909,1,0,0:0:0:0:
305,147,45988,1,8,0:0:0:0:
160,108,46147,1,0,0:0:0:0:
162,113,46225,1,0,0:0:0:0:
164,117,46304,1,8,0:0:0:0:
202,244,46463,2,0,P|208:265|210:293,3,37.5,8|8|8|8,0:3|0:3|0:3|0:3,0:0:0:0:
278,313,46778,6,0,P|284:272|298:234,1,75,6|8,0:0|0:0,0:0:0:0:
395,106,47094,1,0,0:0:0:0:
410,228,47252,1,8,0:0:0:0:
264,164,47410,2,0,P|302:162|343:174,1,75,2|8,0:0|0:0,0:0:0:0:
183,240,47726,1,2,0:0:0:0:
155,128,47884,1,10,0:0:0:0:
259,274,48042,6,0,P|220:312|185:323,1,75,2|8,0:0|0:0,0:0:0:0:
76,223,48357,1,0,0:0:0:0:
183,239,48515,1,8,0:0:0:0:
95,379,48673,2,0,L|84:290,1,75,2|10,0:0|0:0,0:0:0:0:
192,164,48989,2,0,L|181:253,1,75,2|8,0:0|0:0,0:0:0:0:
26,120,49305,6,0,P|82:110|126:121,1,75,6|8,0:0|0:0,0:0:0:0:
201,173,49620,1,0,0:0:0:0:
201,173,49699,1,0,0:0:0:0:
201,173,49778,1,8,0:0:0:0:
4,145,49936,6,0,P|57:126|102:130,1,75,0|8,0:0|0:0,0:0:0:0:
201,173,50251,1,0,0:0:0:0:
201,173,50330,1,0,0:0:0:0:
201,173,50409,1,8,0:0:0:0:
104,310,50568,6,0,P|99:281|102:254,1,56.2500021457673,6|0,0:0|0:0,0:0:0:0:
201,173,50884,2,0,P|178:191|153:202,1,56.2500021457673,10|0,0:0|0:0,0:0:0:0:
64,114,51199,1,2,3:1:0:0:
141,124,51357,1,0,3:0:0:0:
14,45,51515,1,10,0:0:0:0:
91,35,51673,1,8,0:0:0:0:
73,189,51831,6,0,L|64:114,1,75,6|8,0:0|0:0,0:0:0:0:
173,270,52147,2,0,L|168:313,2,37.5,0|0|8,0:0|0:0|0:0,0:0:0:0:
260,157,52463,2,0,P|296:143|334:138,1,75,2|8,0:0|0:0,0:0:0:0:
459,250,52778,1,2,0:0:0:0:
451,138,52936,1,10,0:0:0:0:
316,247,53094,6,0,L|324:321,1,75,2|8,0:0|0:0,0:0:0:0:
344,128,53410,1,0,0:0:0:0:
234,157,53568,1,8,0:0:0:0:
413,201,53726,2,0,P|436:171|450:137,1,75,2|8,0:0|0:0,0:0:0:0:
308,64,54042,2,0,P|322:98|344:128,1,75,2|10,0:0|0:0,0:0:0:0:
492,45,54357,6,0,P|456:37|416:39,1,75,6|8,0:0|0:0,0:0:0:0:
298,66,54673,1,0,0:0:0:0:
303,65,54751,1,0,0:0:0:0:
308,64,54830,1,8,0:0:0:0:
492,59,54989,6,0,P|456:47|416:46,1,75,6|8,0:0|0:0,0:0:0:0:
288,68,55305,1,0,0:0:0:0:
293,67,55383,1,0,0:0:0:0:
298,66,55462,1,8,0:0:0:0:
490,72,55620,6,0,P|455:57|416:52,1,75,6|8,0:0|0:0,0:0:0:0:
278,70,55936,1,0,0:0:0:0:
283,69,56014,1,0,0:0:0:0:
288,68,56093,1,8,0:0:0:0:
406,166,56252,1,0,0:0:0:0:
406,166,56331,1,0,0:0:0:0:
406,166,56410,1,8,0:0:0:0:
415,27,56568,2,0,L|412:89,3,37.5,8|8|8|8,0:3|0:3|0:3|0:3,0:0:0:0:
406,166,56884,6,0,P|371:137|315:124,1,75,6|8,0:0|0:0,0:0:0:0:
183,170,57199,1,0,0:0:0:0:
294,187,57357,1,8,0:0:0:0:
259,28,57515,2,0,L|248:128,1,75,2|8,0:0|0:0,0:0:0:0:
228,265,57831,1,2,0:0:0:0:
294,187,57989,1,10,0:0:0:0:
153,256,58147,6,0,L|253:267,1,75,2|8,0:0|0:0,0:0:0:0:
96,156,58463,1,0,0:0:0:0:
29,243,58620,1,8,0:0:0:0:
182,181,58778,1,2,0:0:0:0:
140,79,58935,1,10,0:0:0:0:
153,256,59094,2,0,L|161:349,1,75,2|8,0:0|0:0,0:0:0:0:
256,140,59410,6,0,L|262:65,1,75,6|8,0:0|0:0,0:0:0:0:
104,162,59726,1,0,0:0:0:0:
104,162,59805,1,0,0:0:0:0:
104,162,59884,1,8,0:0:0:0:
262,214,60042,2,0,L|255:139,1,75,0|8,0:0|0:0,0:0:0:0:
115,277,60358,1,0,0:0:0:0:
115,277,60437,1,0,0:0:0:0:
115,277,60516,1,8,0:0:0:0:
248,330,60673,5,14,0:0:0:0:
248,330,61936,6,0,P|297:309|348:304,1,86.2500016450882,6|0,0:0|0:0,0:0:0:0:
492,340,62252,2,0,P|443:361|392:366,1,86.2500016450882,2|0,0:0|0:0,0:0:0:0:
408,175,62568,1,10,0:0:0:0:
428,269,62726,1,2,0:0:0:0:
338,122,62884,1,2,0:0:0:0:
318,216,63042,1,2,0:0:0:0:
493,166,63199,6,0,L|389:176,1,86.2500016450882,2|0,0:0|0:0,0:0:0:0:
232,224,63515,2,0,L|317:215,1,86.2500016450882,2|0,0:0|0:0,0:0:0:0:
149,130,63831,6,0,P|136:196|160:285,1,150,10|0,0:0|0:0,0:0:0:0:
154,275,64778,6,0,P|111:260|51:262,1,86.2500016450882,2|0,0:0|0:0,0:0:0:0:
208,348,65094,1,10,0:0:0:0:
231,229,65252,1,2,0:0:0:0:
365,342,65410,1,2,0:0:0:0:
342,223,65568,1,2,0:0:0:0:
208,348,65726,6,0,P|257:358|300:357,1,86.2500016450882,2|0,0:0|0:0,0:0:0:0:
146,256,66042,2,0,P|112:293|92:331,1,86.2500016450882,2|0,0:0|0:0,0:0:0:0:
231,229,66357,1,8,3:1:0:0:
250,146,66515,1,0,3:1:0:0:
185,93,66673,1,0,3:1:0:0:
167,174,66831,1,0,3:1:0:0:
336,137,66989,6,0,L|246:146,1,86.2500016450882,6|0,0:0|0:0,0:0:0:0:
121,250,67305,2,0,L|206:258,1,86.2500016450882,2|0,0:0|0:0,0:0:0:0:
40,129,67620,1,10,0:0:0:0:
20,223,67778,1,2,0:0:0:0:
124,83,67936,1,2,0:0:0:0:
144,177,68094,1,2,0:0:0:0:
214,58,68252,6,0,P|254:37|306:30,1,86.2500016450882,2|0,0:0|0:0,0:0:0:0:
351,187,68568,2,0,P|312:162|280:120,1,86.2500016450882,2|0,0:0|0:0,0:0:0:0:
454,42,68884,6,0,L|440:158,1,112.5,10|0,0:0|0:0,0:0:0:0:
422,288,69515,6,0,L|429:226,1,56.2500021457673,2|0,0:0|0:0,0:0:0:0:
331,321,69831,2,0,L|327:259,1,56.2500021457673,0|0,0:0|0:0,0:0:0:0:
250,362,70147,2,0,L|235:301,1,56.2500021457673,8|0,0:0|0:0,0:0:0:0:
183,212,70463,2,0,P|176:251|149:296,1,75,2|2,0:0|0:0,0:0:0:0:
0,214,70778,6,0,L|98:221,1,86.2500016450882,2|0,0:0|0:0,0:0:0:0:
247,276,71094,2,0,L|149:283,1,86.2500016450882,0|0,0:0|0:0,0:0:0:0:
318,205,71410,1,10,0:0:0:0:
348,287,71568,1,2,0:0:0:0:
276,359,71726,1,2,0:0:0:0:
247,276,71884,1,0,0:0:0:0:
427,258,72042,6,0,P|388:279|345:287,1,86.2500016450882,6|0,0:0|0:0,0:0:0:0:
252,150,72357,2,0,P|289:173|318:206,1,86.2500016450882,2|0,0:0|0:0,0:0:0:0:
210,358,72673,1,10,0:0:0:0:
225,258,72831,1,2,0:0:0:0:
358,384,72989,1,2,0:0:0:0:
347,286,73147,1,2,0:0:0:0:
491,324,73305,6,0,P|459:295|438:246,1,86.2500016450882,2|0,0:0|0:0,0:0:0:0:
512,114,73620,2,0,P|502:156|470:198,1,86.2500016450882,2|0,0:0|0:0,0:0:0:0:
283,139,73936,6,0,P|354:129|400:184,1,150,10|0,0:0|0:0,0:0:0:0:
399,184,74884,6,0,L|403:92,1,86.2500016450882,2|0,0:0|0:0,0:0:0:0:
290,235,75199,1,10,0:0:0:0:
282,138,75357,1,2,0:0:0:0:
375,281,75515,1,2,0:0:0:0:
399,184,75673,1,2,0:0:0:0:
219,286,75831,6,0,P|256:315|298:324,1,86.2500016450882,2|0,0:0|0:0,0:0:0:0:
202,185,76147,2,0,P|157:203|128:234,1,86.2500016450882,2|0,0:0|0:0,0:0:0:0:
15,355,76463,1,8,3:1:0:0:
3,279,76621,1,0,3:1:0:0:
99,380,76778,1,0,3:1:0:0:
111,300,76936,1,0,3:1:0:0:
265,340,77094,6,0,P|217:354|151:348,1,86.2500016450882,6|0,0:0|0:0,0:0:0:0:
310,189,77410,2,0,L|321:285,1,86.2500016450882,2|0,0:0|0:0,0:0:0:0:
440,342,77726,1,10,0:0:0:0:
452,256,77884,1,2,0:0:0:0:
333,372,78042,1,2,0:0:0:0:
319,274,78200,1,2,0:0:0:0:
440,342,78357,6,0,L|457:229,1,86.2500016450882,2|0,0:0|0:0,0:0:0:0:
310,189,78673,2,0,L|321:285,1,86.2500016450882,2|0,0:0|0:0,0:0:0:0:
466,145,78989,6,0,P|413:121|356:136,1,112.5,10|0,0:0|0:0,0:0:0:0:
398,256,79620,6,0,L|407:194,1,56.2500021457673,2|0,0:0|0:0,0:0:0:0:
302,286,79936,2,0,L|293:230,1,56.2500021457673,0|0,0:0|0:0,0:0:0:0:
202,319,80252,2,0,L|211:264,1,56.2500021457673,8|0,0:0|0:0,0:0:0:0:
249,108,80568,2,0,P|253:144|225:202,1,75,2|2,0:0|0:0,0:0:0:0:
88,157,80884,6,0,L|157:166,1,56.2500021457673,6|0,0:0|0:0,0:0:0:0:
241,180,81199,1,2,0:0:0:0:
0,208,81515,1,14,0:0:0:0:
252,332,81831,1,8,0:0:0:0:
227,197,81989,1,8,0:0:0:0:
102,323,82147,6,0,L|252:331,1,150,6|8,0:0|0:0,0:0:0:0:
388,306,82620,1,0,0:0:0:0:
300,187,82778,2,0,P|294:224|307:278,1,75,2|0,0:0|0:0,0:0:0:0:
387,379,83094,2,0,P|393:342|380:288,1,75,10|2,0:0|0:0,0:0:0:0:
196,233,83410,6,0,P|248:262|313:255,1,112.5,2|0,0:0|0:0,0:0:0:0:
313,251,83726,2,0,L|323:159,1,75,10|2,0:0|0:0,0:0:0:0:
223,52,84042,2,0,P|249:82|297:106,1,75,2|0,0:0|0:0,0:0:0:0:
437,83,84357,2,0,P|397:90|352:120,1,75,10|0,0:0|0:0,0:0:0:0:
501,252,84673,6,0,L|513:76,1,150,2|10,0:0|0:0,0:0:0:0:
392,262,85147,1,2,0:0:0:0:
367,107,85305,2,0,L|381:187,1,75,2|0,0:0|0:0,0:0:0:0:
334,321,85620,6,0,P|247:283|166:322,1,157.499995193482,8|0,0:0|0:0,0:0:0:0:
182,310,85936,6,0,P|187:267|183:230,1,75,2|0,0:0|0:0,0:0:0:0:
142,80,86252,2,0,P|136:122|141:160,1,75,10|0,0:0|0:0,0:0:0:0:
266,244,86568,1,2,0:0:0:0:
99,226,86726,1,0,0:0:0:0:
99,226,86805,1,0,0:0:0:0:
99,226,86884,2,0,L|197:236,1,75,14|0,0:0|0:0,0:0:0:0:
372,149,87199,6,0,L|204:158,1,150,6|8,0:0|0:0,0:0:0:0:
412,236,87673,1,0,0:0:0:0:
404,82,87831,2,0,P|376:128|371:175,1,75,2|0,0:0|0:0,0:0:0:0:
453,297,88147,2,0,P|427:249|388:221,1,75,10|2,0:0|0:0,0:0:0:0:
206,299,88463,6,0,L|389:305,1,150,2|10,0:0|0:0,0:0:0:0:
125,232,88936,1,2,0:0:0:0:
195,373,89094,2,0,P|204:336|206:299,1,75,2|0,0:0|0:0,0:0:0:0:
199,133,89410,2,0,P|200:170|210:206,1,75,10|0,0:0|0:0,0:0:0:0:
417,87,89726,6,0,L|267:82,1,150,2|10,0:0|0:0,0:0:0:0:
406,173,90199,1,2,0:0:0:0:
425,12,90357,2,0,L|414:106,1,75,2|0,0:0|0:0,0:0:0:0:
499,230,90673,2,0,L|488:136,1,75,10|0,0:0|0:0,0:0:0:0:
310,154,90989,5,2,3:2:0:0:
285,229,91147,1,2,3:2:0:0:
360,254,91305,1,2,3:2:0:0:
384,178,91463,1,2,3:2:0:0:
210,206,91620,5,10,3:1:0:0:
338,333,91778,1,0,3:1:0:0:
338,333,91857,1,0,3:1:0:0:
338,333,91936,2,0,P|386:329|421:305,1,78.7499975967408,12|0,3:1|0:0,0:0:0:0:
427,300,92252,6,0,L|417:140,1,150,6|8,0:0|0:0,0:0:0:0:
407,12,92726,1,0,0:0:0:0:
488,127,92884,2,0,P|453:141|417:149,1,75,2|0,0:0|0:0,0:0:0:0:
283,73,93199,2,0,P|312:96|337:123,1,75,10|2,0:0|0:0,0:0:0:0:
242,301,93515,6,0,P|222:237|256:147,1,150,2|10,0:0|0:0,0:0:0:0:
348,234,93989,1,2,0:0:0:0:
249,376,94147,2,0,P|222:343|208:303,1,75,2|0,0:0|0:0,0:0:0:0:
245,159,94463,2,0,P|230:198|202:230,1,75,10|0,0:0|0:0,0:0:0:0:
60,306,94778,6,0,L|220:313,1,150,2|10,0:0|0:0,0:0:0:0:
386,320,95252,1,2,0:0:0:0:
293,175,95410,2,0,P|281:214|281:258,1,75,2|0,0:0|0:0,0:0:0:0:
493,238,95726,6,0,P|413:195|372:252,1,157.499995193482,8|0,0:0|0:0,0:0:0:0:
372,243,96042,6,0,L|365:69,1,150,2|10,0:0|0:0,0:0:0:0:
220,239,96515,1,0,0:0:0:0:
233,123,96673,1,2,0:0:0:0:
382,253,96831,1,0,0:0:0:0:
382,253,96910,1,0,0:0:0:0:
382,253,96989,2,0,P|342:259|294:256,1,75,14|0,0:0|0:0,0:0:0:0:
130,162,97305,6,0,L|144:321,1,150,6|8,0:0|0:0,0:0:0:0:
233,123,97778,1,0,0:0:0:0:
55,155,97936,2,0,L|149:163,1,75,2|0,0:0|0:0,0:0:0:0:
307,116,98252,2,0,L|213:124,1,75,10|2,0:0|0:0,0:0:0:0:
393,232,98568,6,0,L|409:82,1,150,2|10,0:0|0:0,0:0:0:0:
281,220,99042,1,2,0:0:0:0:
433,293,99199,2,0,P|412:253|377:219,1,75,2|0,0:0|0:0,0:0:0:0:
256,317,99515,2,0,P|301:319|347:306,1,75,8|0,0:0|0:0,0:0:0:0:
170,189,99831,6,0,L|151:337,1,150,2|10,0:0|0:0,0:0:0:0:
89,149,100305,1,2,0:0:0:0:
244,181,100463,2,0,P|204:188|167:188,1,75,2|0,0:0|0:0,0:0:0:0:
38,82,100778,2,0,P|78:75|115:75,1,75,10|0,0:0|0:0,0:0:0:0:
263,102,101094,5,2,3:2:0:0:
174,115,101252,1,2,3:2:0:0:
205,28,101410,1,2,3:2:0:0:
293,14,101568,1,2,3:2:0:0:
174,115,101726,5,10,3:1:0:0:
38,62,101884,1,0,3:1:0:0:
38,62,101963,1,0,3:1:0:0:
38,62,102042,2,0,P|76:65|119:77,1,75,12|0,3:1|0:0,0:0:0:0:
145,192,102357,6,0,L|148:229,3,37.5,6|2|2|2,0:0|0:0|0:0|0:0,0:0:0:0:
203,311,102989,2,0,P|242:295|281:295,1,75,2|0,0:0|0:0,0:0:0:0:
368,265,103463,1,2,0:0:0:0:
368,265,103620,2,0,P|435:312|497:205,1,225,2|0,0:0|0:0,0:0:0:0:
327,160,104884,6,0,P|324:176|324:197,3,37.5,2|2|2|2,0:0|0:0|0:0|0:0,0:0:0:0:
369,268,105515,1,2,0:0:0:0:
397,21,105831,1,2,0:0:0:0:
397,21,105989,1,2,0:0:0:0:
397,21,106147,2,0,L|359:16,1,37.5,2|0,0:0|0:0,0:0:0:0:
465,67,106463,2,0,L|503:62,1,37.5,2|2,0:0|0:0,0:0:0:0:
391,104,106779,2,0,L|307:93,1,75,2|0,0:0|0:0,0:0:0:0:
312,217,107410,6,0,L|260:222,3,37.5,2|2|2|2,0:0|0:0|0:0|0:0,0:0:0:0:
202,184,108042,2,0,P|201:137|207:104,1,75,2|0,0:0|0:0,0:0:0:0:
243,5,108515,1,2,0:0:0:0:
130,72,108673,6,0,P|112:72|77:67,1,44.999998626709,0|0,3:0|3:0,0:0:0:0:
205,109,108989,2,0,P|227:108|249:105,1,44.999998626709,0|0,3:0|3:0,0:0:0:0:
107,159,109305,2,0,P|86:155|45:142,1,60,0|0,3:0|3:0,0:0:0:0:
220,198,109621,2,0,P|239:194|279:181,1,60,0|0,3:0|3:0,0:0:0:0:
389,93,109936,5,2,3:2:0:0:
389,93,110015,1,0,3:0:0:0:
389,93,110094,1,0,3:0:0:0:
408,225,110252,1,2,3:2:0:0:
315,114,110410,1,2,3:2:0:0:
470,182,110568,2,0,P|483:219|475:263,1,75,2|0,3:2|3:0,0:0:0:0:
276,288,110884,1,2,3:2:0:0:
408,225,111042,1,2,3:2:0:0:
361,373,111199,6,0,L|352:273,1,75,2|0,3:2|3:0,0:0:0:0:
333,111,111515,1,2,3:2:0:0:
408,225,111673,1,2,3:2:0:0:
224,98,111831,1,10,1:2:0:0:
224,98,112463,6,0,L|340:107,1,93.75,6|8,0:0|0:0,0:0:0:0:
504,82,112778,1,2,0:0:0:0:
363,26,112936,1,10,0:0:0:0:
493,173,113094,2,0,P|506:123|501:70,1,93.75,2|8,0:0|0:0,0:0:0:0:
391,257,113410,1,0,0:0:0:0:
316,105,113568,1,10,0:0:0:0:
198,211,113726,6,0,P|250:213|291:203,1,93.75,2|8,0:0|0:0,0:0:0:0:
132,108,114042,1,0,0:0:0:0:
108,252,114199,1,8,0:0:0:0:
98,176,114357,1,0,0:0:0:0:
186,305,114515,1,8,0:0:0:0:
196,227,114673,1,0,0:0:0:0:
130,365,114831,1,8,0:0:0:0:
18,227,114989,6,0,P|60:231|113:255,1,93.75,6|8,0:0|0:0,0:0:0:0:
210,383,115305,1,2,0:0:0:0:
268,193,115463,1,10,0:0:0:0:
400,324,115620,2,0,P|351:338|306:335,1,93.75,2|8,0:0|0:0,0:0:0:0:
423,190,115936,1,2,0:0:0:0:
480,370,116094,1,10,0:0:0:0:
344,247,116252,6,0,L|347:144,1,93.75,2|8,0:0|0:0,0:0:0:0:
492,14,116568,2,0,L|495:117,1,93.75,2|8,0:0|0:0,0:0:0:0:
278,92,116884,2,0,P|317:67|372:66,1,93.75,2|8,0:0|0:0,0:0:0:0:
512,197,117199,1,8,0:3:0:0:
512,197,117278,1,8,0:3:0:0:
512,197,117357,1,8,0:3:0:0:
512,197,117436,1,8,0:3:0:0:
512,197,117515,6,0,L|404:203,1,93.75,6|8,0:0|0:0,0:0:0:0:
266,181,117831,1,2,0:0:0:0:
414,126,117989,1,10,0:0:0:0:
283,272,118147,2,0,P|268:219|266:168,1,93.75,2|8,0:0|0:0,0:0:0:0:
394,294,118463,1,0,0:0:0:0:
217,343,118620,1,10,0:0:0:0:
376,202,118778,6,0,P|391:255|393:306,1,93.75,2|8,0:0|0:0,0:0:0:0:
265,180,119094,1,0,0:0:0:0:
423,124,119252,1,8,0:0:0:0:
376,202,119410,1,0,0:0:0:0:
320,38,119568,1,8,0:0:0:0:
399,56,119726,1,0,0:0:0:0:
250,107,119884,1,8,0:0:0:0:
136,12,120042,6,0,P|154:57|155:118,1,93.75,2|8,0:0|0:0,0:0:0:0:
74,255,120357,1,2,0:0:0:0:
28,82,120515,1,10,0:0:0:0:
159,183,120673,2,0,P|209:191|257:186,1,93.75,2|8,0:0|0:0,0:0:0:0:
382,136,120989,1,2,0:0:0:0:
212,99,121147,1,10,0:0:0:0:
244,261,121305,6,0,P|251:211|250:164,1,75,2|8,0:0|0:0,0:0:0:0:
101,295,121620,1,2,0:0:0:0:
189,354,121778,1,10,0:0:0:0:
174,280,121936,5,2,3:1:0:0:
101,295,122094,1,0,3:0:0:0:
262,339,122252,1,8,0:0:0:0:
243,172,122410,1,8,0:0:0:0:
101,295,122568,6,0,P|140:305|217:285,1,93.75,6|8,0:0|0:0,0:0:0:0:
34,182,122884,1,2,0:0:0:0:
13,355,123042,1,10,0:0:0:0:
149,223,123199,2,0,P|158:168|150:121,1,93.75,2|8,0:0|0:0,0:0:0:0:
61,17,123515,1,0,0:0:0:0:
34,182,123673,1,10,0:0:0:0:
243,113,123831,6,0,P|197:115|152:130,1,93.75,2|8,0:0|0:0,0:0:0:0:
318,229,124147,1,0,0:0:0:0:
334,79,124305,1,8,0:0:0:0:
431,195,124463,1,0,0:0:0:0:
415,45,124621,1,8,0:0:0:0:
326,154,124778,1,0,0:0:0:0:
342,5,124936,1,8,0:0:0:0:
488,91,125094,6,0,P|445:113|397:122,1,93.75,6|8,0:0|0:0,0:0:0:0:
250,106,125410,1,2,0:0:0:0:
425,29,125568,1,10,0:0:0:0:
419,214,125726,2,0,P|404:171|403:113,1,93.75,2|8,0:0|0:0,0:0:0:0:
485,284,126042,1,2,0:0:0:0:
356,384,126200,1,10,0:0:0:0:
210,298,126357,6,0,L|319:308,1,93.75,2|8,0:0|0:0,0:0:0:0:
485,284,126673,2,0,L|376:294,1,93.75,2|8,0:0|0:0,0:0:0:0:
203,311,126989,2,0,L|312:321,1,93.75,2|8,0:0|0:0,0:0:0:0:
168,155,127305,1,8,0:3:0:0:
168,155,127384,1,8,0:3:0:0:
168,155,127463,1,8,0:3:0:0:
168,155,127542,1,8,0:3:0:0:
168,155,127620,6,0,P|152:210|154:261,1,93.75,6|8,0:0|0:0,0:0:0:0:
195,382,127936,1,2,0:0:0:0:
252,214,128094,1,10,0:0:0:0:
58,240,128252,2,0,L|164:246,1,93.75,2|8,0:0|0:0,0:0:0:0:
332,195,128568,1,0,0:0:0:0:
168,155,128726,1,10,0:0:0:0:
317,287,128884,6,0,P|329:226|331:178,1,93.75,2|8,0:0|0:0,0:0:0:0:
259,69,129199,1,0,0:0:0:0:
233,224,129357,1,8,0:0:0:0:
171,132,129515,1,0,0:0:0:0:
186,288,129673,1,8,0:0:0:0:
103,215,129831,1,0,0:0:0:0:
157,362,129989,1,8,0:0:0:0:
233,224,130147,6,0,P|278:214|325:211,1,93.75,2|8,0:0|0:0,0:0:0:0:
464,258,130463,1,2,0:0:0:0:
290,304,130620,1,10,0:0:0:0:
334,99,130778,2,0,P|347:141|353:193,1,93.75,2|8,0:0|0:0,0:0:0:0:
223,353,131094,1,2,0:0:0:0:
233,224,131252,1,10,0:0:0:0:
383,295,131410,6,0,L|289:303,1,93.75,2|8,0:0|0:0,0:0:0:0:
132,318,131726,1,2,0:0:0:0:
314,381,131884,1,10,0:0:0:0:
313,213,132042,2,0,P|296:256|288:303,1,93.75,2|0,3:1|3:0,0:0:0:0:
443,164,132357,1,8,0:0:0:0:
241,112,132515,1,8,0:0:0:0:
421,235,132673,6,0,P|441:174|443:139,1,75,6|0,0:2|0:2,0:0:0:0:
367,8,132989,2,0,L|374:99,1,75,10|2,0:2|0:2,0:0:0:0:
247,179,133305,1,2,0:2:0:0:
253,85,133463,1,2,0:2:0:0:
178,225,133620,1,10,0:2:0:0:
172,131,133778,1,2,0:2:0:0:
250,259,133936,6,0,L|241:337,1,75,2|0,0:2|0:2,0:0:0:0:
100,147,134252,2,0,P|139:131|174:131,1,75,8|0,0:2|0:2,0:0:0:0:
321,182,134568,2,0,L|230:178,1,75,2|0,0:2|0:2,0:0:0:0:
110,18,134884,2,0,P|145:30|174:54,1,75,8|0,0:2|0:2,0:0:0:0:
168,205,135199,6,0,L|172:114,1,75,2|0,0:2|0:2,0:0:0:0:
322,20,135515,2,0,L|326:111,1,75,10|2,0:2|0:2,0:0:0:0:
247,228,135831,1,2,0:2:0:0:
250,128,135989,1,2,0:2:0:0:
326,272,136147,1,10,0:2:0:0:
323,172,136305,1,2,0:2:0:0:
250,310,136463,6,0,P|284:348|356:353,1,112.5,2|0,0:2|0:0,0:0:0:0:
356,352,136778,1,10,0:2:0:0:
416,190,136936,1,2,0:2:0:0:
250,310,137094,2,0,L|151:304,1,75,12|0,0:0|0:2,0:0:0:0:
58,202,137410,1,8,0:2:0:0:
58,211,137488,1,0,0:2:0:0:
59,220,137567,1,0,0:2:0:0:
60,230,137646,1,0,0:2:0:0:
61,240,137726,6,0,P|72:202|74:148,1,75,6|0,0:2|0:2,0:0:0:0:
184,28,138042,2,0,P|187:65|198:101,1,75,10|2,0:2|0:2,0:0:0:0:
304,224,138357,1,2,0:2:0:0:
372,157,138515,1,2,0:2:0:0:
221,229,138673,1,10,0:2:0:0:
384,270,138831,1,2,0:2:0:0:
311,71,138989,6,0,L|296:156,1,75,2|0,0:2|0:2,0:0:0:0:
234,302,139305,2,0,L|219:217,1,75,10|0,0:2|0:2,0:0:0:0:
198,101,139620,1,2,0:2:0:0:
0,283,139936,6,0,L|15:145,1,112.5,10|0,0:2|0:2,0:0:0:0:
13,138,140252,6,0,P|30:171|57:196,1,75,2|0,0:2|0:2,0:0:0:0:
198,101,140568,2,0,P|150:101|107:120,1,75,10|2,0:2|0:2,0:0:0:0:
251,206,140884,1,2,0:2:0:0:
298,129,141042,1,2,0:2:0:0:
171,187,141199,1,10,0:2:0:0:
271,282,141357,1,2,0:2:0:0:
369,147,141515,6,0,P|335:132|273:133,1,75,2|0,0:2|0:2,0:0:0:0:
397,235,141831,1,10,0:2:0:0:
437,100,141989,1,2,0:2:0:0:
314,207,142147,1,12,0:0:0:0:
267,59,142305,1,0,0:2:0:0:
267,59,142384,1,0,0:2:0:0:
267,59,142463,2,0,P|282:91|299:133,1,75,12|0,0:0|0:2,2:0:0:0:
145,258,142778,6,0,P|159:223|175:189,1,75,6|0,0:2|0:2,2:0:0:0:
286,365,143094,1,10,0:2:0:0:
261,263,143252,1,2,0:2:0:0:
119,349,143410,2,0,P|153:349|193:338,1,75,2|2,0:2|0:2,0:0:0:0:
334,252,143726,2,0,P|300:252|259:262,1,75,10|2,0:2|0:2,0:0:0:0:
477,354,144042,6,0,L|484:265,1,75,2|0,0:2|0:2,2:0:0:0:
410,135,144357,1,10,0:2:0:0:
419,232,144515,1,0,0:2:0:0:
498,96,144673,2,0,L|491:7,1,75,2|0,0:2|0:2,2:0:0:0:
337,127,144989,2,0,P|375:137|421:133,1,75,8|0,0:2|0:2,2:0:0:0:
254,15,145305,6,0,L|248:89,1,75,2|0,0:2|0:2,2:0:0:0:
123,217,145620,1,10,0:2:0:0:
115,123,145778,1,2,0:2:0:0:
274,180,145936,2,0,P|236:178|199:170,1,75,2|2,0:2|0:2,0:0:0:0:
358,142,146252,1,10,0:2:0:0:
350,236,146410,1,2,0:2:0:0:
244,98,146568,6,0,L|235:7,1,75,2|0,0:2|0:2,0:0:0:0:
358,142,146884,1,10,0:2:0:0:
375,2,147042,1,2,0:2:0:0:
255,173,147199,2,0,L|262:247,1,75,12|0,0:0|0:2,0:0:0:0:
443,298,147515,1,8,0:3:0:0:
433,299,147593,1,8,0:3:0:0:
424,300,147672,1,8,0:3:0:0:
415,300,147751,1,8,0:3:0:0:
406,300,147831,6,0,L|311:304,1,75,6|0,0:2|0:2,0:0:0:0:
142,315,148147,1,10,0:2:0:0:
266,358,148305,1,2,0:2:0:0:
254,159,148463,2,0,P|239:203|236:256,1,75,2|2,0:2|0:2,0:0:0:0:
371,380,148778,1,10,0:2:0:0:
397,220,148935,1,2,0:2:0:0:
235,231,149094,6,0,L|342:241,1,75,2|0,0:2|0:2,0:0:0:0:
473,180,149410,1,10,0:2:0:0:
349,151,149568,1,0,0:2:0:0:
383,291,149726,2,0,P|396:256|396:219,1,75,2|0,0:2|0:2,0:0:0:0:
325,73,150042,1,8,0:2:0:0:
288,213,150199,1,0,0:2:0:0:
166,125,150357,6,0,P|206:117|253:120,1,75,2|0,0:2|0:2,0:0:0:0:
100,236,150673,1,10,0:2:0:0:
80,81,150830,1,2,0:2:0:0:
205,203,150989,2,0,P|208:240|198:287,1,75,2|2,0:2|0:2,0:0:0:0:
44,170,151305,1,10,0:2:0:0:
240,117,151463,1,0,0:2:0:0:
240,117,151542,1,0,0:2:0:0:
240,117,151620,6,0,P|200:125|153:122,1,75,2|0,0:2|0:2,0:0:0:0:
5,88,151936,2,0,P|45:80|92:83,1,75,10|2,0:2|0:2,0:0:0:0:
205,203,152252,1,12,0:0:0:0:
253,40,152410,1,0,0:0:0:0:
253,40,152489,1,0,0:0:0:0:
253,40,152568,1,12,0:0:0:0:
141,273,152884,5,12,0:0:0:0:
141,273,157936,5,0,3:1:0:0:
190,158,158094,2,0,L|181:104,2,37.5,0|0|0,3:1|3:1|3:1,0:0:0:0:
223,293,158410,2,0,L|214:347,2,37.5,0|0|0,3:1|3:1|3:1,0:0:0:0:
269,144,158726,2,0,L|260:90,2,37.5,0|0|0,3:1|3:1|3:1,0:0:0:0:
337,267,159041,1,0,3:1:0:0:
337,267,159120,1,0,3:1:0:0:
337,267,159199,6,0,P|382:276|423:267,1,75,2|2,3:1|3:1,0:0:0:0:
494,169,159515,1,2,3:1:0:0:
503,277,159673,2,0,L|507:319,2,37.5,2|0|0,3:1|3:1|3:1,0:0:0:0:
380,178,159989,2,0,L|384:136,1,37.5,2|0,3:1|3:1,0:0:0:0:
490,57,160147,2,0,P|452:71|391:63,1,75,2|2,3:1|3:1,0:0:0:0:
304,12,160463,5,2,3:1:0:0:
273,166,160620,2,0,L|277:208,2,37.5,2|0|0,3:1|3:1|3:1,0:0:0:0:
216,48,160936,2,0,L|220:6,2,37.5,2|0|0,3:1|3:1|3:1,0:0:0:0:
191,204,161252,2,0,L|195:246,2,37.5,2|0|0,3:1|3:1|3:1,0:0:0:0:
152,103,161568,2,0,P|136:87|115:75,1,37.5,2|0,3:1|3:1,0:0:0:0:
47,74,161726,5,2,3:1:0:0:
228,132,161884,2,0,P|249:137|274:137,2,37.5,2|0|0,3:1|3:1|3:1,0:0:0:0:
85,154,162199,2,0,P|63:159|42:172,2,37.5,2|0|0,3:1|3:1|3:1,0:0:0:0:
222,57,162515,2,0,P|240:43|255:24,1,37.5,2|0,3:1|3:1,0:0:0:0:
273,0,162673,2,0,P|284:40|307:78,1,75,2|0,3:1|3:3,0:0:0:0:
399,197,162989,5,0,3:1:0:0:
430,55,163147,2,0,L|437:13,2,37.5,0|0|0,3:1|3:1|3:1,0:0:0:0:
322,194,163463,2,0,L|329:236,2,37.5,0|0|0,3:1|3:1|3:1,0:0:0:0:
237,60,163778,2,0,L|244:18,2,37.5,0|0|0,3:1|3:1|3:1,0:0:0:0:
177,189,164094,1,0,3:1:0:0:
177,189,164173,1,0,3:1:0:0:
177,189,164252,6,0,P|132:198|91:189,1,75,2|2,3:1|3:1,0:0:0:0:
11,101,164568,1,2,3:1:0:0:
27,245,164726,2,0,L|31:287,2,37.5,2|0|0,3:1|3:1|3:1,0:0:0:0:
136,78,165042,2,0,L|132:115,1,37.5,2|0,3:1|3:1,0:0:0:0:
177,189,165200,2,0,P|211:175|249:174,1,75,2|2,3:1|3:1,0:0:0:0:
363,230,165516,5,2,3:1:0:0:
376,104,165673,2,0,L|381:56,2,37.5,2|0|0,3:1|3:1|3:1,0:0:0:0:
290,234,165989,2,0,L|295:282,2,37.5,2|0|0,3:1|3:1|3:1,0:0:0:0:
250,98,166305,2,0,L|255:50,2,37.5,2|0|0,3:1|3:1|3:1,0:0:0:0:
163,202,166620,2,0,P|142:211|118:214,1,37.5,2|0,3:1|3:1,0:0:0:0:
54,191,166778,5,2,3:1:0:0:
244,202,166936,2,0,P|265:204|288:213,2,37.5,0|0|2,3:1|3:1|3:1,0:0:0:0:
118,130,167252,2,0,P|99:117|84:97,2,37.5,2|0|0,3:1|0:0|3:1,0:0:0:0:
211,270,167568,2,0,P|222:289|229:312,1,37.5,0|0,3:1|3:1,0:0:0:0:
239,341,167726,2,0,P|263:307|298:280,1,75,2|2,3:1|3:1,0:0:0:0:
416,317,168042,5,10,3:1:0:0:
472,193,168199,2,0,L|478:145,2,44.999998626709,0|0|0,3:1|3:1|3:1,0:0:0:0:
410,330,168515,2,0,L|416:378,2,44.999998626709,0|0|8,3:1|3:1|3:1,0:0:0:0:
342,177,168831,2,0,L|348:129,2,44.999998626709,0|0|0,3:1|3:1|3:1,0:0:0:0:
274,314,169147,2,0,P|252:325|226:330,1,44.999998626709,0|0,3:1|0:0,0:0:0:0:
150,315,169305,6,0,L|139:218,1,89.9999972534181,10|2,3:1|3:1,0:0:0:0:
147,145,169542,2,0,L|154:214,1,44.999998626709,0|0,3:1|3:1,0:0:0:0:
337,297,169778,1,2,3:1:0:0:
337,297,169857,1,0,3:1:0:0:
337,297,169936,2,0,L|348:200,1,89.9999972534181,8|2,3:1|3:1,0:0:0:0:
347,130,170173,2,0,L|339:199,1,44.999998626709,0|0,3:1|3:1,0:0:0:0:
253,349,170410,2,0,L|245:280,1,44.999998626709,2|0,3:1|3:1,0:0:0:0:
227,174,170568,5,10,3:1:0:0:
352,218,170726,2,0,P|375:215|409:207,2,44.999998626709,2|0|0,3:1|3:1|3:1,0:0:0:0:
179,242,171042,1,2,3:1:0:0:
179,242,171120,1,0,3:1:0:0:
179,242,171199,2,0,P|154:200|148:143,1,89.9999972534181,8|2,3:1|3:1,0:0:0:0:
201,38,171436,1,0,3:1:0:0:
201,38,171515,2,0,P|197:71|183:103,1,44.999998626709,0|0,3:1|3:1,0:0:0:0:
63,165,171673,2,0,P|66:131|80:99,1,44.999998626709,2|0,3:1|3:1,0:0:0:0:
179,242,171831,5,10,3:1:0:0:
288,137,171989,2,0,L|296:57,2,44.999998626709,2|0|0,3:1|3:1|3:1,0:0:0:0:
260,278,172305,2,0,L|265:322,2,44.999998626709,2|0|8,3:1|3:1|3:1,0:0:0:0:
201,142,172620,1,2,3:1:0:0:
201,142,172699,1,0,3:1:0:0:
201,142,172778,2,0,P|167:133|136:132,1,44.999998626709,0|0,3:1|0:0,0:0:0:0:
35,217,172936,2,0,P|59:192|76:165,1,44.999998626709,2|0,3:1|0:0,0:0:0:0:
98,40,173094,5,10,3:1:0:0:
155,213,173252,2,0,L|157:280,2,44.999998626709,0|0|8,3:1|3:1|3:1,0:0:0:0:
245,60,173568,2,0,L|247:-7,2,44.999998626709,0|0|8,3:1|3:1|3:1,0:0:0:0:
312,235,173884,2,0,L|314:302,2,44.999998626709,0|0|8,3:1|3:1|3:1,0:0:0:0:
397,87,174199,2,0,P|425:75|453:71,1,44.999998626709,0|0,3:1|3:1,0:0:0:0:
505,119,174357,6,0,L|499:212,1,89.9999972534181,10|0,3:1|3:1,0:0:0:0:
439,248,174594,1,0,3:1:0:0:
439,248,174673,2,0,L|448:344,1,89.9999972534181,10|0,3:1|3:1,0:0:0:0:
384,370,174910,1,0,3:1:0:0:
384,370,174989,2,0,P|339:344|276:344,1,89.9999972534181,10|2,3:1|3:1,0:0:0:0:
240,300,175226,1,0,3:1:0:0:
240,300,175305,2,0,P|195:326|132:326,1,89.9999972534181,10|0,3:1|3:1,0:0:0:0:
84,317,175542,1,0,0:0:0:0:
84,317,175620,5,10,3:1:0:0:
56,151,175778,2,0,L|47:94,2,44.999998626709,0|0|10,3:1|3:1|3:1,0:0:0:0:
157,330,176094,2,0,L|148:387,2,44.999998626709,0|0|10,3:1|3:1|3:1,0:0:0:0:
188,133,176410,2,0,L|179:76,2,44.999998626709,0|0|10,3:1|3:1|3:1,0:0:0:0:
284,309,176726,2,0,P|313:319|352:323,1,44.999998626709,0|0,3:1|0:0,0:0:0:0:
413,312,176884,5,10,3:1:0:0:
231,231,177042,2,0,L|176:239,2,44.999998626709,0|0|10,3:1|3:1|3:1,0:0:0:0:
415,165,177357,1,2,3:1:0:0:
415,165,177436,1,0,0:0:0:0:
415,165,177515,6,0,P|437:101|432:20,1,127.50000243187,14|0,3:1|3:1,0:0:0:0:
192,96,177831,1,8,3:0:0:0:
205,96,177910,1,8,3:0:0:0:
220,98,177989,1,8,3:0:0:0:
233,100,178068,1,8,3:0:0:0:
247,100,178147,6,0,L|355:112,1,104.999996795654,6|8,0:0|0:0,0:0:0:0:
121,24,178463,2,0,P|97:75|109:161,1,104.999996795654,2|8,0:0|0:0,0:0:0:0:
178,289,178778,1,2,0:0:0:0:
161,167,178936,1,10,0:0:0:0:
38,330,179094,1,2,0:0:0:0:
44,212,179252,1,10,0:0:0:0:
250,364,179410,6,0,P|201:375|138:366,1,104.999996795654,2|8,0:0|0:0,0:0:0:0:
309,230,179726,1,0,0:0:0:0:
340,374,179883,1,8,0:0:0:0:
232,275,180042,1,0,0:0:0:0:
422,322,180199,1,8,0:0:0:0:
422,322,180278,1,2,0:0:0:0:
422,322,180357,1,0,0:0:0:0:
250,364,180515,1,10,0:0:0:0:
329,249,180673,6,0,P|336:199|333:144,1,104.999996795654,2|8,0:0|0:0,0:0:0:0:
142,117,180989,2,0,P|181:148|230:172,1,104.999996795654,2|8,0:0|0:0,0:0:0:0:
397,55,181305,1,2,0:0:0:0:
234,87,181463,1,10,0:0:0:0:
422,132,181620,1,2,0:0:0:0:
300,39,181778,1,10,0:0:0:0:
329,249,181936,6,0,L|315:140,1,104.999996795654,6|8,0:0|0:0,0:0:0:0:
145,245,182252,1,2,0:0:0:0:
238,314,182410,1,10,0:0:0:0:
158,140,182568,2,0,L|144:249,1,104.999996795654,6|8,0:0|0:0,0:0:0:0:
315,144,182884,1,8,0:3:0:0:
306,144,182962,1,8,0:3:0:0:
297,146,183041,1,8,0:3:0:0:
288,147,183120,1,8,0:3:0:0:
278,148,183199,6,0,P|227:155|161:158,1,104.999996795654,6|8,0:0|0:0,0:0:0:0:
21,35,183515,2,0,P|77:34|138:45,1,104.999996795654,2|8,0:0|0:0,0:0:0:0:
95,218,183831,1,2,0:0:0:0:
79,124,183989,1,10,0:0:0:0:
183,251,184147,1,2,0:0:0:0:
0,186,184305,1,10,0:0:0:0:
194,146,184463,6,0,L|183:250,1,104.999996795654,2|8,0:0|0:0,0:0:0:0:
46,360,184778,1,0,0:0:0:0:
32,251,184936,1,8,0:0:0:0:
170,380,185094,1,0,0:0:0:0:
182,250,185252,1,8,0:0:0:0:
46,360,185410,1,2,0:0:0:0:
253,308,185568,1,10,0:0:0:0:
177,147,185726,6,0,P|169:192|185:257,1,104.999996795654,2|8,0:0|0:0,0:0:0:0:
352,153,186042,2,0,P|317:123|252:104,1,104.999996795654,0|8,0:0|0:0,0:0:0:0:
253,308,186357,2,0,P|295:292|344:246,1,104.999996795654,0|8,0:0|0:0,0:0:0:0:
354,63,186673,1,2,0:0:0:0:
264,197,186831,1,10,0:0:0:0:
425,142,186989,6,0,P|388:144|351:152,1,75,14|0,0:0|0:0,0:0:0:0:
462,302,187305,1,2,0:0:0:0:
481,210,187463,1,2,0:0:0:0:
347,334,187620,2,0,P|313:338|265:330,1,75,14|0,0:0|0:0,0:0:0:0:
156,222,187936,1,8,0:3:0:0:
155,232,188014,1,8,0:3:0:0:
155,243,188093,1,8,0:3:0:0:
154,253,188172,1,8,0:3:0:0:
153,264,188252,6,0,L|148:382,1,104.999996795654,14|0,0:0|0:0,0:0:0:0:
302,167,188568,2,0,L|307:285,1,104.999996795654,10|0,0:0|0:0,0:0:0:0:
135,82,188884,1,10,0:0:0:0:
127,189,189042,1,2,0:0:0:0:
268,57,189199,1,10,0:0:0:0:
281,183,189357,1,2,0:0:0:0:
36,79,189515,6,0,P|89:78|139:101,1,104.999996795654,10|0,0:0|0:0,0:0:0:0:
41,282,189831,2,0,P|13:236|8:181,1,104.999996795654,8|0,0:0|0:0,0:0:0:0:
213,173,190147,2,0,P|187:219|142:251,1,104.999996795654,8|0,0:0|0:0,0:0:0:0:
217,34,190463,1,10,0:0:0:0:
320,234,190620,1,2,0:0:0:0:
401,87,190778,6,0,L|291:77,1,104.999996795654,10|0,0:0|0:0,0:0:0:0:
438,214,191094,2,0,L|328:224,1,104.999996795654,10|0,0:0|0:0,0:0:0:0:
502,86,191410,2,0,L|392:76,1,104.999996795654,10|0,0:0|0:0,0:0:0:0:
204,133,191726,1,10,0:0:0:0:
333,223,191884,1,2,0:0:0:0:
189,44,192042,6,0,P|184:91|205:163,1,104.999996795654,14|0,0:0|0:0,0:0:0:0:
274,304,192357,1,10,0:0:0:0:
337,134,192515,1,2,0:0:0:0:
145,224,192673,2,0,L|254:228,1,104.999996795654,10|0,0:0|0:0,0:0:0:0:
34,180,192989,1,8,0:1:0:0:
34,180,193068,1,8,0:3:0:0:
34,180,193147,1,8,0:3:0:0:
34,180,193226,1,8,0:3:0:0:
34,180,193305,6,0,L|49:313,1,104.999996795654,14|0,0:0|0:0,0:0:0:0:
189,116,193620,2,0,L|174:249,1,104.999996795654,10|0,0:0|0:0,0:0:0:0:
13,53,193936,1,10,0:0:0:0:
34,180,194094,1,2,0:0:0:0:
180,15,194252,1,10,0:0:0:0:
166,147,194410,1,2,0:0:0:0:
13,53,194568,6,0,P|67:52|121:70,1,104.999996795654,10|0,0:0|0:0,0:0:0:0:
212,224,194884,2,0,P|158:225|104:207,1,104.999996795654,8|0,0:0|0:0,0:0:0:0:
215,26,195199,2,0,L|229:144,1,104.999996795654,8|0,0:0|0:0,0:0:0:0:
59,283,195515,1,10,0:0:0:0:
80,84,195673,1,2,0:0:0:0:
212,224,195831,6,0,P|226:274|225:345,1,104.999996795654,10|0,0:0|0:0,0:0:0:0:
375,158,196147,2,0,P|350:203|337:273,1,104.999996795654,10|0,0:0|0:0,0:0:0:0:
185,133,196463,2,0,P|218:172|246:238,1,104.999996795654,10|0,0:0|0:0,0:0:0:0:
58,367,196778,1,10,0:0:0:0:
71,217,196936,1,2,0:0:0:0:
256,307,197094,6,0,L|152:292,1,104.999996795654,14|0,0:0|0:0,0:0:0:0:
385,224,197410,1,10,0:0:0:0:
306,383,197568,1,2,0:0:0:0:
210,214,197726,2,0,P|204:160|223:90,1,104.999996795654,10|0,0:0|0:0,0:0:0:0:
425,138,198042,1,8,0:0:0:0:
411,139,198120,1,8,3:0:0:0:
397,140,198199,1,8,3:0:0:0:
383,142,198278,1,8,3:0:0:0:
369,143,198357,1,12,0:0:0:0:
256,192,198436,12,0,201199,2:2:0:0:
