osu file format v14

[General]
AudioFilename: audio.ogg
AudioLeadIn: 0
PreviewTime: 42467
Countdown: 0
SampleSet: Normal
StackLeniency: 0.7
Mode: 1
LetterboxInBreaks: 0
WidescreenStoryboard: 1

[Editor]
Bookmarks: 56,6249,31023,43047,68185,80572,92959,130120,142507,154894,167281
DistanceSpacing: 0.6
BeatDivisor: 4
GridSize: 4
TimelineZoom: 1.3

[Metadata]
Title:Gold
TitleUnicode:Gold
Artist:Loi
ArtistUnicode:Loi
Creator:Slim-san
Version:Muzukashii
Source:
Tags:pop english slim_san slim san
BeatmapID:4096333
BeatmapSetID:1973721

[Difficulty]
HPDrainRate:6
CircleSize:4
OverallDifficulty:5
ApproachRate:9
SliderMultiplier:1.4
SliderTickRate:1

[Events]
//Background and Video events
0,0,"106278059_p0.png",0,-70
//Break Periods
//Storyboard Layer 0 (Background)
//Storyboard Layer 1 (Fail)
//Storyboard Layer 2 (Pass)
//Storyboard Layer 3 (Foreground)
//Storyboard Layer 4 (Overlay)
//Storyboard Sound Samples

[TimingPoints]
80,387.096774193548,4,1,0,50,1,0
80,-222.222222222222,4,1,0,50,0,0
1628,-200,4,1,0,50,0,0
3176,-181.818181818182,4,1,0,50,0,0
4724,-166.63078,4,1,0,60,0,0
5304,-148.13397,4,1,0,60,0,0
5885,-133.31036,4,1,0,60,0,0
6272,-124.97981,4,1,0,70,0,0
29498,-125,4,1,0,60,0,0
31046,-125.001686,4,1,0,70,0,0
31627,-125.98638,4,1,0,70,0,0
32208,-126.986725,4,1,0,70,0,0
32595,-127.66191,4,1,0,70,0,0
32788,-128.00131,4,1,0,70,0,0
32982,-128.34431,4,1,0,70,0,0
33175,-128.68736,4,1,0,70,0,0
33369,-129.03404,4,1,0,70,0,0
33756,-129.73123,4,1,0,70,0,0
34143,-130.436,4,1,0,70,0,0
34724,-131.50856,4,1,0,70,0,0
35304,-132.597,4,1,0,70,0,0
35691,-133.33333,4,1,0,70,0,0
35885,-133.70554,4,1,0,70,0,0
36078,-134.0779,4,1,0,70,0,0
36272,-134.45427,4,1,0,70,0,0
36466,-134.83276,4,1,0,70,0,0
36853,-135.59421,4,1,0,70,0,0
37240,-136.3643,4,1,0,70,0,0
37820,-137.53497,4,1,0,70,0,0
38401,-138.72798,4,1,0,70,0,0
38788,-139.53418,4,1,0,70,0,0
38982,-139.94186,4,1,0,70,0,0
39175,-140.34982,4,1,0,70,0,0
39369,-140.76228,4,1,0,70,0,0
39562,-141.17503,4,1,0,70,0,0
39949,-142.01003,4,1,0,70,0,0
40337,-142.85715,4,1,0,70,0,0
40531,-133.333333333333,4,1,0,50,0,0
41886,-117.647058823529,4,1,0,50,0,0
43047,-111.111111111111,4,1,0,60,0,0
43434,-100,4,1,0,80,0,1
54273,-100,4,1,0,70,0,0
55821,-100,4,1,0,80,0,1
66660,-100,4,1,0,70,0,0
68209,-100,4,1,0,80,0,1
79047,-100.01291,4,1,0,70,0,0
79433,-105.27031,4,1,0,70,0,0
79627,-108.11942,4,1,0,70,0,0
80208,-117.65598,4,1,0,70,0,0
80596,-125,4,1,0,70,0,0
91433,-125,4,1,0,60,0,0
92982,-125.00184,4,1,0,70,0,0
93562,-126.075424,4,1,0,70,0,0
94143,-127.169525,4,1,0,70,0,0
94530,-127.90889,4,1,0,70,0,0
94724,-128.28278,4,1,0,70,0,0
94917,-128.6569,4,1,0,70,0,0
95111,-129.03519,4,1,0,70,0,0
95304,-129.41373,4,1,0,70,0,0
95691,-130.1795,4,1,0,70,0,0
96078,-130.95439,4,1,0,70,0,0
96659,-132.13521,4,1,0,70,0,0
97240,-133.33751,4,1,0,70,0,0
97627,-134.15057,4,1,0,70,0,0
97820,-134.55975,4,1,0,70,0,0
98014,-134.9736,4,1,0,70,0,0
98208,-135.38998,4,1,0,70,0,0
98401,-135.8068,4,1,0,70,0,0
98788,-136.65034,4,1,0,70,0,0
99175,-137.50444,4,1,0,70,0,0
99756,-138.80692,4,1,0,70,0,0
100337,-140.1343,4,1,0,70,0,0
100724,-141.03264,4,1,0,70,0,0
100917,-141.48495,4,1,0,70,0,0
101111,-141.94257,4,1,0,70,0,0
101304,-142.40076,4,1,0,70,0,0
101498,-142.86432,4,1,0,70,0,0
101885,-133.333337955556,4,1,0,70,0,0
103821,-142.857142857143,4,1,0,60,0,0
104402,-125,4,1,0,60,0,0
104983,-111.111111111111,4,1,0,60,0,0
105370,-100,4,1,0,80,0,1
116209,-100,4,1,0,70,0,0
117757,-99.9999952000002,4,1,0,80,0,1
128596,-100,4,1,0,70,0,0
130144,-100,4,1,0,80,0,1
140983,-100,4,1,0,70,0,0
142531,-100,4,1,0,80,0,1
153370,-100.01292,4,1,0,70,0,0
153756,-105.273895,4,1,0,70,0,0
153949,-108.10999,4,1,0,70,0,0
154530,-117.65153,4,1,0,70,0,0
154918,-125,4,1,0,50,0,0
156466,-131.2011,4,1,0,50,0,0
158014,-138.0449,4,1,0,50,0,0
159562,-145.642,4,1,0,50,0,0
161111,-154.12978,4,1,0,50,0,0
162659,-163.66154,4,1,0,50,0,0
164208,-174.45738,4,1,0,50,0,0
165756,-186.76959,4,1,0,50,0,0
167176,-200.00977,4,1,0,50,0,0

[HitObjects]
251,202,4725,5,4,0:0:0:0:
251,202,5305,1,4,0:0:0:0:
251,202,5886,1,4,0:0:0:0:
326,281,6273,1,8,0:0:0:0:
375,299,6467,1,0,0:0:0:0:
159,174,6660,1,8,0:0:0:0:
381,284,7047,1,0,0:0:0:0:
380,290,7434,1,8,0:0:0:0:
380,290,7821,1,0,0:0:0:0:
378,313,8015,1,8,0:0:0:0:
378,313,8209,1,8,0:0:0:0:
378,313,8402,1,0,0:0:0:0:
394,313,8983,1,8,0:0:0:0:
385,312,9176,1,8,0:0:0:0:
192,210,9370,1,0,0:0:0:0:
363,295,9757,1,8,0:0:0:0:
390,306,10144,1,8,0:0:0:0:
352,296,10531,1,0,0:0:0:0:
352,296,10725,1,8,0:0:0:0:
352,296,10918,1,0,0:0:0:0:
238,187,11305,1,8,0:0:0:0:
238,187,11499,1,0,0:0:0:0:
383,309,12079,1,8,0:0:0:0:
391,298,12273,1,8,0:0:0:0:
391,298,12467,1,0,0:0:0:0:
286,203,12854,1,8,0:0:0:0:
277,218,13047,1,0,0:0:0:0:
235,232,13241,1,8,0:0:0:0:
235,232,13434,1,0,0:0:0:0:
235,232,13628,1,8,0:0:0:0:
441,330,13821,1,8,0:0:0:0:
406,293,14015,1,0,0:0:0:0:
371,311,14402,1,8,0:0:0:0:
371,311,14596,1,0,0:0:0:0:
380,317,15176,1,8,0:0:0:0:
426,337,15370,1,0,0:0:0:0:
426,337,15563,1,8,0:0:0:0:
387,326,15950,1,0,0:0:0:0:
387,326,16144,1,8,0:0:0:0:
214,177,16338,1,0,0:0:0:0:
430,319,16531,1,0,0:0:0:0:
417,299,16725,1,8,0:0:0:0:
413,288,16918,1,8,0:0:0:0:
272,268,17112,1,4,0:0:0:0:
427,343,17499,1,8,0:0:0:0:
427,343,17692,1,4,0:0:0:0:
389,311,18273,1,4,0:0:0:0:
389,311,18660,1,8,0:0:0:0:
254,245,18854,1,0,0:0:0:0:
254,245,19047,1,8,0:0:0:0:
401,292,19241,1,0,0:0:0:0:
398,318,19434,1,8,0:0:0:0:
406,330,19821,1,0,0:0:0:0:
406,330,20209,1,0,0:0:0:0:
412,323,20402,1,8,0:0:0:0:
412,323,20596,1,8,0:0:0:0:
412,323,20789,1,0,0:0:0:0:
436,334,21370,1,0,0:0:0:0:
441,339,21563,1,0,0:0:0:0:
436,306,21757,1,8,0:0:0:0:
420,327,22144,1,0,0:0:0:0:
420,324,22531,1,8,0:0:0:0:
399,328,22918,1,8,0:0:0:0:
412,319,23305,1,0,0:0:0:0:
182,234,23692,1,8,0:0:0:0:
166,222,23886,1,0,0:0:0:0:
362,317,24467,1,0,0:0:0:0:
362,317,24660,1,0,0:0:0:0:
362,317,24854,1,8,0:0:0:0:
354,303,25241,1,0,0:0:0:0:
354,303,25434,1,8,0:0:0:0:
428,348,25628,1,0,0:0:0:0:
428,348,25821,1,0,0:0:0:0:
428,348,26015,1,8,0:0:0:0:
372,310,26402,1,0,0:0:0:0:
316,288,26789,1,8,0:0:0:0:
408,315,26983,1,0,0:0:0:0:
395,294,27563,1,8,0:0:0:0:
412,335,27757,1,0,0:0:0:0:
412,335,27950,1,8,0:0:0:0:
402,330,28144,1,8,0:0:0:0:
402,330,28338,1,0,0:0:0:0:
415,331,28725,1,0,0:0:0:0:
351,278,28918,1,0,0:0:0:0:
351,278,29112,1,8,0:0:0:0:
351,278,29305,1,8,0:0:0:0:
333,284,29499,1,4,0:0:0:0:
333,284,29886,1,8,0:0:0:0:
333,284,30079,1,4,0:0:0:0:
366,320,30660,1,4,0:0:0:0:
263,200,31047,1,8,0:0:0:0:
268,195,31628,1,0,0:0:0:0:
347,303,32209,1,8,0:0:0:0:
329,269,32596,1,0,0:0:0:0:
368,308,32789,1,0,0:0:0:0:
306,222,32983,1,8,0:0:0:0:
302,286,33176,1,8,0:0:0:0:
302,286,33370,1,0,0:0:0:0:
401,310,33757,1,8,0:0:0:0:
401,310,34144,1,0,0:0:0:0:
372,332,34725,1,0,0:0:0:0:
342,295,35305,1,8,0:0:0:0:
316,274,35692,1,0,0:0:0:0:
316,274,35886,1,0,0:0:0:0:
246,185,36079,1,8,0:0:0:0:
316,274,36273,1,0,0:0:0:0:
316,274,36467,1,0,0:0:0:0:
316,274,36854,1,8,0:0:0:0:
316,274,37241,1,0,0:0:0:0:
343,287,37821,1,0,0:0:0:0:
343,287,38402,1,8,0:0:0:0:
211,220,38789,1,0,0:0:0:0:
225,223,38983,1,0,0:0:0:0:
211,222,39176,1,8,0:0:0:0:
211,222,39370,1,8,0:0:0:0:
398,321,39563,1,0,0:0:0:0:
430,337,39950,1,8,0:0:0:0:
336,291,40338,1,0,0:0:0:0:
256,192,40531,12,0,41886,0:0:0:0:
257,232,43047,5,8,0:0:0:0:
203,196,43434,1,12,0:0:0:0:
208,197,43821,1,8,0:0:0:0:
225,236,43918,1,8,0:0:0:0:
225,236,44015,1,8,0:0:0:0:
362,290,44209,1,0,0:0:0:0:
362,290,44402,1,0,0:0:0:0:
362,290,44596,1,8,0:0:0:0:
387,307,44789,1,8,0:0:0:0:
387,307,44983,1,0,0:0:0:0:
423,322,45370,1,0,0:0:0:0:
405,284,45563,1,8,0:0:0:0:
405,284,45757,1,0,0:0:0:0:
417,305,45854,1,0,0:0:0:0:
421,305,45950,1,0,0:0:0:0:
249,242,46144,1,8,0:0:0:0:
396,313,46531,1,0,0:0:0:0:
232,239,46918,1,8,0:0:0:0:
396,316,47112,1,8,0:0:0:0:
422,329,47305,1,0,0:0:0:0:
392,309,47499,1,0,0:0:0:0:
392,309,47692,1,8,0:0:0:0:
399,309,47886,1,0,0:0:0:0:
409,317,47983,1,0,0:0:0:0:
409,317,48079,1,0,0:0:0:0:
385,293,48273,1,8,0:0:0:0:
200,200,48467,1,8,0:0:0:0:
400,316,48660,1,0,0:0:0:0:
411,314,49047,1,8,0:0:0:0:
411,314,49241,1,0,0:0:0:0:
202,229,49434,1,8,0:0:0:0:
307,216,49531,1,8,0:0:0:0:
202,229,49628,1,8,0:0:0:0:
246,237,49821,1,0,0:0:0:0:
430,316,50015,1,8,0:0:0:0:
427,318,50209,1,0,0:0:0:0:
252,278,50305,1,0,0:0:0:0:
427,318,50402,1,0,0:0:0:0:
410,316,50596,1,8,0:0:0:0:
410,316,50789,1,8,0:0:0:0:
410,316,50983,1,0,0:0:0:0:
410,316,51176,1,8,0:0:0:0:
400,307,51757,1,8,0:0:0:0:
423,337,52144,1,0,0:0:0:0:
423,337,52338,1,0,0:0:0:0:
270,226,52531,1,8,0:0:0:0:
290,260,52628,1,8,0:0:0:0:
270,226,52725,1,8,0:0:0:0:
313,264,52918,1,0,0:0:0:0:
313,264,53112,1,8,0:0:0:0:
370,245,53305,1,0,0:0:0:0:
370,245,53402,1,0,0:0:0:0:
313,264,53499,1,0,0:0:0:0:
396,293,53692,1,8,0:0:0:0:
396,293,53886,1,8,0:0:0:0:
396,293,54079,1,8,0:0:0:0:
432,324,54273,1,4,0:0:0:0:
432,324,54660,1,8,0:0:0:0:
432,324,54854,1,4,0:0:0:0:
426,341,55434,1,4,0:0:0:0:
426,341,55821,1,12,0:0:0:0:
260,196,56209,1,0,0:0:0:0:
374,294,56305,1,0,0:0:0:0:
396,307,56402,1,0,0:0:0:0:
359,299,56596,1,8,0:0:0:0:
359,299,56789,1,0,0:0:0:0:
370,294,56983,1,8,0:0:0:0:
370,296,57176,1,8,0:0:0:0:
419,308,57370,1,0,0:0:0:0:
320,196,57757,1,8,0:0:0:0:
398,293,57950,1,0,0:0:0:0:
384,303,58144,1,8,0:0:0:0:
384,303,58241,1,8,0:0:0:0:
358,271,58338,1,8,0:0:0:0:
358,271,58531,1,0,0:0:0:0:
343,262,58918,1,8,0:0:0:0:
313,269,59305,1,8,0:0:0:0:
426,319,59499,1,0,0:0:0:0:
329,253,59692,1,0,0:0:0:0:
329,253,59886,1,8,0:0:0:0:
329,253,60079,1,8,0:0:0:0:
420,295,60273,1,0,0:0:0:0:
407,312,60370,1,0,0:0:0:0:
413,320,60467,1,0,0:0:0:0:
250,223,60660,1,8,0:0:0:0:
158,231,60854,1,8,0:0:0:0:
391,313,61047,1,0,0:0:0:0:
373,297,61434,1,0,0:0:0:0:
373,297,61628,1,8,0:0:0:0:
351,284,61821,1,0,0:0:0:0:
351,236,61918,1,0,0:0:0:0:
351,284,62015,1,0,0:0:0:0:
255,208,62209,1,8,0:0:0:0:
367,299,62402,1,0,0:0:0:0:
367,299,62596,1,8,0:0:0:0:
419,309,62692,1,8,0:0:0:0:
367,299,62789,1,8,0:0:0:0:
380,289,62983,1,0,0:0:0:0:
406,312,63176,1,8,0:0:0:0:
406,312,63370,1,8,0:0:0:0:
406,312,63563,1,0,0:0:0:0:
425,320,64144,1,0,0:0:0:0:
416,319,64531,1,8,0:0:0:0:
416,319,64725,1,8,0:0:0:0:
418,308,64918,1,0,0:0:0:0:
396,257,65015,1,0,0:0:0:0:
418,308,65112,1,0,0:0:0:0:
424,318,65305,1,8,0:0:0:0:
394,304,65499,1,0,0:0:0:0:
394,304,65692,1,8,0:0:0:0:
352,250,65789,1,8,0:0:0:0:
394,304,65886,1,8,0:0:0:0:
438,311,66079,1,0,0:0:0:0:
438,311,66273,1,8,0:0:0:0:
438,311,66467,1,8,0:0:0:0:
437,341,66660,1,4,0:0:0:0:
424,310,67047,1,8,0:0:0:0:
424,310,67241,1,4,0:0:0:0:
424,310,67821,1,4,0:0:0:0:
401,268,68209,1,12,0:0:0:0:
275,189,68596,1,0,0:0:0:0:
354,282,68692,1,0,0:0:0:0:
243,183,68789,1,0,0:0:0:0:
342,251,68983,1,8,0:0:0:0:
354,282,69176,1,0,0:0:0:0:
404,314,69370,1,8,0:0:0:0:
380,274,69563,1,0,0:0:0:0:
374,304,69757,1,8,0:0:0:0:
384,248,69854,1,8,0:0:0:0:
382,287,69950,1,8,0:0:0:0:
352,286,70144,1,0,0:0:0:0:
401,309,70338,1,8,0:0:0:0:
366,293,70918,1,0,0:0:0:0:
366,293,71305,1,8,0:0:0:0:
356,315,71402,1,8,0:0:0:0:
348,296,71499,1,8,0:0:0:0:
348,296,71692,1,0,0:0:0:0:
256,205,71789,1,0,0:0:0:0:
348,296,71886,1,0,0:0:0:0:
348,296,72079,1,8,0:0:0:0:
362,298,72273,1,0,0:0:0:0:
362,298,72467,1,0,0:0:0:0:
362,298,72660,1,8,0:0:0:0:
362,298,72854,1,8,0:0:0:0:
415,312,73047,1,0,0:0:0:0:
295,210,73241,1,8,0:0:0:0:
295,210,73434,1,0,0:0:0:0:
300,207,74015,1,8,0:0:0:0:
390,298,74402,1,0,0:0:0:0:
250,189,74499,1,0,0:0:0:0:
250,189,74596,1,0,0:0:0:0:
249,194,74789,1,8,0:0:0:0:
249,194,74983,1,0,0:0:0:0:
249,194,75176,1,8,0:0:0:0:
249,194,75370,1,8,0:0:0:0:
228,211,75563,1,0,0:0:0:0:
249,194,75756,1,8,0:0:0:0:
226,190,75853,1,8,0:0:0:0:
228,187,75950,1,8,0:0:0:0:
228,187,76144,1,0,0:0:0:0:
235,268,76338,1,0,0:0:0:0:
402,298,76531,1,8,0:0:0:0:
206,187,76918,1,0,0:0:0:0:
251,213,77112,1,0,0:0:0:0:
320,267,77305,1,8,0:0:0:0:
320,267,77402,1,8,0:0:0:0:
320,267,77499,1,8,0:0:0:0:
388,290,77692,1,0,0:0:0:0:
319,258,77886,1,8,0:0:0:0:
210,142,78079,1,0,0:0:0:0:
210,142,78176,1,0,0:0:0:0:
210,142,78273,1,0,0:0:0:0:
210,142,78467,1,8,0:0:0:0:
210,142,78660,1,8,0:0:0:0:
210,142,78854,1,8,0:0:0:0:
416,328,79047,1,4,0:0:0:0:
403,315,79434,1,8,0:0:0:0:
388,308,79628,1,4,0:0:0:0:
411,318,80209,1,4,0:0:0:0:
401,268,80596,1,8,0:0:0:0:
219,226,80983,1,8,0:0:0:0:
219,226,81370,1,0,0:0:0:0:
369,266,81757,1,8,0:0:0:0:
424,296,82144,1,0,0:0:0:0:
424,296,82338,1,8,0:0:0:0:
426,293,82531,1,8,0:0:0:0:
426,293,82725,1,0,0:0:0:0:
301,277,83305,1,8,0:0:0:0:
412,290,83499,1,8,0:0:0:0:
412,290,83692,1,0,0:0:0:0:
415,302,84079,1,8,0:0:0:0:
439,313,84467,1,0,0:0:0:0:
396,291,84854,1,8,0:0:0:0:
439,334,85047,1,0,0:0:0:0:
441,340,85241,1,0,0:0:0:0:
426,320,85434,1,0,0:0:0:0:
426,320,85628,1,8,0:0:0:0:
426,320,85821,1,8,0:0:0:0:
442,323,86402,1,8,0:0:0:0:
350,248,86596,1,0,0:0:0:0:
350,248,86789,1,8,0:0:0:0:
301,259,86983,1,8,0:0:0:0:
301,259,87176,1,0,0:0:0:0:
301,259,87370,1,8,0:0:0:0:
301,259,87563,1,0,0:0:0:0:
301,259,87757,1,0,0:0:0:0:
302,253,87950,1,8,0:0:0:0:
437,288,88338,1,0,0:0:0:0:
408,317,88725,1,8,0:0:0:0:
408,317,88918,1,0,0:0:0:0:
407,307,89499,1,8,0:0:0:0:
443,338,89886,1,8,0:0:0:0:
251,247,90079,1,0,0:0:0:0:
241,223,90273,1,8,0:0:0:0:
374,291,90660,1,0,0:0:0:0:
423,316,90854,1,0,0:0:0:0:
423,316,91047,1,8,0:0:0:0:
435,320,91241,1,8,0:0:0:0:
411,305,91434,1,4,0:0:0:0:
407,286,91821,1,8,0:0:0:0:
431,329,92015,1,4,0:0:0:0:
442,329,92402,1,8,0:0:0:0:
424,294,92596,1,4,0:0:0:0:
426,316,92983,1,8,0:0:0:0:
216,194,93563,1,0,0:0:0:0:
224,197,94144,1,8,0:0:0:0:
330,268,94531,1,0,0:0:0:0:
337,268,94725,1,0,0:0:0:0:
330,268,94918,1,8,0:0:0:0:
330,268,95112,1,0,0:0:0:0:
330,268,95305,1,0,0:0:0:0:
360,294,95692,1,8,0:0:0:0:
360,294,96079,1,0,0:0:0:0:
438,326,96660,1,0,0:0:0:0:
438,326,97241,1,8,0:0:0:0:
415,312,97628,1,0,0:0:0:0:
415,312,97821,1,0,0:0:0:0:
415,312,98015,1,8,0:0:0:0:
227,193,98209,1,8,0:0:0:0:
227,193,98402,1,0,0:0:0:0:
429,319,98789,1,8,0:0:0:0:
429,319,99176,1,0,0:0:0:0:
417,326,99757,1,0,0:0:0:0:
211,137,100338,1,8,0:0:0:0:
386,278,100725,1,0,0:0:0:0:
386,278,100918,1,0,0:0:0:0:
386,278,101112,1,8,0:0:0:0:
386,278,101305,1,0,0:0:0:0:
386,278,101499,1,0,0:0:0:0:
415,315,101886,1,0,0:0:0:0:
181,193,101983,1,0,0:0:0:0:
181,193,102079,1,0,0:0:0:0:
415,315,102273,1,8,0:0:0:0:
421,315,103821,1,8,0:0:0:0:
421,315,104402,1,8,0:0:0:0:
425,317,104983,1,8,0:0:0:0:
203,196,105370,1,12,0:0:0:0:
208,197,105757,1,8,0:0:0:0:
225,236,105854,1,8,0:0:0:0:
225,236,105950,1,8,0:0:0:0:
362,290,106144,1,0,0:0:0:0:
362,290,106338,1,0,0:0:0:0:
362,290,106531,1,8,0:0:0:0:
387,307,106725,1,8,0:0:0:0:
387,307,106918,1,0,0:0:0:0:
423,322,107305,1,0,0:0:0:0:
405,284,107499,1,8,0:0:0:0:
405,284,107692,1,0,0:0:0:0:
417,305,107789,1,0,0:0:0:0:
421,305,107886,1,0,0:0:0:0:
249,242,108079,1,8,0:0:0:0:
396,313,108467,1,0,0:0:0:0:
232,239,108854,1,8,0:0:0:0:
396,316,109047,1,8,0:0:0:0:
422,329,109241,1,0,0:0:0:0:
392,309,109434,1,0,0:0:0:0:
392,309,109628,1,8,0:0:0:0:
399,309,109821,1,0,0:0:0:0:
409,317,109918,1,0,0:0:0:0:
409,317,110015,1,0,0:0:0:0:
385,293,110209,1,8,0:0:0:0:
269,242,110402,1,8,0:0:0:0:
400,316,110596,1,0,0:0:0:0:
411,314,110983,1,8,0:0:0:0:
411,314,111176,1,0,0:0:0:0:
202,229,111370,1,8,0:0:0:0:
377,229,111467,1,8,0:0:0:0:
202,229,111563,1,8,0:0:0:0:
246,237,111757,1,0,0:0:0:0:
430,316,111950,1,8,0:0:0:0:
427,318,112144,1,0,0:0:0:0:
395,230,112241,1,0,0:0:0:0:
427,318,112338,1,0,0:0:0:0:
410,316,112531,1,8,0:0:0:0:
410,316,112725,1,8,0:0:0:0:
410,316,112918,1,0,0:0:0:0:
410,316,113112,1,8,0:0:0:0:
400,307,113692,1,8,0:0:0:0:
423,337,114079,1,0,0:0:0:0:
423,337,114273,1,0,0:0:0:0:
270,226,114467,1,8,0:0:0:0:
296,231,114563,1,8,0:0:0:0:
270,226,114660,1,8,0:0:0:0:
313,264,114854,1,0,0:0:0:0:
313,264,115047,1,8,0:0:0:0:
313,264,115241,1,0,0:0:0:0:
329,224,115338,1,0,0:0:0:0:
313,264,115434,1,0,0:0:0:0:
396,293,115628,1,8,0:0:0:0:
396,293,115821,1,8,0:0:0:0:
396,293,116015,1,8,0:0:0:0:
432,324,116209,1,4,0:0:0:0:
432,324,116596,1,8,0:0:0:0:
432,324,116789,1,4,0:0:0:0:
426,341,117370,1,4,0:0:0:0:
426,341,117757,1,12,0:0:0:0:
260,196,118144,1,0,0:0:0:0:
374,294,118241,1,0,0:0:0:0:
396,307,118338,1,0,0:0:0:0:
359,299,118531,1,8,0:0:0:0:
359,299,118725,1,0,0:0:0:0:
370,294,118918,1,8,0:0:0:0:
370,296,119112,1,8,0:0:0:0:
419,308,119305,1,0,0:0:0:0:
320,196,119692,1,8,0:0:0:0:
398,293,119886,1,0,0:0:0:0:
384,303,120079,1,8,0:0:0:0:
384,303,120176,1,8,0:0:0:0:
358,271,120273,1,8,0:0:0:0:
358,271,120467,1,0,0:0:0:0:
343,262,120854,1,8,0:0:0:0:
313,269,121241,1,8,0:0:0:0:
426,319,121434,1,0,0:0:0:0:
329,253,121628,1,0,0:0:0:0:
329,253,121821,1,8,0:0:0:0:
329,253,122015,1,8,0:0:0:0:
420,295,122209,1,0,0:0:0:0:
407,312,122305,1,0,0:0:0:0:
413,320,122402,1,0,0:0:0:0:
250,223,122596,1,8,0:0:0:0:
304,205,122789,1,8,0:0:0:0:
391,313,122983,1,0,0:0:0:0:
373,297,123370,1,0,0:0:0:0:
373,297,123563,1,8,0:0:0:0:
351,284,123757,1,0,0:0:0:0:
351,284,123854,1,0,0:0:0:0:
351,284,123950,1,0,0:0:0:0:
255,208,124144,1,8,0:0:0:0:
367,299,124338,1,0,0:0:0:0:
367,299,124531,1,8,0:0:0:0:
367,299,124628,1,8,0:0:0:0:
367,299,124725,1,8,0:0:0:0:
380,289,124918,1,0,0:0:0:0:
406,312,125112,1,8,0:0:0:0:
406,312,125305,1,8,0:0:0:0:
406,312,125499,1,0,0:0:0:0:
425,320,126079,1,0,0:0:0:0:
416,319,126467,1,8,0:0:0:0:
416,319,126660,1,8,0:0:0:0:
418,308,126854,1,0,0:0:0:0:
418,308,126950,1,0,0:0:0:0:
418,308,127047,1,0,0:0:0:0:
424,318,127241,1,8,0:0:0:0:
394,304,127434,1,0,0:0:0:0:
394,304,127628,1,8,0:0:0:0:
394,304,127725,1,8,0:0:0:0:
394,304,127821,1,8,0:0:0:0:
438,311,128015,1,0,0:0:0:0:
438,311,128209,1,8,0:0:0:0:
438,311,128402,1,8,0:0:0:0:
437,341,128596,1,4,0:0:0:0:
424,310,128983,1,8,0:0:0:0:
424,310,129176,1,4,0:0:0:0:
424,310,129757,1,4,0:0:0:0:
401,268,130144,1,12,0:0:0:0:
275,189,130531,1,0,0:0:0:0:
354,282,130628,1,0,0:0:0:0:
243,183,130725,1,0,0:0:0:0:
342,251,130918,1,8,0:0:0:0:
354,282,131015,1,8,0:0:0:0:
354,282,131112,1,8,0:0:0:0:
404,314,131305,1,0,0:0:0:0:
380,274,131499,1,0,0:0:0:0:
374,304,131692,1,8,0:0:0:0:
382,287,131886,1,8,0:0:0:0:
352,286,132079,1,0,0:0:0:0:
401,309,132273,1,8,0:0:0:0:
366,293,132854,1,0,0:0:0:0:
366,293,133241,1,8,0:0:0:0:
356,315,133338,1,8,0:0:0:0:
348,296,133434,1,8,0:0:0:0:
348,296,133628,1,0,0:0:0:0:
348,296,133821,1,0,0:0:0:0:
348,296,134015,1,8,0:0:0:0:
362,298,134209,1,8,0:0:0:0:
362,298,134402,1,0,0:0:0:0:
362,298,134596,1,8,0:0:0:0:
362,298,134692,1,8,0:0:0:0:
362,298,134789,1,8,0:0:0:0:
415,312,134983,1,0,0:0:0:0:
266,222,135176,1,8,0:0:0:0:
295,210,135370,1,0,0:0:0:0:
300,207,135950,1,8,0:0:0:0:
390,298,136338,1,0,0:0:0:0:
250,189,136434,1,0,0:0:0:0:
250,189,136531,1,0,0:0:0:0:
249,194,136725,1,8,0:0:0:0:
249,194,136821,1,8,0:0:0:0:
249,194,136918,1,8,0:0:0:0:
249,194,137112,1,0,0:0:0:0:
249,194,137305,1,0,0:0:0:0:
249,194,137499,1,8,0:0:0:0:
228,187,137692,1,8,0:0:0:0:
228,187,137886,1,0,0:0:0:0:
228,187,138079,1,8,0:0:0:0:
208,214,138273,1,0,0:0:0:0:
402,298,138467,1,8,0:0:0:0:
206,187,138854,1,0,0:0:0:0:
251,213,139047,1,0,0:0:0:0:
320,267,139241,1,8,0:0:0:0:
320,267,139338,1,8,0:0:0:0:
320,267,139434,1,8,0:0:0:0:
388,290,139628,1,0,0:0:0:0:
319,258,139821,1,8,0:0:0:0:
210,142,140015,1,0,0:0:0:0:
210,142,140112,1,0,0:0:0:0:
210,142,140209,1,0,0:0:0:0:
210,142,140402,1,8,0:0:0:0:
210,142,140596,1,8,0:0:0:0:
210,142,140789,1,8,0:0:0:0:
416,328,140983,1,4,0:0:0:0:
403,315,141370,1,8,0:0:0:0:
388,308,141563,1,4,0:0:0:0:
411,318,142144,1,4,0:0:0:0:
401,268,142531,1,12,0:0:0:0:
275,189,142918,1,0,0:0:0:0:
354,282,143015,1,0,0:0:0:0:
243,183,143112,1,0,0:0:0:0:
342,251,143305,1,8,0:0:0:0:
354,282,143402,1,8,0:0:0:0:
354,282,143499,1,8,0:0:0:0:
404,314,143692,1,0,0:0:0:0:
380,274,143886,1,8,0:0:0:0:
374,304,144079,1,0,0:0:0:0:
382,287,144273,1,0,0:0:0:0:
352,286,144467,1,8,0:0:0:0:
401,309,144660,1,8,0:0:0:0:
366,293,145241,1,0,0:0:0:0:
366,293,145628,1,0,0:0:0:0:
356,315,145725,1,0,0:0:0:0:
348,296,145821,1,0,0:0:0:0:
348,296,146015,1,8,0:0:0:0:
348,296,146209,1,8,0:0:0:0:
348,296,146402,1,0,0:0:0:0:
362,298,146596,1,8,0:0:0:0:
362,298,146789,1,8,0:0:0:0:
362,298,146983,1,0,0:0:0:0:
362,298,147079,1,0,0:0:0:0:
362,298,147176,1,0,0:0:0:0:
415,312,147370,1,8,0:0:0:0:
285,237,147563,1,8,0:0:0:0:
295,210,147757,1,0,0:0:0:0:
300,207,148338,1,8,0:0:0:0:
390,298,148725,1,0,0:0:0:0:
250,189,148821,1,0,0:0:0:0:
250,189,148918,1,0,0:0:0:0:
249,194,149112,1,8,0:0:0:0:
249,194,149209,1,8,0:0:0:0:
249,194,149305,1,8,0:0:0:0:
249,194,149499,1,0,0:0:0:0:
249,194,149692,1,0,0:0:0:0:
249,194,149886,1,8,0:0:0:0:
228,187,150079,1,8,0:0:0:0:
228,187,150273,1,0,0:0:0:0:
228,187,150467,1,8,0:0:0:0:
222,201,150660,1,0,0:0:0:0:
402,298,150854,1,8,0:0:0:0:
206,187,151241,1,0,0:0:0:0:
251,213,151434,1,0,0:0:0:0:
320,267,151628,1,8,0:0:0:0:
320,267,151725,1,8,0:0:0:0:
320,267,151821,1,8,0:0:0:0:
388,290,152015,1,0,0:0:0:0:
319,258,152209,1,8,0:0:0:0:
210,142,152402,1,0,0:0:0:0:
210,142,152499,1,0,0:0:0:0:
210,142,152596,1,0,0:0:0:0:
210,142,152789,1,8,0:0:0:0:
210,142,152983,1,8,0:0:0:0:
210,142,153176,1,8,0:0:0:0:
416,328,153370,1,4,0:0:0:0:
403,315,153757,1,8,0:0:0:0:
388,308,153950,1,4,0:0:0:0:
411,318,154531,1,4,0:0:0:0:
271,228,154918,1,8,0:0:0:0:
285,235,158015,1,8,0:0:0:0:
322,248,161112,1,8,0:0:0:0:
330,243,164209,1,8,0:0:0:0:
284,238,167176,1,0,0:0:0:0:
