osu file format v14

[General]
AudioFilename: audio.ogg
AudioLeadIn: 0
PreviewTime: 42467
Countdown: 0
SampleSet: Normal
StackLeniency: 0.7
Mode: 1
LetterboxInBreaks: 0
WidescreenStoryboard: 1

[Editor]
Bookmarks: 56,6249,31023,43410,68185,80572,92959,130120,142507,154894,167281
DistanceSpacing: 0.6
BeatDivisor: 6
GridSize: 4
TimelineZoom: 1.3

[Metadata]
Title:Gold
TitleUnicode:Gold
Artist:Loi
ArtistUnicode:Loi
Creator:Slim-san
Version:Futsuu
Source:
Tags:pop english slim_san slim san
BeatmapID:4096391
BeatmapSetID:1973721

[Difficulty]
HPDrainRate:7
CircleSize:4
OverallDifficulty:4
ApproachRate:9
SliderMultiplier:1.4
SliderTickRate:1

[Events]
//Background and Video events
0,0,"106278059_p0.png",0,-70
//Break Periods
//Storyboard Layer 0 (Background)
//Storyboard Layer 1 (Fail)
//Storyboard Layer 2 (Pass)
//Storyboard Layer 3 (Foreground)
//Storyboard Layer 4 (Overlay)
//Storyboard Sound Samples

[TimingPoints]
80,387.096774193548,4,1,0,50,1,0
80,-100,4,1,0,50,0,0
4724,-100,4,1,0,60,0,0
6272,-100,4,1,0,70,0,0
29498,-100,4,1,0,60,0,0
31046,-100,4,1,0,70,0,0
40531,-100,4,1,0,50,0,0
43047,-100,4,1,0,60,0,0
43434,-100,4,1,0,80,0,1
54273,-100,4,1,0,70,0,0
55821,-100,4,1,0,80,0,1
66660,-100,4,1,0,70,0,0
68209,-100,4,1,0,80,0,1
79047,-100,4,1,0,70,0,0
80596,-100,4,1,0,70,0,0
91433,-100,4,1,0,60,0,0
92982,-100,4,1,0,70,0,0
103821,-100,4,1,0,60,0,0
105370,-100,4,1,0,80,0,1
116209,-100,4,1,0,70,0,0
117757,-100,4,1,0,80,0,1
128596,-100,4,1,0,70,0,0
130144,-100,4,1,0,80,0,1
140983,-100,4,1,0,70,0,0
142531,-100,4,1,0,80,0,1
153370,-100,4,1,0,70,0,0
154918,-100,4,1,0,50,0,0

[HitObjects]
251,202,4725,5,4,0:0:0:0:
251,202,5305,1,4,0:0:0:0:
251,202,5886,1,4,0:0:0:0:
326,281,6273,1,8,0:0:0:0:
159,174,6660,1,8,0:0:0:0:
381,284,7047,1,0,0:0:0:0:
380,290,7434,1,8,0:0:0:0:
380,290,7821,1,0,0:0:0:0:
378,313,8209,1,8,0:0:0:0:
378,313,8402,1,0,0:0:0:0:
192,210,9370,1,0,0:0:0:0:
363,295,9757,1,8,0:0:0:0:
390,306,10144,1,8,0:0:0:0:
352,296,10531,1,8,0:0:0:0:
352,296,10918,1,0,0:0:0:0:
238,187,11305,1,8,0:0:0:0:
238,187,11499,1,0,0:0:0:0:
391,298,12467,1,0,0:0:0:0:
286,203,12854,1,0,0:0:0:0:
235,232,13241,1,8,0:0:0:0:
235,232,13628,1,8,0:0:0:0:
406,293,14015,1,0,0:0:0:0:
371,311,14402,1,8,0:0:0:0:
371,311,14596,1,0,0:0:0:0:
426,337,15563,1,0,0:0:0:0:
387,326,15950,1,8,0:0:0:0:
214,177,16338,1,8,0:0:0:0:
417,299,16725,1,8,0:0:0:0:
272,268,17112,1,4,0:0:0:0:
427,343,17499,1,8,0:0:0:0:
427,343,17692,1,4,0:0:0:0:
389,311,18273,1,4,0:0:0:0:
389,311,18660,1,8,0:0:0:0:
254,245,19047,1,8,0:0:0:0:
398,318,19434,1,0,0:0:0:0:
406,330,19821,1,0,0:0:0:0:
406,330,20209,1,8,0:0:0:0:
412,323,20596,1,0,0:0:0:0:
412,323,20789,1,8,0:0:0:0:
436,306,21757,1,8,0:0:0:0:
420,327,22144,1,0,0:0:0:0:
420,324,22531,1,0,0:0:0:0:
399,328,22918,1,8,0:0:0:0:
412,319,23305,1,8,0:0:0:0:
166,222,23692,1,0,0:0:0:0:
182,234,23886,1,8,0:0:0:0:
362,317,24854,1,8,0:0:0:0:
354,303,25241,1,0,0:0:0:0:
428,348,25628,1,8,0:0:0:0:
428,348,26015,1,0,0:0:0:0:
372,310,26402,1,8,0:0:0:0:
408,315,26789,1,0,0:0:0:0:
316,288,26983,1,8,0:0:0:0:
412,335,27950,1,8,0:0:0:0:
402,330,28338,1,8,0:0:0:0:
415,331,28725,1,0,0:0:0:0:
351,278,29112,1,8,0:0:0:0:
333,284,29499,1,4,0:0:0:0:
333,284,29886,1,8,0:0:0:0:
333,284,30079,1,4,0:0:0:0:
366,320,30660,1,4,0:0:0:0:
263,200,31047,1,8,0:0:0:0:
268,195,31628,1,8,0:0:0:0:
347,303,32209,1,8,0:0:0:0:
329,269,32596,1,0,0:0:0:0:
306,222,32983,1,8,0:0:0:0:
302,286,33370,1,8,0:0:0:0:
401,310,33757,1,0,0:0:0:0:
401,310,34144,1,8,0:0:0:0:
372,332,34725,1,0,0:0:0:0:
342,295,35305,1,8,0:0:0:0:
316,274,35692,1,0,0:0:0:0:
246,185,36079,1,8,0:0:0:0:
316,274,36467,1,0,0:0:0:0:
316,274,36854,1,8,0:0:0:0:
316,274,37241,1,8,0:0:0:0:
343,287,37821,1,0,0:0:0:0:
343,287,38402,1,8,0:0:0:0:
211,220,38789,1,0,0:0:0:0:
211,222,39176,1,8,0:0:0:0:
398,321,39563,1,8,0:0:0:0:
430,337,39950,1,8,0:0:0:0:
336,291,40338,1,0,0:0:0:0:
257,232,43047,1,8,0:0:0:0:
203,196,43434,1,12,0:0:0:0:
208,197,43821,1,8,0:0:0:0:
362,290,44209,1,0,0:0:0:0:
362,290,44402,1,0,0:0:0:0:
387,307,44789,1,8,0:0:0:0:
387,307,44983,1,0,0:0:0:0:
302,212,45370,1,8,0:0:0:0:
244,227,45563,1,0,0:0:0:0:
405,284,45757,1,8,0:0:0:0:
249,242,46144,1,0,0:0:0:0:
396,313,46531,1,8,0:0:0:0:
284,222,46725,1,8,0:0:0:0:
232,239,46918,1,0,0:0:0:0:
422,329,47305,1,8,0:0:0:0:
392,309,47499,1,8,0:0:0:0:
399,309,47886,1,0,0:0:0:0:
385,293,48079,1,0,0:0:0:0:
411,314,49047,1,0,0:0:0:0:
129,191,49241,1,0,0:0:0:0:
202,229,49434,1,8,0:0:0:0:
246,237,49821,1,8,0:0:0:0:
430,316,50015,1,8,0:0:0:0:
427,318,50209,1,0,0:0:0:0:
410,316,50596,1,8,0:0:0:0:
410,316,50789,1,0,0:0:0:0:
226,197,50983,1,0,0:0:0:0:
410,316,51176,1,8,0:0:0:0:
400,307,51757,1,8,0:0:0:0:
423,337,52144,1,0,0:0:0:0:
423,337,52338,1,8,0:0:0:0:
270,226,52531,1,0,0:0:0:0:
313,264,52918,1,8,0:0:0:0:
313,264,53112,1,0,0:0:0:0:
313,264,53305,1,8,0:0:0:0:
396,293,53692,1,0,0:0:0:0:
396,293,53886,1,8,0:0:0:0:
236,186,54079,1,8,0:0:0:0:
432,324,54273,1,4,0:0:0:0:
432,324,54660,1,8,0:0:0:0:
432,324,54854,1,4,0:0:0:0:
426,341,55821,1,12,0:0:0:0:
260,196,56209,1,8,0:0:0:0:
359,299,56596,1,0,0:0:0:0:
359,299,56789,1,0,0:0:0:0:
370,296,57176,1,8,0:0:0:0:
419,308,57370,1,0,0:0:0:0:
230,219,57757,1,8,0:0:0:0:
216,248,57950,1,0,0:0:0:0:
236,205,58144,1,8,0:0:0:0:
248,207,58531,1,0,0:0:0:0:
343,262,58918,1,8,0:0:0:0:
246,190,59112,1,8,0:0:0:0:
313,269,59305,1,0,0:0:0:0:
329,253,59692,1,8,0:0:0:0:
329,253,59886,1,8,0:0:0:0:
420,295,60273,1,0,0:0:0:0:
329,253,60467,1,8,0:0:0:0:
373,297,61434,1,0,0:0:0:0:
373,297,61628,1,0,0:0:0:0:
351,284,61821,1,8,0:0:0:0:
255,208,62209,1,8,0:0:0:0:
367,299,62402,1,8,0:0:0:0:
367,299,62596,1,0,0:0:0:0:
380,289,62983,1,8,0:0:0:0:
406,312,63176,1,0,0:0:0:0:
216,195,63370,1,0,0:0:0:0:
406,312,63563,1,8,0:0:0:0:
425,320,64144,1,8,0:0:0:0:
416,319,64531,1,0,0:0:0:0:
416,319,64725,1,8,0:0:0:0:
418,308,64918,1,0,0:0:0:0:
424,318,65305,1,8,0:0:0:0:
394,304,65499,1,0,0:0:0:0:
394,304,65692,1,8,0:0:0:0:
438,311,66079,1,0,0:0:0:0:
438,311,66273,1,8,0:0:0:0:
231,212,66467,1,8,0:0:0:0:
437,341,66660,1,4,0:0:0:0:
424,310,67047,1,8,0:0:0:0:
424,310,67241,1,4,0:0:0:0:
401,268,68209,1,12,0:0:0:0:
275,189,68596,1,0,0:0:0:0:
201,267,68789,1,0,0:0:0:0:
342,251,68983,1,8,0:0:0:0:
214,209,69370,1,0,0:0:0:0:
380,274,69563,1,8,0:0:0:0:
382,287,69950,1,8,0:0:0:0:
401,309,70338,1,8,0:0:0:0:
366,293,70725,1,8,0:0:0:0:
281,251,70918,1,8,0:0:0:0:
281,251,71112,1,8,0:0:0:0:
366,293,71305,1,0,0:0:0:0:
348,296,71692,1,8,0:0:0:0:
348,296,71886,1,0,0:0:0:0:
348,296,72079,1,8,0:0:0:0:
362,298,72467,1,0,0:0:0:0:
362,298,72660,1,8,0:0:0:0:
415,312,73047,1,0,0:0:0:0:
295,210,73434,1,0,0:0:0:0:
390,298,74402,1,8,0:0:0:0:
249,194,74789,1,0,0:0:0:0:
288,197,74983,1,8,0:0:0:0:
249,194,75176,1,0,0:0:0:0:
249,194,75563,1,8,0:0:0:0:
228,187,75757,1,0,0:0:0:0:
228,187,76144,1,8,0:0:0:0:
402,298,76531,1,8,0:0:0:0:
206,187,76918,1,0,0:0:0:0:
251,213,77112,1,0,0:0:0:0:
320,267,77305,1,8,0:0:0:0:
388,290,77692,1,0,0:0:0:0:
319,258,77886,1,8,0:0:0:0:
210,142,78079,1,0,0:0:0:0:
210,142,78467,1,8,0:0:0:0:
210,142,78660,1,8,0:0:0:0:
210,142,78854,1,8,0:0:0:0:
416,328,79047,1,4,0:0:0:0:
403,315,79434,1,8,0:0:0:0:
388,308,79628,1,4,0:0:0:0:
401,268,80596,1,8,0:0:0:0:
219,226,80983,1,8,0:0:0:0:
219,226,81370,1,0,0:0:0:0:
369,266,81757,1,8,0:0:0:0:
424,296,82144,1,0,0:0:0:0:
426,293,82531,1,8,0:0:0:0:
426,293,82725,1,0,0:0:0:0:
412,290,83692,1,0,0:0:0:0:
415,302,84079,1,8,0:0:0:0:
439,313,84467,1,0,0:0:0:0:
396,291,84854,1,8,0:0:0:0:
441,340,85241,1,0,0:0:0:0:
426,320,85628,1,8,0:0:0:0:
426,320,85821,1,8,0:0:0:0:
350,248,86789,1,8,0:0:0:0:
301,259,87176,1,0,0:0:0:0:
301,259,87563,1,0,0:0:0:0:
302,253,87950,1,8,0:0:0:0:
437,288,88338,1,0,0:0:0:0:
408,317,88725,1,8,0:0:0:0:
408,317,88918,1,0,0:0:0:0:
443,338,89886,1,8,0:0:0:0:
241,223,90273,1,8,0:0:0:0:
374,291,90660,1,0,0:0:0:0:
423,316,90854,1,0,0:0:0:0:
423,316,91047,1,8,0:0:0:0:
411,305,91434,1,4,0:0:0:0:
407,286,91821,1,8,0:0:0:0:
431,329,92015,1,4,0:0:0:0:
424,294,92596,1,4,0:0:0:0:
426,316,92983,1,8,0:0:0:0:
216,194,93563,1,8,0:0:0:0:
224,197,94144,1,8,0:0:0:0:
330,268,94531,1,0,0:0:0:0:
330,268,94918,1,8,0:0:0:0:
330,268,95305,1,8,0:0:0:0:
360,294,95692,1,0,0:0:0:0:
360,294,96079,1,8,0:0:0:0:
438,326,96660,1,0,0:0:0:0:
438,326,97241,1,8,0:0:0:0:
415,312,97628,1,0,0:0:0:0:
415,312,98015,1,8,0:0:0:0:
227,193,98402,1,0,0:0:0:0:
429,319,98789,1,8,0:0:0:0:
429,319,99176,1,8,0:0:0:0:
417,326,99757,1,0,0:0:0:0:
211,137,100338,1,8,0:0:0:0:
386,278,100725,1,0,0:0:0:0:
386,278,101112,1,8,0:0:0:0:
386,278,101499,1,0,0:0:0:0:
415,315,101886,1,0,0:0:0:0:
415,315,102273,1,8,0:0:0:0:
421,315,103821,1,8,0:0:0:0:
421,315,104402,1,8,0:0:0:0:
425,317,104983,1,8,0:0:0:0:
203,196,105370,1,12,0:0:0:0:
208,197,105757,1,8,0:0:0:0:
362,290,106144,1,0,0:0:0:0:
362,290,106338,1,0,0:0:0:0:
387,307,106725,1,8,0:0:0:0:
387,307,106918,1,0,0:0:0:0:
302,212,107305,1,8,0:0:0:0:
314,255,107499,1,0,0:0:0:0:
405,284,107692,1,8,0:0:0:0:
249,242,108079,1,0,0:0:0:0:
396,313,108467,1,8,0:0:0:0:
284,222,108660,1,8,0:0:0:0:
232,239,108854,1,0,0:0:0:0:
422,329,109241,1,8,0:0:0:0:
392,309,109434,1,8,0:0:0:0:
399,309,109821,1,0,0:0:0:0:
409,317,110015,1,0,0:0:0:0:
411,314,110983,1,0,0:0:0:0:
129,191,111176,1,0,0:0:0:0:
202,229,111370,1,8,0:0:0:0:
246,237,111757,1,8,0:0:0:0:
430,316,111950,1,8,0:0:0:0:
427,318,112144,1,0,0:0:0:0:
410,316,112531,1,8,0:0:0:0:
410,316,112725,1,0,0:0:0:0:
258,228,112918,1,0,0:0:0:0:
410,316,113112,1,8,0:0:0:0:
400,307,113692,1,8,0:0:0:0:
423,337,114079,1,0,0:0:0:0:
423,337,114273,1,8,0:0:0:0:
270,226,114467,1,0,0:0:0:0:
313,264,114854,1,8,0:0:0:0:
313,264,115047,1,0,0:0:0:0:
313,264,115241,1,8,0:0:0:0:
396,293,115628,1,0,0:0:0:0:
396,293,115821,1,8,0:0:0:0:
281,212,116015,1,8,0:0:0:0:
432,324,116209,1,4,0:0:0:0:
432,324,116596,1,8,0:0:0:0:
432,324,116789,1,4,0:0:0:0:
426,341,117757,1,12,0:0:0:0:
260,196,118144,1,8,0:0:0:0:
359,299,118531,1,0,0:0:0:0:
359,299,118725,1,0,0:0:0:0:
370,296,119112,1,8,0:0:0:0:
419,308,119305,1,0,0:0:0:0:
230,219,119692,1,8,0:0:0:0:
266,211,119886,1,0,0:0:0:0:
236,205,120079,1,8,0:0:0:0:
248,207,120467,1,0,0:0:0:0:
343,262,120854,1,8,0:0:0:0:
246,190,121047,1,0,0:0:0:0:
313,269,121241,1,8,0:0:0:0:
329,253,121628,1,0,0:0:0:0:
329,253,121821,1,8,0:0:0:0:
329,253,122209,1,8,0:0:0:0:
250,223,122402,1,0,0:0:0:0:
373,297,123370,1,0,0:0:0:0:
373,297,123563,1,0,0:0:0:0:
351,284,123757,1,8,0:0:0:0:
255,208,124144,1,8,0:0:0:0:
367,299,124338,1,8,0:0:0:0:
367,299,124531,1,0,0:0:0:0:
380,289,124918,1,8,0:0:0:0:
406,312,125112,1,0,0:0:0:0:
214,204,125305,1,0,0:0:0:0:
406,312,125499,1,8,0:0:0:0:
425,320,126079,1,8,0:0:0:0:
416,319,126467,1,0,0:0:0:0:
416,319,126660,1,8,0:0:0:0:
418,308,126854,1,0,0:0:0:0:
424,318,127241,1,8,0:0:0:0:
394,304,127434,1,0,0:0:0:0:
394,304,127628,1,8,0:0:0:0:
438,311,128015,1,0,0:0:0:0:
438,311,128209,1,8,0:0:0:0:
256,221,128402,1,8,0:0:0:0:
437,341,128596,1,4,0:0:0:0:
424,310,128983,1,8,0:0:0:0:
424,310,129176,1,4,0:0:0:0:
401,268,130144,1,12,0:0:0:0:
275,189,130531,1,0,0:0:0:0:
201,267,130725,1,0,0:0:0:0:
342,251,130918,1,8,0:0:0:0:
214,209,131305,1,0,0:0:0:0:
380,274,131499,1,8,0:0:0:0:
382,287,131886,1,8,0:0:0:0:
401,309,132273,1,8,0:0:0:0:
366,293,132660,1,8,0:0:0:0:
281,251,132854,1,8,0:0:0:0:
281,251,133047,1,8,0:0:0:0:
366,293,133241,1,0,0:0:0:0:
348,296,133628,1,8,0:0:0:0:
348,296,133821,1,0,0:0:0:0:
348,296,134015,1,8,0:0:0:0:
362,298,134402,1,0,0:0:0:0:
362,298,134596,1,8,0:0:0:0:
415,312,134983,1,0,0:0:0:0:
295,210,135370,1,0,0:0:0:0:
390,298,136338,1,8,0:0:0:0:
249,194,136725,1,0,0:0:0:0:
288,197,136918,1,8,0:0:0:0:
249,194,137112,1,0,0:0:0:0:
249,194,137499,1,8,0:0:0:0:
228,187,137692,1,0,0:0:0:0:
228,187,138079,1,8,0:0:0:0:
402,298,138467,1,8,0:0:0:0:
206,187,138854,1,0,0:0:0:0:
251,213,139047,1,0,0:0:0:0:
320,267,139241,1,8,0:0:0:0:
388,290,139628,1,0,0:0:0:0:
319,258,139821,1,8,0:0:0:0:
210,142,140015,1,0,0:0:0:0:
210,142,140402,1,8,0:0:0:0:
210,142,140596,1,8,0:0:0:0:
210,142,140789,1,8,0:0:0:0:
416,328,140983,1,4,0:0:0:0:
403,315,141370,1,8,0:0:0:0:
388,308,141563,1,4,0:0:0:0:
401,268,142531,1,12,0:0:0:0:
275,189,142918,1,0,0:0:0:0:
201,267,143112,1,8,0:0:0:0:
342,251,143305,1,0,0:0:0:0:
214,209,143692,1,8,0:0:0:0:
380,274,143886,1,0,0:0:0:0:
382,287,144273,1,0,0:0:0:0:
401,309,144660,1,0,0:0:0:0:
366,293,145047,1,0,0:0:0:0:
281,251,145241,1,0,0:0:0:0:
281,251,145434,1,0,0:0:0:0:
366,293,145628,1,8,0:0:0:0:
348,296,146015,1,0,0:0:0:0:
348,296,146209,1,0,0:0:0:0:
348,296,146402,1,8,0:0:0:0:
362,298,146789,1,8,0:0:0:0:
362,298,146983,1,8,0:0:0:0:
365,285,147370,1,0,0:0:0:0:
295,210,147757,1,8,0:0:0:0:
390,298,148725,1,0,0:0:0:0:
249,194,149112,1,8,0:0:0:0:
288,197,149305,1,0,0:0:0:0:
249,194,149499,1,8,0:0:0:0:
228,187,149886,1,0,0:0:0:0:
249,194,150079,1,8,0:0:0:0:
228,187,150467,1,8,0:0:0:0:
402,298,150854,1,8,0:0:0:0:
206,187,151241,1,8,0:0:0:0:
251,213,151434,1,8,0:0:0:0:
320,267,151628,1,0,0:0:0:0:
388,290,152015,1,8,0:0:0:0:
319,258,152209,1,0,0:0:0:0:
210,142,152402,1,8,0:0:0:0:
210,142,152789,1,0,0:0:0:0:
210,142,152983,1,8,0:0:0:0:
210,142,153176,1,8,0:0:0:0:
416,328,153370,1,4,0:0:0:0:
403,315,153757,1,8,0:0:0:0:
388,308,153950,1,4,0:0:0:0:
401,268,154918,1,8,0:0:0:0:
285,235,158015,1,8,0:0:0:0:
322,248,161112,1,8,0:0:0:0:
330,243,164209,1,8,0:0:0:0:
284,238,167176,1,0,0:0:0:0:
