osu file format v14

[General]
AudioFilename: audio.mp3
AudioLeadIn: 0
PreviewTime: 89758
Countdown: 0
SampleSet: None
StackLeniency: 0.6
Mode: 0
LetterboxInBreaks: 1
WidescreenStoryboard: 1

[Editor]
Bookmarks: 12574,23608,34643,36022,40160,45677,67746,106367,128436,131195,133953
DistanceSpacing: 1
BeatDivisor: 4
GridSize: 4
TimelineZoom: 1

[Metadata]
Title:Somersaults
TitleUnicode:Somersaults
Artist:Logistics
ArtistUnicode:Logistics
Creator:Slips
Version:Extra [2016]
Source:
Tags:dnb drum and bass hospital records ukf
BeatmapID:2160196
BeatmapSetID:1033180

[Difficulty]
HPDrainRate:7
CircleSize:4
OverallDifficulty:9
ApproachRate:9.2
SliderMultiplier:1.6
SliderTickRate:1

[Events]
//Background and Video events
0,0,"impressionism_by_hangmoon-d8pxqcj[1].jpg",0,0
//Break Periods
2,23808,34073
//Storyboard Layer 0 (Background)
//Storyboard Layer 1 (Fail)
//Storyboard Layer 2 (Pass)
//Storyboard Layer 3 (Foreground)
//Storyboard Layer 4 (Overlay)
//Storyboard Sound Samples

[TimingPoints]
1540,344.827586206897,4,1,1,70,1,0
1971,-100,4,1,1,5,0,0
2057,-100,4,1,1,70,0,0
2833,-100,4,1,1,5,0,0
2919,-100,4,1,1,70,0,0
3350,-100,4,1,1,5,0,0
3436,-100,4,1,1,70,0,0
4212,-100,4,1,1,5,0,0
4298,-100,4,1,1,70,0,0
4729,-100,4,1,1,5,0,0
4815,-100,4,1,1,70,0,0
5591,-100,4,1,1,5,0,0
5677,-100,4,1,1,70,0,0
6108,-100,4,1,1,5,0,0
7057,-100,4,1,1,70,0,0
7488,-100,4,1,1,5,0,0
7574,-100,4,1,1,70,0,0
8350,-100,4,1,1,5,0,0
8436,-100,4,1,1,70,0,0
8867,-100,4,1,1,5,0,0
8953,-100,4,1,1,70,0,0
9729,-100,4,1,1,5,0,0
9815,-100,4,1,1,70,0,0
10246,-100,4,1,1,5,0,0
10333,-100,4,1,1,70,0,0
11108,-100,4,1,1,5,0,0
11195,-100,4,1,1,70,0,0
11626,-100,4,1,1,5,0,0
12574,-100,4,1,1,70,0,0
13005,-100,4,1,1,5,0,0
13091,-100,4,1,1,70,0,0
14384,-100,4,1,1,5,0,0
14471,-100,4,1,1,70,0,0
15246,-100,4,1,1,5,0,0
15333,-100,4,1,1,70,0,0
15764,-100,4,1,1,5,0,0
15850,-100,4,1,1,70,0,0
17143,-100,4,1,1,5,0,0
17229,-100,4,1,1,70,0,0
18522,-100,4,1,1,5,0,0
18608,-100,4,1,1,70,0,0
19902,-100,4,1,1,5,0,0
19988,-100,4,1,1,70,0,0
21281,-100,4,1,1,5,0,0
21367,-100,4,1,1,70,0,0
22660,-100,4,1,1,5,0,0
23608,-100,4,1,1,70,0,0

[Colours]
Combo1 : 244,204,128
Combo2 : 109,183,237
Combo3 : 255,51,56
Combo4 : 1,88,194

[HitObjects]
142,188,1540,6,0,B|296:168|296:168|263:199,1,200,4|0,3:1|0:0,0:0:0:0:
246,215,2057,1,0,0:0:0:0:
309,324,2229,1,0,0:0:0:0:
346,312,2315,1,0,0:0:0:0:
386,311,2402,1,0,0:0:0:0:
425,323,2488,1,0,0:0:0:0:
454,340,2574,2,0,P|469:288|446:217,1,120,0|0,0:0|0:0,0:0:0:0:
451,185,2919,38,0,B|396:120|437:33|437:33|455:58|466:94,1,200,0|0,0:0|0:0,0:0:0:0:
461,84,3436,2,0,P|424:91|366:78,1,80,0|0,0:0|0:0,0:0:0:0:
275,53,3781,1,0,0:0:0:0:
275,53,3953,2,0,P|290:105|267:176,1,120,0|0,0:0|0:0,0:0:0:0:
275,207,4298,6,0,B|220:272|261:359|261:359|279:334|290:298,1,200,0|0,0:0|0:0,0:0:0:0:
288,309,4815,2,0,P|247:317|198:308,1,80,0|0,0:0|0:0,0:0:0:0:
90,314,5160,1,0,0:0:0:0:
90,314,5333,2,0,P|73:251|97:185,1,120,0|0,0:0|0:0,0:0:0:0:
88,159,5677,38,0,B|143:94|102:7|102:7|84:32|73:68,1,200,0|0,0:0|0:0,0:0:0:0:
370,196,7057,6,0,B|216:216|216:216|249:185,1,200,0|0,0:0|0:0,0:0:0:0:
266,169,7574,1,0,0:0:0:0:
203,60,7746,1,0,0:0:0:0:
166,72,7833,1,0,0:0:0:0:
126,73,7919,1,0,0:0:0:0:
87,61,8005,1,0,0:0:0:0:
58,44,8091,2,0,P|43:96|66:167,1,120,0|0,0:0|0:0,0:0:0:0:
61,199,8436,38,0,B|116:264|75:351|75:351|57:326|46:290,1,200,0|0,0:0|0:0,0:0:0:0:
51,300,8953,2,0,P|88:293|146:306,1,80,0|0,0:0|0:0,0:0:0:0:
237,331,9298,1,0,0:0:0:0:
237,331,9471,2,0,P|222:279|245:208,1,120,0|0,0:0|0:0,0:0:0:0:
237,177,9815,6,0,B|292:112|251:25|251:25|233:50|222:86,1,200,0|0,0:0|0:0,0:0:0:0:
224,75,10333,2,0,P|265:67|314:76,1,80,0|0,0:0|0:0,0:0:0:0:
421,70,10677,1,0,0:0:0:0:
421,70,10850,2,0,P|438:133|414:199,1,120,0|0,0:0|0:0,0:0:0:0:
423,225,11195,38,0,B|368:290|409:377|409:377|427:352|438:316,1,200,0|0,0:0|0:0,0:0:0:0:
314,67,12574,5,0,0:0:0:0:
314,67,12660,1,0,0:0:0:0:
314,67,12746,2,0,B|267:82|217:68|217:68|173:81,1,120,0|0,0:0|0:0,0:0:0:0:
176,73,13091,1,0,0:0:0:0:
57,156,13264,1,0,0:0:0:0:
42,192,13350,1,0,0:0:0:0:
41,232,13436,1,0,0:0:0:0:
53,270,13522,1,0,0:0:0:0:
80,298,13608,2,0,P|125:290|175:306,1,80,0|0,0:0|0:0,0:0:0:0:
278,338,13953,38,0,B|343:283|430:324|430:324|405:342|369:353,1,200,0|0,0:0|0:0,0:0:0:0:
377,347,14471,2,0,P|364:301|374:255,1,80,0|0,0:0|0:0,0:0:0:0:
390,155,14815,1,0,0:0:0:0:
390,155,14988,2,0,P|328:140|269:153,1,120,0|0,0:0|0:0,0:0:0:0:
233,154,15333,6,0,B|168:209|81:168|81:168|106:150|142:139,1,200,0|0,0:0|0:0,0:0:0:0:
131,144,15850,2,0,P|123:189|139:236,1,80,0|0,0:0|0:0,0:0:0:0:
180,327,16195,1,0,0:0:0:0:
180,327,16367,2,0,P|226:319|286:338,1,80,0|0,0:0|0:0,0:0:0:0:
370,262,16712,38,0,B|315:197|356:110|356:110|374:135|385:171,1,200,0|0,0:0|0:0,0:0:0:0:
381,160,17229,2,0,P|341:169|277:149,1,80,0|0,0:0|0:0,0:0:0:0:
198,128,17574,1,0,0:0:0:0:
198,128,17746,2,0,L|130:192,1,80,0|0,0:0|0:0,0:0:0:0:
376,220,18091,6,0,B|222:240|222:240|255:209,1,200,0|0,0:0|0:0,0:0:0:0:
276,196,18608,1,0,0:0:0:0:
209,84,18781,1,0,0:0:0:0:
172,96,18867,1,0,0:0:0:0:
132,97,18953,1,0,0:0:0:0:
93,85,19040,1,0,0:0:0:0:
64,68,19126,2,0,P|36:112|44:168,1,80,0|0,0:0|0:0,0:0:0:0:
67,223,19471,38,0,B|122:288|81:375|81:375|63:350|52:314,1,200,0|0,0:0|0:0,0:0:0:0:
57,324,19988,2,0,P|94:317|152:330,1,80,0|0,0:0|0:0,0:0:0:0:
243,355,20333,1,0,0:0:0:0:
243,355,20505,2,0,P|216:316|228:252,1,80,0|0,0:0|0:0,0:0:0:0:
243,201,20850,6,0,B|298:136|257:49|257:49|239:74|228:110,1,200,0|0,0:0|0:0,0:0:0:0:
230,99,21367,2,0,P|271:110|320:100,1,80,0|0,0:0|0:0,0:0:0:0:
426,58,21712,1,0,0:0:0:0:
426,58,21884,2,0,P|451:104|447:148,1,80,0|0,0:0|0:0,0:0:0:0:
428,213,22229,38,0,B|373:278|414:365|414:365|432:340|443:304,1,200,0|0,0:0|0:0,0:0:0:0:
140,133,23608,5,4,3:1:0:0:
104,192,34643,38,0,P|184:204|276:176,1,160,0|0,0:0|0:0,0:0:0:0:
348,130,35160,1,0,0:0:0:0:
408,324,35333,1,0,0:0:0:0:
409,284,35419,1,0,0:0:0:0:
426,247,35505,1,0,0:0:0:0:
454,219,35591,1,0,0:0:0:0:
486,204,35677,1,0,0:0:0:0:
274,216,35850,1,0,0:0:0:0:
503,301,36022,6,0,P|426:290|345:306,1,160,0|0,0:0|0:0,0:0:0:0:
192,285,36540,2,0,P|158:249|111:241,1,80,0|0,0:0|0:0,0:0:0:0:
224,136,36884,1,0,0:0:0:0:
117,327,37057,1,0,0:0:0:0:
97,103,37229,1,0,0:0:0:0:
39,271,37402,37,0,0:0:0:0:
175,68,37574,1,0,0:0:0:0:
223,217,37746,1,0,0:0:0:0:
63,35,37919,2,0,B|71:90|72:152|72:152|74:121|88:104,1,160,0|0,0:0|0:0,0:0:0:0:
326,91,38436,1,0,0:0:0:0:
154,156,38608,1,0,0:0:0:0:
330,231,38781,6,0,P|280:242|241:289,1,80,0|0,0:0|0:0,0:0:0:0:
310,85,39126,1,0,0:0:0:0:
125,69,39298,2,0,B|101:126|134:190|134:190|134:160|145:143,1,160,0|0,0:0|0:0,0:0:0:0:
325,179,39815,2,0,P|335:226|324:268,1,80,0|0,0:0|0:0,0:0:0:0:
456,108,40160,37,0,3:0:0:0:
412,316,40333,1,0,3:0:0:0:
351,63,40505,1,0,3:0:0:0:
357,235,40677,1,0,3:0:0:0:
432,15,40850,1,0,3:0:0:0:
483,235,41022,1,0,3:0:0:0:
458,11,41195,1,0,3:0:0:0:
221,128,41367,1,0,3:0:0:0:
469,242,41540,6,0,B|446:248|446:248|416:234|366:241,1,80,0|0,3:0|3:0,0:0:0:0:
398,347,41884,1,0,3:0:0:0:
331,61,42057,1,0,3:0:0:0:
252,268,42229,1,0,3:0:0:0:
431,100,42402,1,0,3:0:0:0:
163,133,42574,1,0,3:0:0:0:
431,100,42746,1,0,3:0:0:0:
413,251,42919,37,0,3:0:0:0:
239,93,43091,1,0,3:0:0:0:
298,306,43264,1,0,3:0:0:0:
329,31,43436,1,0,3:0:0:0:
252,227,43608,2,0,P|283:253|296:308,1,80,0|0,3:0|3:0,0:0:0:0:
414,158,43953,1,0,3:0:0:0:
210,305,44126,1,0,3:0:0:0:
256,192,44298,12,0,45333,3:0:0:0:
114,149,45677,37,4,3:1:0:0:
215,19,45850,1,0,3:0:0:0:
285,294,46022,2,0,B|315:244|313:175|313:175|306:199|287:216,1,160,8|0,0:0|0:0,0:0:0:0:
405,260,46540,1,0,3:0:0:0:
127,258,46712,2,0,P|170:264|209:250,1,80,8|0,0:0|0:0,0:0:0:0:
438,154,47057,37,0,3:0:0:0:
273,18,47229,1,0,3:0:0:0:
283,282,47402,2,0,P|288:236|262:192,1,80,8|0,0:0|0:0,0:0:0:0:
269,168,47660,1,0,0:0:0:0:
245,173,47746,1,0,0:0:0:0:
221,173,47833,1,0,0:0:0:0:
198,167,47919,1,0,3:0:0:0:
283,10,48091,2,0,P|323:24|367:25,1,80,8|0,0:0|0:0,0:0:0:0:
278,264,48436,5,0,3:0:0:0:
382,24,48608,1,0,3:0:0:0:
235,84,48781,1,8,0:0:0:0:
447,273,48953,2,0,B|404:290|364:275|371:261|312:253|268:285,1,160,0|0,0:0|3:0,0:0:0:0:
361,32,49471,1,8,0:0:0:0:
332,350,49643,1,0,0:0:0:0:
169,117,49815,38,0,P|178:161|165:207,1,80,0|0,3:0|3:0,0:0:0:0:
205,310,50160,1,8,0:0:0:0:
354,140,50333,1,0,0:0:0:0:
380,148,50419,1,0,0:0:0:0:
408,149,50505,1,0,0:0:0:0:
436,144,50591,1,0,0:0:0:0:
461,133,50677,1,0,3:0:0:0:
299,63,50850,2,0,P|272:95|263:148,1,80,8|0,0:0|0:0,0:0:0:0:
128,66,51195,5,0,3:0:0:0:
354,140,51367,1,0,3:0:0:0:
196,281,51540,2,0,P|208:239|197:195,1,80,8|0,0:0|0:0,0:0:0:0:
196,184,51798,1,0,0:0:0:0:
189,160,51884,1,0,0:0:0:0:
189,137,51971,1,0,0:0:0:0:
194,113,52057,1,0,3:0:0:0:
117,242,52229,1,8,0:0:0:0:
334,144,52402,1,0,0:0:0:0:
203,29,52574,37,0,3:0:0:0:
230,325,52746,1,0,3:0:0:0:
106,228,52919,2,0,B|163:239|227:213|227:213|202:215|179:203,1,160,8|0,0:0|0:0,0:0:0:0:
39,172,53436,2,0,P|21:213|31:264,1,80,0|8,3:0|0:0,0:0:0:0:
227,127,53781,1,0,0:0:0:0:
82,313,53953,5,0,3:0:0:0:
161,52,54126,1,0,3:0:0:0:
239,273,54298,2,0,P|285:278|329:252,1,80,8|0,0:0|0:0,0:0:0:0:
353,259,54557,1,0,0:0:0:0:
348,235,54643,1,0,0:0:0:0:
348,211,54729,1,0,0:0:0:0:
354,188,54815,1,0,3:0:0:0:
212,141,54988,1,8,0:0:0:0:
440,226,55160,1,0,0:0:0:0:
347,354,55333,37,0,3:0:0:0:
306,38,55505,1,0,3:0:0:0:
479,130,55677,1,8,0:0:0:0:
207,162,55850,1,0,0:0:0:0:
246,157,55936,1,0,0:0:0:0:
286,153,56022,1,0,0:0:0:0:
436,243,56195,2,0,P|433:292|414:321,1,80,0|8,3:0|0:0,0:0:0:0:
287,52,56540,1,0,0:0:0:0:
256,311,56712,6,0,B|231:262|231:262|227:206|227:206|205:157,1,160,0|8,3:0|0:0,0:0:0:0:
326,237,57229,1,0,0:0:0:0:
46,217,57402,1,0,0:0:0:0:
161,88,57574,1,0,3:0:0:0:
178,331,57746,2,0,B|155:288|155:288|151:239,1,80,8|0,0:0|0:0,0:0:0:0:
392,149,58091,37,0,3:0:0:0:
55,201,58264,1,0,3:0:0:0:
234,39,58436,2,0,P|246:81|235:125,1,80,8|0,0:0|0:0,0:0:0:0:
234,136,58695,1,0,0:0:0:0:
227,160,58781,1,0,0:0:0:0:
227,183,58867,1,0,0:0:0:0:
232,207,58953,1,0,3:0:0:0:
57,116,59126,1,8,0:0:0:0:
313,175,59298,1,0,0:0:0:0:
44,241,59471,5,0,3:0:0:0:
173,336,59643,1,0,3:0:0:0:
138,52,59815,1,8,0:0:0:0:
57,256,59988,2,0,B|100:273|140:258|133:244|192:236|236:268,1,160,0|0,0:0|3:0,0:0:0:0:
153,53,60505,1,8,0:0:0:0:
157,340,60677,1,0,0:0:0:0:
367,113,60850,38,0,P|327:104|269:119,1,80,0|0,3:0|3:0,0:0:0:0:
205,168,61195,1,8,0:0:0:0:
86,54,61367,1,0,0:0:0:0:
92,81,61453,1,0,0:0:0:0:
92,109,61540,1,0,0:0:0:0:
84,136,61626,1,0,0:0:0:0:
71,160,61712,1,0,3:0:0:0:
236,46,61884,1,8,0:0:0:0:
3,95,62057,1,0,0:0:0:0:
184,251,62229,6,0,B|231:232|295:235|295:235|271:253|258:283,1,160,0|8,3:0|0:0,0:0:0:0:
239,65,62746,2,0,L|233:115,1,40,0|0,0:0|0:0,0:0:0:0:
264,270,62919,2,0,L|270:320,1,40,0|0,0:0|0:0,0:0:0:0:
244,80,63091,2,0,L|238:130,1,40,0|0,3:0|0:0,0:0:0:0:
272,280,63264,2,0,L|278:330,1,40,8|0,0:0|0:0,0:0:0:0:
334,134,63436,1,0,0:0:0:0:
43,180,63608,37,0,3:0:0:0:
178,21,63781,1,0,3:0:0:0:
156,271,63953,1,8,0:0:0:0:
87,26,64126,1,0,0:0:0:0:
304,25,64298,1,0,0:0:0:0:
54,198,64471,1,0,3:0:0:0:
302,134,64643,1,8,0:0:0:0:
22,85,64815,1,0,0:0:0:0:
291,220,64988,6,0,B|320:170|318:101|318:101|311:125|292:142,1,160,0|8,3:0|0:0,0:0:0:0:
103,98,65505,1,0,0:0:0:0:
110,137,65591,1,0,0:0:0:0:
117,176,65677,1,0,0:0:0:0:
124,216,65764,1,0,0:0:0:0:
132,254,65850,2,0,L|42:228,1,80,0|8,3:0|0:0,0:0:0:0:
233,74,66195,1,0,0:0:0:0:
212,307,66367,38,0,P|295:286|377:296,1,160,0|8,3:0|0:0,0:0:0:0:
426,140,66884,2,0,P|435:99|416:56,1,80,0|0,0:0|0:0,0:0:0:0:
412,24,67143,1,0,0:0:0:0:
389,31,67229,1,0,3:0:0:0:
365,33,67315,1,0,0:0:0:0:
341,30,67402,1,8,0:0:0:0:
172,120,67574,1,0,0:0:0:0:
172,120,67660,1,0,0:0:0:0:
172,120,67746,6,0,B|183:167|183:167|178:223|178:223|194:275,1,160,4|8,3:1|0:0,0:0:0:0:
76,177,68264,1,0,0:0:0:0:
271,215,68436,1,0,0:0:0:0:
208,31,68608,1,0,3:0:0:0:
212,290,68781,2,0,P|247:309|294:308,1,80,8|0,0:0|0:0,0:0:0:0:
88,330,69126,37,0,3:0:0:0:
371,271,69298,1,0,3:0:0:0:
269,196,69471,1,8,0:0:0:0:
178,344,69643,1,0,0:0:0:0:
178,304,69729,1,0,0:0:0:0:
157,271,69815,1,0,0:0:0:0:
186,95,69988,1,0,3:0:0:0:
285,198,70160,2,0,L|366:183,1,80,8|0,0:0|0:0,0:0:0:0:
202,98,70505,6,0,P|163:112|92:100,1,80,0|0,3:0|3:0,0:0:0:0:
26,67,70850,1,8,0:0:0:0:
105,239,71022,1,0,0:0:0:0:
114,265,71108,1,0,0:0:0:0:
116,293,71195,1,0,0:0:0:0:
112,320,71281,1,0,0:0:0:0:
100,346,71367,1,0,3:0:0:0:
260,219,71540,1,8,0:0:0:0:
21,290,71712,1,0,0:0:0:0:
140,58,71884,38,0,P|131:99|149:157,1,80,0|0,3:0|3:0,0:0:0:0:
135,245,72229,1,8,0:0:0:0:
295,168,72402,1,0,0:0:0:0:
321,159,72488,1,0,0:0:0:0:
349,157,72574,1,0,0:0:0:0:
377,162,72660,1,0,0:0:0:0:
403,168,72746,2,0,P|442:178|496:166,1,80,0|8,3:0|0:0,0:0:0:0:
371,335,73091,1,0,0:0:0:0:
448,78,73264,6,0,P|434:145|456:249,1,160,0|8,3:0|0:0,0:0:0:0:
264,41,73781,2,0,P|271:86|260:136,1,80,0|0,0:0|0:0,0:0:0:0:
350,317,74126,1,0,3:0:0:0:
342,277,74212,1,0,0:0:0:0:
335,238,74298,1,8,0:0:0:0:
437,62,74471,1,0,0:0:0:0:
179,82,74643,37,0,3:0:0:0:
414,180,74815,1,0,3:0:0:0:
283,8,74988,1,8,0:0:0:0:
305,262,75160,2,0,B|330:209|321:141|321:141|317:165|299:185,1,160,0|0,0:0|3:0,0:0:0:0:
431,193,75677,1,8,0:0:0:0:
150,207,75850,1,0,0:0:0:0:
300,44,76022,5,0,3:0:0:0:
359,335,76195,1,0,3:0:0:0:
423,91,76367,1,8,0:0:0:0:
159,219,76540,2,0,L|247:207,1,80,0|0,0:0|0:0,0:0:0:0:
254,205,76798,1,0,0:0:0:0:
273,202,76884,1,0,3:0:0:0:
181,80,77057,1,8,0:0:0:0:
341,348,77229,1,0,0:0:0:0:
78,279,77402,37,0,3:0:0:0:
362,230,77574,2,0,P|366:189|341:139,1,80,0|8,3:0|0:0,0:0:0:0:
210,81,77919,1,0,0:0:0:0:
184,93,78005,1,0,0:0:0:0:
157,99,78091,1,0,0:0:0:0:
129,99,78177,1,0,0:0:0:0:
102,94,78264,1,0,3:0:0:0:
92,291,78436,1,8,0:0:0:0:
148,11,78608,1,0,0:0:0:0:
3,190,78781,5,0,3:0:0:0:
276,151,78953,1,0,3:0:0:0:
101,80,79126,2,0,B|84:122|99:163|113:156|121:215|89:259,1,160,8|0,0:0|0:0,0:0:0:0:
189,112,79643,1,0,3:0:0:0:
20,195,79815,1,8,0:0:0:0:
255,302,79988,1,0,0:0:0:0:
111,70,80160,38,0,P|102:113|116:161,1,80,0|0,3:0|3:0,0:0:0:0:
79,261,80505,1,8,0:0:0:0:
266,173,80677,1,0,0:0:0:0:
292,164,80764,1,0,0:0:0:0:
320,160,80850,1,0,0:0:0:0:
348,162,80936,1,0,0:0:0:0:
375,169,81022,1,0,3:0:0:0:
249,47,81195,1,8,0:0:0:0:
332,268,81367,1,0,0:0:0:0:
332,268,81453,1,0,0:0:0:0:
332,268,81540,6,0,B|284:262|284:262|233:238|233:238|178:235,1,160,0|8,3:0|0:0,0:0:0:0:
251,74,82057,2,0,P|291:87|345:75,1,80,0|0,0:0|0:0,0:0:0:0:
316,180,82402,1,0,3:0:0:0:
297,0,82574,1,8,0:0:0:0:
223,214,82746,1,0,0:0:0:0:
281,7,82919,37,0,3:0:0:0:
316,311,83091,1,0,3:0:0:0:
214,117,83264,2,0,P|170:123|128:107,1,80,8|0,0:0|0:0,0:0:0:0:
118,106,83522,1,0,0:0:0:0:
95,96,83608,1,0,0:0:0:0:
72,93,83695,1,0,0:0:0:0:
47,95,83781,1,0,3:0:0:0:
88,325,83953,2,0,L|169:308,1,80,8|0,0:0|0:0,0:0:0:0:
502,274,84298,6,0,P|424:274|338:238,1,160,0|8,3:0|0:0,0:0:0:0:
239,262,84815,1,0,0:0:0:0:
61,166,84988,1,0,0:0:0:0:
78,130,85074,1,0,0:0:0:0:
85,91,85160,1,0,3:0:0:0:
82,51,85246,1,0,0:0:0:0:
67,14,85333,1,8,0:0:0:0:
235,65,85505,1,0,0:0:0:0:
149,270,85677,37,0,3:0:0:0:
99,34,85850,1,0,3:0:0:0:
61,303,86022,1,8,0:0:0:0:
232,152,86195,2,0,B|257:99|248:31|248:31|244:55|226:75,1,160,0|0,0:0|3:0,0:0:0:0:
85,124,86712,1,8,0:0:0:0:
390,80,86884,1,0,0:0:0:0:
122,211,87057,5,0,3:0:0:0:
408,244,87229,1,0,3:0:0:0:
110,225,87402,1,8,0:0:0:0:
308,54,87574,2,0,P|305:98|326:139,1,80,0|0,0:0|0:0,0:0:0:0:
128,116,87919,1,0,3:0:0:0:
399,79,88091,1,8,0:0:0:0:
321,289,88264,1,0,0:0:0:0:
198,59,88436,38,0,P|215:97|207:148,1,80,0|0,3:0|3:0,0:0:0:0:
176,293,88781,1,8,0:0:0:0:
112,127,88953,1,0,0:0:0:0:
384,192,89126,1,0,0:0:0:0:
348,174,89212,1,0,0:0:0:0:
308,172,89298,1,0,3:0:0:0:
289,41,89471,1,8,0:0:0:0:
323,300,89643,1,0,0:0:0:0:
323,300,89729,1,0,0:0:0:0:
323,300,89815,6,0,P|243:284|151:302,1,160,4|8,3:1|0:0,0:0:0:0:
113,80,90333,2,0,P|109:124|125:167,1,80,0|0,0:0|0:0,0:0:0:0:
270,175,90677,1,0,3:0:0:0:
31,139,90850,1,8,0:0:0:0:
227,78,91022,1,0,0:0:0:0:
27,160,91195,38,0,P|40:209|68:238,1,80,0|0,3:0|3:0,0:0:0:0:
217,288,91540,1,8,0:0:0:0:
223,63,91712,2,0,B|184:47|184:47|137:43,1,80,0|0,0:0|0:0,0:0:0:0:
233,295,92057,2,0,B|272:311|272:311|319:315,1,80,0|8,3:0|0:0,0:0:0:0:
426,106,92402,1,0,0:0:0:0:
237,179,92574,5,0,3:0:0:0:
501,242,92746,1,0,3:0:0:0:
351,24,92919,2,0,P|364:70|353:113,1,80,8|0,0:0|0:0,0:0:0:0:
362,146,93177,1,0,0:0:0:0:
339,139,93264,1,0,0:0:0:0:
315,137,93350,1,0,0:0:0:0:
291,140,93436,1,0,3:0:0:0:
352,320,93608,2,0,L|443:302,1,80,8|0,0:0|0:0,0:0:0:0:
213,267,93953,38,0,P|129:278|56:255,1,160,0|8,3:0|0:0,0:0:0:0:
180,361,94471,1,0,0:0:0:0:
146,98,94643,1,0,0:0:0:0:
41,323,94815,1,0,3:0:0:0:
60,82,94988,1,8,0:0:0:0:
181,343,95160,1,0,0:0:0:0:
251,97,95333,6,0,B|198:123|130:117|130:117|154:112|173:93,1,160,0|8,3:0|0:0,0:0:0:0:
336,235,95850,2,0,P|331:282|345:324,1,80,0|0,0:0|0:0,0:0:0:0:
204,239,96195,1,0,3:0:0:0:
431,270,96367,1,8,0:0:0:0:
242,373,96540,1,0,0:0:0:0:
370,81,96712,37,0,3:0:0:0:
338,384,96884,1,0,3:0:0:0:
378,190,97057,2,0,B|330:184|330:184|279:160|279:160|224:157,1,160,8|0,0:0|0:0,0:0:0:0:
248,262,97574,1,0,3:0:0:0:
360,61,97746,1,8,0:0:0:0:
95,136,97919,1,0,0:0:0:0:
219,16,98091,6,0,P|211:63|228:118,1,80,0|0,3:0|3:0,0:0:0:0:
204,205,98436,1,8,0:0:0:0:
389,150,98608,1,0,0:0:0:0:
410,168,98695,1,0,0:0:0:0:
434,181,98781,1,0,0:0:0:0:
461,189,98867,1,0,0:0:0:0:
489,190,98953,1,0,3:0:0:0:
339,61,99126,2,0,P|305:91|291:149,1,80,8|0,0:0|0:0,0:0:0:0:
149,93,99471,37,0,3:0:0:0:
202,341,99643,1,0,3:0:0:0:
294,169,99815,2,0,P|250:163|208:179,1,80,8|0,0:0|0:0,0:0:0:0:
198,180,100074,1,0,0:0:0:0:
175,190,100160,1,0,0:0:0:0:
152,193,100246,1,0,0:0:0:0:
127,191,100333,1,0,0:0:0:0:
259,259,100505,1,8,0:0:0:0:
307,7,100677,1,0,0:0:0:0:
444,131,100850,6,0,P|431:209|452:301,1,160,0|8,3:0|0:0,0:0:0:0:
218,292,101367,2,0,P|259:298|301:288,1,80,0|0,0:0|0:0,0:0:0:0:
269,127,101712,1,0,3:0:0:0:
313,366,101884,1,8,0:0:0:0:
348,181,102057,1,0,0:0:0:0:
91,232,102229,37,0,3:0:0:0:
378,282,102402,1,0,3:0:0:0:
181,142,102574,2,0,P|170:103|181:57,1,80,8|0,0:0|0:0,0:0:0:0:
176,32,102833,1,0,0:0:0:0:
198,40,102919,1,0,0:0:0:0:
222,43,103005,1,0,0:0:0:0:
246,41,103091,1,0,3:0:0:0:
416,94,103264,2,0,P|430:133|420:186,1,80,8|0,0:0|0:0,0:0:0:0:
278,301,103608,5,0,3:0:0:0:
254,47,103781,1,0,3:0:0:0:
153,144,103953,1,8,0:0:0:0:
358,224,104126,1,0,0:0:0:0:
385,227,104212,1,0,0:0:0:0:
413,223,104298,1,0,0:0:0:0:
438,212,104384,1,0,0:0:0:0:
460,194,104471,1,0,3:0:0:0:
253,62,104643,2,0,B|221:95|221:95|193:154,1,80,8|0,0:0|0:0,0:0:0:0:
74,62,104988,37,0,3:0:0:0:
309,148,105160,1,0,3:0:0:0:
96,228,105333,1,8,0:0:0:0:
238,71,105505,2,0,B|296:78|358:48|358:48|333:52|309:41,1,160,0|0,0:0|3:0,0:0:0:0:
371,283,106022,1,8,0:0:0:0:
315,26,106195,1,0,0:0:0:0:
212,142,106367,5,0,3:0:0:0:
499,109,106540,1,0,3:0:0:0:
353,288,106712,2,0,P|312:279|268:237,1,80,8|0,0:0|0:0,0:0:0:0:
413,70,107057,2,0,P|454:79|498:121,1,80,0|0,0:0|3:0,0:0:0:0:
465,291,107402,1,8,0:0:0:0:
499,109,107574,1,0,0:0:0:0:
354,279,107746,37,0,3:0:0:0:
353,25,107919,1,0,3:0:0:0:
501,133,108091,2,0,P|457:124|412:138,1,80,8|0,0:0|0:0,0:0:0:0:
379,133,108350,1,0,0:0:0:0:
390,153,108436,1,0,0:0:0:0:
395,177,108522,1,0,0:0:0:0:
394,201,108608,1,0,3:0:0:0:
244,258,108781,1,8,0:0:0:0:
172,29,108953,1,0,0:0:0:0:
19,143,109126,5,0,3:0:0:0:
307,181,109298,1,0,3:0:0:0:
155,34,109471,2,0,B|150:86|150:86|163:139|163:139|156:199,1,160,8|0,0:0|0:0,0:0:0:0:
315,358,109988,1,0,3:0:0:0:
281,337,110074,1,0,0:0:0:0:
257,304,110160,1,8,0:0:0:0:
87,344,110333,1,0,0:0:0:0:
361,270,110505,37,0,3:0:0:0:
8,216,110677,1,0,3:0:0:0:
137,116,110850,1,8,0:0:0:0:
207,358,111022,1,0,0:0:0:0:
233,349,111108,1,0,0:0:0:0:
261,347,111195,1,0,0:0:0:0:
289,352,111281,1,0,0:0:0:0:
315,358,111367,2,0,P|354:368|408:356,1,80,0|8,3:0|0:0,0:0:0:0:
456,211,111712,1,0,0:0:0:0:
456,211,111798,1,0,0:0:0:0:
456,211,111884,6,0,P|423:174|423:113,1,80,4|0,3:1|3:0,0:0:0:0:
155,168,112229,1,8,0:0:0:0:
504,141,112402,1,0,0:0:0:0:
256,17,112574,1,0,0:0:0:0:
359,277,112746,1,0,3:0:0:0:
389,22,112919,2,0,L|380:103,1,80,8|0,0:0|0:0,0:0:0:0:
233,289,113264,38,0,P|232:249|210:210,1,80,0|0,3:0|3:0,0:0:0:0:
401,200,113608,1,8,0:0:0:0:
150,275,113781,1,0,0:0:0:0:
355,286,113953,2,0,B|382:252|382:252|398:207,1,80,0|0,0:0|3:0,0:0:0:0:
231,59,114298,1,8,0:0:0:0:
252,328,114471,1,0,0:0:0:0:
85,190,114643,5,0,3:0:0:0:
458,271,114815,1,0,3:0:0:0:
225,78,114988,2,0,P|221:124|241:166,1,80,8|0,0:0|0:0,0:0:0:0:
471,113,115333,1,0,0:0:0:0:
312,277,115505,1,0,3:0:0:0:
412,36,115677,2,0,P|369:27|320:40,1,80,8|0,0:0|0:0,0:0:0:0:
227,288,116022,37,0,3:0:0:0:
249,48,116195,1,0,3:0:0:0:
86,183,116367,2,0,P|116:212|168:220,1,80,8|0,0:0|0:0,0:0:0:0:
370,206,116712,1,0,0:0:0:0:
370,206,116798,1,0,0:0:0:0:
370,206,116884,1,0,3:0:0:0:
267,34,117057,1,8,0:0:0:0:
142,308,117229,1,0,0:0:0:0:
359,297,117402,6,0,B|320:280|320:280|286:246,1,80,0|0,3:0|3:0,0:0:0:0:
283,29,117746,2,0,B|322:46|322:46|356:80,1,80,8|0,0:0|0:0,0:0:0:0:
203,239,118091,1,0,0:0:0:0:
380,184,118264,1,0,3:0:0:0:
146,61,118436,1,8,0:0:0:0:
364,93,118608,1,0,0:0:0:0:
192,254,118781,38,0,P|236:243|299:260,1,80,0|0,3:0|3:0,0:0:0:0:
260,86,119126,1,8,0:0:0:0:
239,336,119298,1,0,0:0:0:0:
136,120,119471,1,0,0:0:0:0:
55,326,119643,1,0,3:0:0:0:
307,165,119815,2,0,P|263:177|204:160,1,80,8|0,0:0|0:0,0:0:0:0:
65,340,120160,6,0,L|158:329,1,80,0|0,3:0|3:0,0:0:0:0:
120,128,120505,2,0,L|27:117,1,80,8|0,0:0|0:0,0:0:0:0:
248,81,120850,1,0,0:0:0:0:
248,81,120936,1,0,0:0:0:0:
248,81,121022,1,0,3:0:0:0:
149,242,121195,1,8,0:0:0:0:
110,5,121367,1,0,0:0:0:0:
36,150,121540,37,0,3:0:0:0:
350,167,121712,1,0,3:0:0:0:
196,11,121884,1,8,0:0:0:0:
83,234,122057,1,0,0:0:0:0:
361,149,122229,2,0,P|352:194|374:240,1,80,0|0,0:0|3:0,0:0:0:0:
157,141,122574,1,8,0:0:0:0:
438,182,122746,1,0,0:0:0:0:
210,16,122919,6,0,L|222:105,1,80,0|0,3:0|3:0,0:0:0:0:
72,57,123264,1,8,0:0:0:0:
352,44,123436,1,0,0:0:0:0:
141,152,123608,1,0,0:0:0:0:
368,203,123781,1,0,3:0:0:0:
228,11,123953,1,8,0:0:0:0:
194,297,124126,1,0,0:0:0:0:
352,190,124298,38,0,P|309:195|267:174,1,80,0|0,3:0|3:0,0:0:0:0:
296,349,124643,1,8,0:0:0:0:
325,101,124815,1,0,0:0:0:0:
178,278,124988,1,0,0:0:0:0:
431,240,125160,1,0,3:0:0:0:
210,94,125333,2,0,L|196:179,1,80,8|0,0:0|0:0,0:0:0:0:
434,332,125677,6,0,L|420:253,1,80,0|0,3:0|3:0,0:0:0:0:
252,343,126022,1,8,0:0:0:0:
499,243,126195,1,0,0:0:0:0:
308,147,126367,1,0,0:0:0:0:
446,344,126540,1,0,3:0:0:0:
404,88,126712,1,8,0:0:0:0:
341,375,126884,1,0,0:0:0:0:
295,159,127057,38,0,P|255:175|201:167,1,80,0|0,3:0|3:0,0:0:0:0:
30,109,127402,1,8,0:0:0:0:
199,167,127574,1,0,0:0:0:0:
232,5,127746,2,0,B|243:47|243:47|243:97,1,80,0|0,0:0|3:0,0:0:0:0:
391,77,128091,1,8,0:0:0:0:
146,61,128264,1,0,0:0:0:0:
332,176,128436,5,0,3:0:0:0:
61,206,128608,1,0,3:0:0:0:
221,322,128781,2,0,B|258:303|258:303|289:268,1,80,8|0,0:0|0:0,0:0:0:0:
135,141,129126,2,0,B|98:160|98:160|67:195,1,80,0|0,0:0|3:0,0:0:0:0:
109,374,129471,1,8,0:0:0:0:
61,206,129643,1,0,0:0:0:0:
184,307,129815,37,0,3:0:0:0:
81,187,129988,1,0,3:0:0:0:
45,323,130160,1,8,0:0:0:0:
250,212,130333,1,0,0:0:0:0:
68,184,130505,2,0,P|34:209|-26:207,1,80,0|0,0:0|3:0,0:0:0:0:
52,338,130850,1,8,0:0:0:0:
6,128,131022,1,0,0:0:0:0:
307,145,131195,5,0,3:0:0:0:
256,192,131281,12,4,133953,3:1:0:0:
