osu file format v14

[General]
AudioFilename: audio.mp3
AudioLeadIn: 0
PreviewTime: -1
Countdown: 1
SampleSet: None
StackLeniency: 0.7
Mode: 0
LetterboxInBreaks: 0
WidescreenStoryboard: 0

[Editor]
DistanceSpacing: 0.8
BeatDivisor: 1
GridSize: 32
TimelineZoom: 0.1

[Metadata]
Title:Stainless
TitleUnicode:Stainless
Artist:Logic
ArtistUnicode:Logic
Creator:JAGG3R
Version:Easy
Source:
Tags:
BeatmapID:1577628
BeatmapSetID:748926

[Difficulty]
HPDrainRate:4
CircleSize:5
OverallDifficulty:5
ApproachRate:5
SliderMultiplier:1.4
SliderTickRate:3

[Events]
//Background and Video events
//Break Periods
2,34012,39898
2,72158,81473
2,147592,159908
//Storyboard Layer 0 (Background)
//Storyboard Layer 1 (Fail)
//Storyboard Layer 2 (Pass)
//Storyboard Layer 3 (Foreground)
//Storyboard Sound Samples

[TimingPoints]
3809.99757441895,428.605457362159,4,1,0,100,1,0

[Colours]
Combo1 : 255,192,0
Combo2 : 0,202,0
Combo3 : 18,124,255
Combo4 : 242,24,57

[HitObjects]
128,128,14096,5,0,0:0:0:0:
128,224,15382,1,0,0:0:0:0:
256,32,16239,1,0,0:0:0:0:
224,288,17096,1,0,0:0:0:0:
192,192,17525,1,0,0:0:0:0:
352,32,18382,1,0,0:0:0:0:
256,256,19239,1,0,0:0:0:0:
256,64,20097,1,0,0:0:0:0:
192,160,20525,1,0,0:0:0:0:
320,352,21382,1,0,0:0:0:0:
224,192,22240,1,0,0:0:0:0:
288,160,22668,1,0,0:0:0:0:
192,96,23097,1,0,0:0:0:0:
416,160,23954,1,0,0:0:0:0:
224,128,24811,1,0,0:0:0:0:
352,256,25668,1,0,0:0:0:0:
288,224,26097,1,0,0:0:0:0:
256,160,27383,1,0,0:0:0:0:
320,128,27811,1,0,0:0:0:0:
160,192,28669,1,0,0:0:0:0:
352,224,29526,1,0,0:0:0:0:
256,160,29954,1,0,0:0:0:0:
192,64,30383,1,0,0:0:0:0:
288,128,30812,1,0,0:0:0:0:
128,288,31669,1,0,0:0:0:0:
192,192,32097,1,0,0:0:0:0:
96,96,32526,1,0,0:0:0:0:
224,128,32955,1,0,0:0:0:0:
352,96,33383,1,0,0:0:0:0:
288,192,33812,1,0,0:0:0:0:
128,96,41098,6,0,P|352:96|192:224,6,560
128,160,54814,6,0,B|-160:160|224:192,4,280
224,128,60385,1,0,0:0:0:0:
224,224,60814,1,0,0:0:0:0:
160,160,61243,1,0,0:0:0:0:
256,160,61671,1,0,0:0:0:0:
192,384,62528,1,0,0:0:0:0:
352,128,63814,1,0,0:0:0:0:
256,160,64243,1,0,0:0:0:0:
224,256,64671,1,0,0:0:0:0:
320,224,65100,1,0,0:0:0:0:
128,128,65957,1,0,0:0:0:0:
288,128,66386,1,0,0:0:0:0:
352,288,67243,1,0,0:0:0:0:
256,224,67672,1,0,0:0:0:0:
256,128,68529,1,0,0:0:0:0:
192,160,68958,1,0,0:0:0:0:
256,224,69386,1,0,0:0:0:0:
256,160,69815,1,0,0:0:0:0:
64,256,70672,1,0,0:0:0:0:
160,224,71101,1,0,0:0:0:0:
128,128,71529,1,0,0:0:0:0:
224,160,71958,1,0,0:0:0:0:
256,192,82673,12,0,83102,0:0:0:0:
224,160,85673,5,0,0:0:0:0:
352,160,86102,1,0,0:0:0:0:
224,192,86530,1,0,0:0:0:0:
160,64,86959,1,0,0:0:0:0:
256,160,87388,1,0,0:0:0:0:
64,288,88245,1,0,0:0:0:0:
448,64,89959,1,0,0:0:0:0:
320,128,90388,1,0,0:0:0:0:
224,256,90816,1,0,0:0:0:0:
416,128,91674,1,0,0:0:0:0:
160,128,93388,1,0,0:0:0:0:
256,256,93817,1,0,0:0:0:0:
320,128,94245,1,0,0:0:0:0:
96,192,95102,1,0,0:0:0:0:
512,64,96817,1,0,0:0:0:0:
352,96,97245,1,0,0:0:0:0:
128,224,98103,1,0,0:0:0:0:
224,192,98531,1,0,0:0:0:0:
256,192,102389,12,0,105389,0:0:0:0:
192,128,106246,5,0,0:0:0:0:
384,256,107103,1,0,0:0:0:0:
224,224,107961,1,0,0:0:0:0:
224,160,108389,1,0,0:0:0:0:
128,160,108818,1,0,0:0:0:0:
512,128,110104,1,0,0:0:0:0:
288,160,110961,1,0,0:0:0:0:
128,160,111818,1,0,0:0:0:0:
256,160,112247,1,0,0:0:0:0:
160,128,112675,1,0,0:0:0:0:
256,96,113104,1,0,0:0:0:0:
256,192,113532,1,0,0:0:0:0:
160,192,113961,1,0,0:0:0:0:
224,288,114390,1,0,0:0:0:0:
288,96,115247,1,0,0:0:0:0:
224,160,115676,1,0,0:0:0:0:
224,256,116104,1,0,0:0:0:0:
288,192,116533,1,0,0:0:0:0:
192,192,116961,1,0,0:0:0:0:
256,96,117390,1,0,0:0:0:0:
352,160,117819,1,0,0:0:0:0:
256,224,118247,1,0,0:0:0:0:
160,160,118676,1,0,0:0:0:0:
256,96,119104,1,0,0:0:0:0:
160,288,119962,1,0,0:0:0:0:
320,128,120819,1,0,0:0:0:0:
192,192,121247,1,0,0:0:0:0:
192,32,121676,1,0,0:0:0:0:
320,224,122533,1,0,0:0:0:0:
256,160,124248,1,0,0:0:0:0:
96,192,124676,1,0,0:0:0:0:
256,128,125105,1,0,0:0:0:0:
320,352,125962,1,0,0:0:0:0:
224,160,126819,1,0,0:0:0:0:
320,160,127248,1,0,0:0:0:0:
224,192,127676,1,0,0:0:0:0:
320,160,128105,1,0,0:0:0:0:
224,192,128534,1,0,0:0:0:0:
320,160,128962,1,0,0:0:0:0:
192,192,129391,1,0,0:0:0:0:
320,160,129820,1,0,0:0:0:0:
192,192,130248,1,0,0:0:0:0:
320,160,130677,1,0,0:0:0:0:
192,160,131105,1,0,0:0:0:0:
320,160,131534,1,0,0:0:0:0:
192,160,131963,1,0,0:0:0:0:
320,160,132391,1,0,0:0:0:0:
192,160,132820,1,0,0:0:0:0:
320,192,133248,1,0,0:0:0:0:
224,224,133677,1,0,0:0:0:0:
384,64,134534,1,0,0:0:0:0:
224,128,135391,1,0,0:0:0:0:
224,192,135820,1,0,0:0:0:0:
352,192,136249,1,0,0:0:0:0:
256,192,139677,12,0,144392,0:0:0:0:
256,160,145678,5,0,0:0:0:0:
96,320,146535,1,0,0:0:0:0:
192,256,146964,1,0,0:0:0:0:
192,160,147392,1,0,0:0:0:0:
128,128,161108,5,0,0:0:0:0:
256,160,161536,1,0,0:0:0:0:
288,256,161965,1,0,0:0:0:0:
352,160,162394,1,0,0:0:0:0:
224,224,162822,1,0,0:0:0:0:
96,160,163251,1,0,0:0:0:0:
224,96,163679,1,0,0:0:0:0:
320,192,164108,1,0,0:0:0:0:
192,224,164537,1,0,0:0:0:0:
160,96,164965,1,0,0:0:0:0:
288,128,165394,1,0,0:0:0:0:
320,256,165822,1,0,0:0:0:0:
192,224,166251,1,0,0:0:0:0:
384,128,167108,1,0,0:0:0:0:
288,192,167537,1,0,0:0:0:0:
160,192,167965,1,0,0:0:0:0:
288,160,168394,1,0,0:0:0:0:
224,256,168823,1,0,0:0:0:0:
128,160,169251,1,0,0:0:0:0:
