osu file format v14

[General]
AudioFilename: audio.mp3
AudioLeadIn: 0
PreviewTime: 97957
Countdown: 0
SampleSet: Soft
StackLeniency: 0.3
Mode: 0
LetterboxInBreaks: 0
WidescreenStoryboard: 1

[Editor]
Bookmarks: 13927,41350,58529,61921,79064,85921,99635,113349
DistanceSpacing: 0.3
BeatDivisor: 4
GridSize: 32
TimelineZoom: 1.899999

[Metadata]
Title:Homicide feat. Eminem (Cut Ver.)
TitleUnicode:Homicide feat. Eminem (Cut Ver.)
Artist:Logic
ArtistUnicode:Logic
Creator:Silverboxer
Version:Genocide (cs7)
Source:
Tags:english cut rap hip hop hip-hop confessions of a dangerous mind eminem
BeatmapID:4306820
BeatmapSetID:988751

[Difficulty]
HPDrainRate:4
CircleSize:7
OverallDifficulty:10
ApproachRate:10
SliderMultiplier:2.6
SliderTickRate:1

[Events]
//Background and Video events
0,0,"homicide_bg.png",0,0
//Break Periods
2,75873,78330
2,82301,85509
//Storyboard Layer 0 (Background)
//Storyboard Layer 1 (Fail)
//Storyboard Layer 2 (Pass)
//Storyboard Layer 3 (Foreground)
//Storyboard Layer 4 (Overlay)
//Storyboard Sound Samples

[TimingPoints]
245,428.571428571429,4,2,0,100,1,0
13912,-66.6666666666667,4,2,0,70,0,0
37948,-200,4,2,0,70,0,0
39019,-66.6666666666667,4,2,0,70,0,0
40519,-200,4,2,0,70,0,0
41376,-66.6666666666667,4,2,0,70,0,0
58733,-133.333333333333,4,2,0,35,0,0
61519,-200,4,2,0,5,0,0
61947,-66.6666666666667,4,2,0,70,0,0
75625,-66.6666666666667,4,2,0,5,0,0
78768,-66.6666666666667,4,2,0,70,0,0
79054,-66.6666666666667,4,2,0,70,0,0
81661,-133.333333333333,4,2,0,70,0,0
85947,-66.6666666666667,4,2,0,70,0,0
96661,-66.6666666666667,4,2,0,35,0,0
99661,-66.6666666666667,4,2,0,70,0,0

[Colours]
Combo1 : 43,164,157
Combo2 : 247,72,77
Combo3 : 217,216,206

[HitObjects]
156,159,13530,5,0,0:0:0:0:
156,159,13959,6,0,P|137:114|136:65,1,97.50000371933,8|0,0:3|0:0,0:0:0:0:
209,236,14173,2,0,P|206:269|180:330,1,97.50000371933
297,14,14387,1,8,0:3:0:0:
359,84,14494,1,0,0:0:0:0:
289,146,14602,1,0,0:0:0:0:
227,76,14709,1,0,0:0:0:0:
359,84,14816,5,2,0:3:0:0:
485,121,14923,1,0,0:0:0:0:
227,76,15030,2,0,P|178:85|131:101,1,97.50000371933
415,197,15244,2,0,P|439:225|475:278,1,97.50000371933
124,204,15459,2,0,P|79:231|31:247,1,97.50000371933
282,368,15673,5,0,0:0:0:0:
322,226,15780,1,0,0:0:0:0:
201,246,15887,1,0,0:0:0:0:
278,340,15994,1,0,0:0:0:0:
249,156,16102,1,4,0:0:0:0:
65,185,16209,1,0,0:0:0:0:
322,226,16316,1,0,0:0:0:0:
293,42,16423,1,0,0:0:0:0:
170,254,16530,6,0,L|150:354,1,97.50000371933,2|0,0:3|0:0,0:0:0:0:
179,40,16745,2,2,L|173:6,3,32.5000012397767
249,156,16959,1,0,0:0:0:0:
75,138,17066,1,0,0:0:0:0:
264,141,17173,2,0,P|326:154|364:157,1,97.50000371933,8|0,0:3|0:0,0:0:0:0:
62,232,17387,6,0,P|42:280|40:339,1,97.50000371933,8|0,0:3|0:0,0:0:0:0:
468,179,17602,2,0,P|463:130|444:86,1,97.50000371933,8|0,0:3|0:0,0:0:0:0:
53,45,17816,2,0,P|76:91|120:137,1,97.50000371933,8|0,0:3|0:0,0:0:0:0:
257,213,18030,1,0,0:0:0:0:
240,41,18137,1,0,0:0:0:0:
239,217,18245,6,0,B|231:277|231:277|214:327,1,97.50000371933,2|0,0:3|0:0,0:0:0:0:
120,125,18459,1,0,0:0:0:0:
131,306,18566,1,0,0:0:0:0:
219,130,18673,1,0,0:0:0:0:
37,184,18780,1,0,0:0:0:0:
242,118,18887,1,0,0:0:0:0:
31,82,18995,1,0,0:0:0:0:
286,26,19102,5,0,0:0:0:0:
147,10,19209,1,0,0:0:0:0:
287,74,19316,1,0,0:0:0:0:
148,93,19423,1,0,0:0:0:0:
300,120,19530,2,0,P|360:117|436:93,1,97.50000371933,8|0,0:3|0:0,0:0:0:0:
171,174,19745,2,0,P|108:187|70:208,1,97.50000371933
307,349,19959,5,2,0:3:0:0:
250,189,20066,1,0,0:0:0:0:
227,355,20173,1,0,0:0:0:0:
461,285,20280,1,0,0:0:0:0:
180,272,20387,2,0,B|133:281|133:281|81:306,1,97.50000371933
351,253,20602,2,0,L|366:281,4,32.5000012397767,2|2|2|2|2,0:0|0:0|0:0|0:0|0:0,0:0:0:0:
371,236,20816,6,0,L|386:338,1,97.50000371933,8|0,0:3|0:0,0:0:0:0:
189,101,21030,2,0,L|203:4,1,97.50000371933
130,281,21245,2,0,B|103:321|103:321|61:363,1,97.50000371933,8|0,0:3|0:0,0:0:0:0:
362,122,21459,2,0,B|407:103|407:103|466:91,1,97.50000371933,8|0,0:3|0:0,0:0:0:0:
173,194,21673,5,2,0:3:0:0:
173,194,21780,1,0,0:0:0:0:
16,144,21887,1,0,0:0:0:0:
235,117,21995,1,0,0:0:0:0:
104,289,22102,5,0,0:0:0:0:
104,289,22209,1,0,0:0:0:0:
115,75,22316,1,0,0:0:0:0:
182,324,22423,1,0,0:0:0:0:
235,117,22530,6,0,P|250:54|266:17,1,97.50000371933
283,267,22745,2,0,P|254:306|214:338,1,97.50000371933
400,141,22959,5,4,0:0:0:0:
400,141,23030,1,0,0:0:0:0:
400,141,23102,1,0,0:0:0:0:
400,141,23173,2,0,L|464:153,1,65.0000024795533
173,165,23387,6,0,B|122:181|122:181|76:209,1,97.50000371933,2|0,0:3|0:0,0:0:0:0:
429,261,23602,2,0,B|465:299|465:299|494:347,1,97.50000371933
137,373,23816,2,0,B|117:328|117:328|109:274,1,97.50000371933
356,156,24030,2,0,B|348:203|348:203|328:248,1,97.50000371933,8|0,0:3|0:0,0:0:0:0:
128,40,24245,6,0,P|73:21|3:13,1,97.50000371933,8|0,0:3|0:0,0:0:0:0:
305,352,24459,2,0,P|352:343|398:326,1,97.50000371933,8|0,0:3|0:0,0:0:0:0:
262,94,24673,1,0,0:0:0:0:
262,94,24780,1,0,0:0:0:0:
213,277,24887,2,0,P|199:325|187:373,1,97.50000371933
118,164,25102,5,2,0:0:0:0:
394,220,25209,1,2,0:0:0:0:
118,164,25316,1,2,0:0:0:0:
394,220,25423,1,2,0:0:0:0:
118,164,25530,1,10,0:3:0:0:
394,220,25637,1,2,0:0:0:0:
118,164,25745,2,0,P|63:152|3:140,1,97.50000371933,10|0,0:3|0:0,0:0:0:0:
338,119,25959,6,0,B|437:182|437:182|502:245,1,195.00000743866
235,189,26280,1,0,0:0:0:0:
235,189,26387,2,0,B|213:135|213:135|200:-3,1,195.00000743866
108,169,26709,1,0,0:0:0:0:
321,116,26816,5,2,0:3:0:0:
256,348,26923,1,0,0:0:0:0:
191,116,27030,1,8,0:3:0:0:
404,169,27137,1,0,0:0:0:0:
191,268,27245,2,0,B|139:273|139:273|75:284,1,97.50000371933,8|0,0:3|0:0,0:0:0:0:
321,268,27459,5,0,0:0:0:0:
321,268,27566,1,0,0:0:0:0:
236,183,27673,2,0,P|221:136|219:88,1,97.50000371933
437,104,27887,1,0,0:0:0:0:
385,168,27995,1,0,0:0:0:0:
321,116,28102,1,0,0:0:0:0:
373,52,28209,1,0,0:0:0:0:
478,206,28316,2,0,L|478:240,4,32.5000012397767,2|2|2|2|2,0:0|0:0|0:0|0:0|0:0,0:0:0:0:
487,187,28530,6,0,L|478:286,1,97.50000371933,2|0,0:3|0:0,0:0:0:0:
406,377,28745,1,0,0:0:0:0:
299,253,28852,2,0,B|352:261|352:261|398:273,1,97.50000371933
242,344,29066,2,0,B|200:356|200:356|147:364,1,97.50000371933
166,154,29280,2,0,L|197:250,2,97.50000371933
128,47,29602,5,0,0:0:0:0:
128,47,29709,1,0,0:0:0:0:
71,222,29816,1,0,0:0:0:0:
284,149,29923,1,0,0:0:0:0:
59,198,30030,1,0,0:0:0:0:
292,174,30137,1,0,0:0:0:0:
62,311,30245,2,0,P|21:333|-21:367,1,97.50000371933,2|0,0:3|0:0,0:0:0:0:
185,219,30459,6,0,L|177:177,4,32.5000012397767,2|2|2|2|2,0:0|0:0|0:0|0:0|0:0,0:0:0:0:
210,207,30673,2,0,L|194:313,1,97.50000371933
375,308,30887,2,0,L|384:343,4,32.5000012397767,2|2|2|2|2,0:0|0:0|0:0|0:0|0:0,0:0:0:0:
359,319,31102,2,0,P|368:262|368:215,1,97.50000371933
329,95,31316,1,0,0:0:0:0:
391,225,31423,5,0,0:0:0:0:
235,175,31530,2,0,L|139:156,1,97.50000371933
421,112,31745,2,0,L|517:167,1,97.50000371933
109,86,31959,2,0,B|60:98|60:98|0:129,1,97.50000371933,2|0,0:3|0:0,0:0:0:0:
219,52,32173,1,0,0:0:0:0:
171,302,32280,5,0,0:0:0:0:
240,127,32387,1,0,0:0:0:0:
261,308,32495,1,0,0:0:0:0:
144,75,32602,1,0,0:0:0:0:
180,326,32709,1,0,0:0:0:0:
307,100,32816,6,0,B|325:49|325:49|334:-4,1,97.50000371933
390,262,33030,2,0,B|396:308|396:308|416:358,1,97.50000371933
406,135,33245,5,0,0:0:0:0:
407,167,33316,1,0,0:0:0:0:
392,196,33387,1,0,0:0:0:0:
367,215,33459,1,0,0:0:0:0:
335,220,33530,1,0,0:0:0:0:
304,209,33602,1,0,0:0:0:0:
282,186,33673,5,2,0:3:0:0:
301,308,33780,1,0,0:0:0:0:
248,176,33887,1,0,0:0:0:0:
267,326,33995,1,0,0:0:0:0:
212,182,34102,1,0,0:0:0:0:
238,345,34209,1,0,0:0:0:0:
170,184,34316,1,0,0:0:0:0:
204,373,34423,1,0,0:0:0:0:
107,247,34530,6,0,B|66:221|66:221|8:202,1,97.50000371933
296,270,34745,2,0,B|342:254|342:254|383:228,1,97.50000371933
95,335,34959,2,0,B|48:355|48:355|7:388,1,97.50000371933
315,176,35173,2,0,B|334:133|334:133|342:81,1,97.50000371933
226,216,35387,5,2,0:3:0:0:
201,17,35495,1,0,0:0:0:0:
122,186,35602,1,0,0:0:0:0:
310,94,35709,1,0,0:0:0:0:
79,83,35816,6,0,B|62:237|62:237|65:291,1,195.00000743866
179,106,36137,1,0,0:0:0:0:
179,106,36245,2,0,B|195:254|195:254|229:320,1,195.00000743866
295,131,36566,1,0,0:0:0:0:
295,131,36673,6,0,L|282:242,1,97.50000371933
397,151,36887,2,0,L|387:45,1,97.50000371933
381,248,37102,2,0,B|429:255|429:255|486:277,1,97.50000371933,2|0,0:3|0:0,0:0:0:0:
202,163,37316,2,0,B|154:170|154:170|97:192,1,97.50000371933
261,288,37530,6,0,L|274:384,1,97.50000371933
108,95,37745,2,0,L|128:-10,1,97.50000371933
78,293,37959,5,0,0:0:0:0:
81,312,38173,1,0,0:0:0:0:
84,331,38387,1,0,0:0:0:0:
204,266,38602,2,0,L|206:281,4,10.8333333333333,2|2|2|2|2,0:0|0:0|0:0|0:0|0:0,0:0:0:0:
221,352,38816,1,2,0:3:0:0:
221,352,39030,6,0,B|268:339|268:339|321:342,1,97.50000371933
483,292,39245,2,0,B|436:279|436:279|383:282,1,97.50000371933
279,251,39459,2,0,B|297:203|297:203|309:134,1,97.50000371933
485,116,39673,5,0,0:0:0:0:
470,196,39780,1,0,0:0:0:0:
390,181,39887,1,0,0:0:0:0:
405,101,39995,1,0,0:0:0:0:
381,220,40102,1,0,0:0:0:0:
261,197,40209,1,0,0:0:0:0:
284,77,40316,2,0,P|293:22|305:-29,1,97.50000371933
191,68,40530,6,0,P|216:158|216:198,1,130
271,260,41387,5,8,0:3:0:0:
119,319,41495,1,0,0:0:0:0:
336,319,41602,1,0,0:0:0:0:
173,261,41709,1,0,0:0:0:0:
333,341,41816,2,0,P|433:344|446:346,1,97.50000371933,8|0,0:3|0:0,0:0:0:0:
119,319,42030,1,0,0:0:0:0:
271,260,42137,1,0,0:0:0:0:
121,339,42245,2,0,P|21:342|8:344,1,97.50000371933,2|0,0:3|0:0,0:0:0:0:
123,160,42459,5,0,0:0:0:0:
54,259,42566,1,0,0:0:0:0:
33,143,42673,2,0,B|49:94|49:94|58:38,1,97.50000371933
149,259,42887,2,0,B|152:312|152:312|173:369,1,97.50000371933
240,115,43102,2,0,L|182:28,1,97.50000371933
306,279,43316,6,0,L|413:313,1,97.50000371933
141,162,43530,2,0,L|16:184,1,97.50000371933,4|0,0:0|0:0,0:0:0:0:
176,321,43745,1,0,0:0:0:0:
255,180,43852,1,0,0:0:0:0:
308,38,43959,2,0,B|238:15|238:15|179:14,1,97.50000371933,2|0,0:3|0:0,0:0:0:0:
440,117,44173,2,0,L|478:112,4,32.5000012397767,2|2|2|2|2,0:0|0:0|0:0|0:0|0:0,0:0:0:0:
432,140,44387,2,0,L|420:27,1,97.50000371933
100,73,44602,2,0,L|76:185,1,97.50000371933,8|0,0:3|0:0,0:0:0:0:
332,116,44816,6,0,B|350:177|350:177|376:221,1,97.50000371933,8|0,0:3|0:0,0:0:0:0:
166,156,45030,2,0,B|149:197|149:197|116:253,1,97.50000371933,8|0,0:3|0:0,0:0:0:0:
476,201,45245,2,0,L|459:308,1,97.50000371933
220,337,45459,1,0,0:0:0:0:
258,209,45566,1,0,0:0:0:0:
293,60,45673,2,0,L|289:173,1,97.50000371933,2|0,0:3|0:0,0:0:0:0:
96,72,45887,5,0,0:0:0:0:
222,33,45995,1,0,0:0:0:0:
58,153,46102,1,0,0:0:0:0:
19,27,46209,1,0,0:0:0:0:
140,193,46316,1,0,0:0:0:0:
14,232,46423,1,0,0:0:0:0:
178,112,46530,5,0,0:0:0:0:
178,112,46637,1,0,0:0:0:0:
229,263,46745,1,0,0:0:0:0:
229,263,46852,1,0,0:0:0:0:
273,64,46959,6,0,P|321:46|376:36,1,97.50000371933,8|0,0:3|0:0,0:0:0:0:
140,193,47173,2,0,P|92:183|46:166,1,97.50000371933
312,206,47387,2,0,B|342:167|342:167|360:115,1,97.50000371933,2|0,0:3|0:0,0:0:0:0:
62,27,47602,2,0,B|77:72|77:72|107:111,1,97.50000371933
229,263,47816,2,0,B|236:310|236:310|231:366,1,97.50000371933
231,78,48030,2,0,L|227:40,4,32.5000012397767,2|2|2|2|2,0:0|0:0|0:0|0:0|0:0,0:0:0:0:
241,29,48245,6,0,L|232:129,1,97.50000371933,8|0,0:3|0:0,0:0:0:0:
353,98,48459,2,0,B|345:48|345:48|330:-1,1,97.50000371933
145,187,48673,2,0,B|96:210|96:210|44:225,1,97.50000371933,8|0,0:3|0:0,0:0:0:0:
333,196,48887,2,0,B|384:199|384:199|446:215,1,97.50000371933,8|0,0:3|0:0,0:0:0:0:
139,274,49102,6,0,B|86:261|86:261|36:241,1,97.50000371933,2|0,0:3|0:0,0:0:0:0:
366,303,49316,1,0,0:0:0:0:
366,303,49423,1,0,0:0:0:0:
125,299,49530,2,0,L|22:313,1,97.50000371933
257,361,49745,1,0,0:0:0:0:
257,361,49852,1,0,0:0:0:0:
208,246,49959,6,0,P|198:192|202:147,1,97.50000371933
313,35,50173,2,0,P|316:83|306:131,1,97.50000371933
195,59,50387,5,4,0:0:0:0:
195,59,50459,1,0,0:0:0:0:
195,59,50530,1,0,0:0:0:0:
195,59,50602,1,0,0:0:0:0:
195,59,50673,2,0,P|194:24|197:-6,1,65.0000024795533
97,118,50816,5,2,0:3:0:0:
74,237,50923,1,0,0:0:0:0:
193,183,51030,2,0,B|238:174|238:174|296:167,1,97.50000371933
475,217,51245,2,0,B|423:210|423:210|378:201,1,97.50000371933
243,67,51459,6,0,B|294:60|294:60|341:67,1,97.50000371933,8|0,0:3|0:0,0:0:0:0:
450,331,51673,2,0,B|404:337|404:337|353:330,1,97.50000371933,8|0,0:3|0:0,0:0:0:0:
99,72,51887,1,8,0:3:0:0:
173,162,51995,1,0,0:0:0:0:
220,259,52102,2,0,L|240:364,1,97.50000371933
104,308,52316,5,0,0:0:0:0:
151,182,52423,1,0,0:0:0:0:
196,54,52530,2,0,L|295:16,1,97.50000371933,2|0,0:3|0:0,0:0:0:0:
64,85,52745,2,0,L|0:9,1,97.50000371933
244,137,52959,2,0,B|262:179|262:179|277:237,1,97.50000371933,8|0,0:3|0:0,0:0:0:0:
57,263,53173,1,8,0:3:0:0:
212,298,53280,1,0,0:0:0:0:
75,235,53387,6,0,B|26:241|26:241|-38:266,1,97.50000371933
149,99,53602,2,0,B|168:53|168:53|178:-14,1,97.50000371933
229,231,53816,2,0,B|258:270|258:270|312:313,1,97.50000371933
65,144,54030,1,0,0:0:0:0:
232,135,54137,1,0,0:0:0:0:
156,284,54245,5,2,0:3:0:0:
156,284,54459,2,0,L|149:382,1,97.50000371933,8|0,0:3|0:0,0:0:0:0:
399,174,54673,2,0,L|406:272,1,97.50000371933,8|0,0:3|0:0,0:0:0:0:
144,34,54887,1,0,0:0:0:0:
290,29,54995,1,0,0:0:0:0:
159,50,55102,6,0,P|107:60|48:74,1,97.50000371933,8|0,0:3|0:0,0:0:0:0:
188,142,55316,2,0,P|240:152|299:166,1,97.50000371933
148,227,55530,1,8,0:3:0:0:
148,227,55745,1,0,0:0:0:0:
183,309,55852,1,0,0:0:0:0:
246,367,55959,6,0,P|295:354|361:357,1,97.50000371933,2|0,0:3|0:0,0:0:0:0:
129,239,56173,2,0,P|80:238|33:225,1,97.50000371933
272,140,56387,1,0,0:0:0:0:
272,140,56602,6,0,L|280:238,1,97.50000371933
295,163,56816,2,0,L|273:62,1,97.50000371933
198,183,57030,2,0,L|179:285,1,97.50000371933
373,211,57245,2,0,L|318:121,1,97.50000371933,4|0,0:0|0:0,0:0:0:0:
72,191,57459,1,0,0:0:0:0:
72,191,57673,6,0,B|56:236|56:236|51:302,1,97.50000371933,2|0,0:3|0:0,0:0:0:0:
154,63,57887,2,0,L|150:29,3,32.5000012397767,2|2|2|2,0:0|0:0|0:0|0:0,0:0:0:0:
161,137,58102,1,0,0:0:0:0:
161,137,58316,6,0,L|263:166,1,97.50000371933,8|0,0:3|0:0,0:0:0:0:
470,308,58530,2,0,L|353:345,1,97.50000371933,8|0,0:3|0:0,0:0:0:0:
296,310,58745,6,0,L|262:349,1,48.750001859665
250,318,58959,2,0,L|216:357,1,48.750001859665
161,306,59173,2,0,L|108:297,1,48.750001859665
142,274,59387,2,0,L|82:247,1,48.750001859665
9,247,59602,2,0,L|26:350,1,97.50000371933
245,264,60245,6,0,L|299:278,1,48.750001859665
272,254,60459,2,0,L|320:243,1,48.750001859665
348,276,60673,2,0,L|380:237,1,48.750001859665
415,156,60887,6,0,L|422:98,1,48.750001859665
385,142,61102,2,0,L|379:83,1,48.750001859665
350,138,61316,2,0,L|340:188,1,48.750001859665
298,199,61530,2,0,L|177:208,1,97.5
166,218,61959,6,0,B|150:266|150:266|139:330,1,97.50000371933,8|0,0:3|0:0,0:0:0:0:
199,99,62173,2,0,B|174:53|174:53|141:14,1,97.50000371933
49,209,62387,5,8,0:3:0:0:
278,177,62495,1,0,0:0:0:0:
47,186,62602,1,0,0:0:0:0:
256,313,62709,1,0,0:0:0:0:
277,98,62816,5,2,0:3:0:0:
321,259,62923,1,0,0:0:0:0:
351,71,63030,1,0,0:0:0:0:
366,237,63137,1,0,0:0:0:0:
428,57,63245,2,0,B|469:24|469:24|510:6,1,97.50000371933
424,213,63459,2,0,B|374:193|374:193|338:167,1,97.50000371933
182,76,63673,2,0,B|131:79|131:79|61:99,1,97.50000371933
251,151,63887,5,0,0:0:0:0:
54,178,63995,1,0,0:0:0:0:
214,72,64102,1,4,0:0:0:0:
166,260,64209,1,0,0:0:0:0:
114,9,64316,1,0,0:0:0:0:
114,9,64423,1,0,0:0:0:0:
35,166,64530,6,0,L|52:290,1,97.50000371933,2|0,0:3|0:0,0:0:0:0:
214,72,64745,1,0,0:0:0:0:
183,164,64852,2,0,L|165:265,1,97.50000371933
368,125,65066,1,0,0:0:0:0:
381,224,65173,1,8,0:3:0:0:
405,326,65280,1,0,0:0:0:0:
344,129,65387,6,0,B|329:79|329:79|324:14,1,97.50000371933,8|0,0:3|0:0,0:0:0:0:
233,289,65602,2,0,B|229:334|229:334|214:384,1,97.50000371933,8|0,0:3|0:0,0:0:0:0:
75,154,65816,1,8,0:3:0:0:
147,300,65923,1,0,0:0:0:0:
293,228,66030,1,0,0:0:0:0:
221,82,66137,1,0,0:0:0:0:
75,154,66244,6,0,B|29:164|29:164|-29:167,1,97.50000371933,2|0,0:3|0:0,0:0:0:0:
293,228,66459,2,0,B|343:230|343:230|389:240,1,97.50000371933
121,260,66673,1,0,0:0:0:0:
225,120,66780,1,0,0:0:0:0:
207,293,66887,1,0,0:0:0:0:
215,108,66994,1,0,0:0:0:0:
134,346,67102,5,0,0:0:0:0:
293,228,67209,1,0,0:0:0:0:
112,344,67316,1,0,0:0:0:0:
357,334,67423,1,0,0:0:0:0:
151,180,67530,2,0,L|67:130,1,97.50000371933,8|0,0:3|0:0,0:0:0:0:
179,105,67744,2,0,L|194:213,1,97.50000371933
250,338,67959,6,0,B|259:289|259:289|279:236,1,97.50000371933,2|0,0:3|0:0,0:0:0:0:
391,78,68173,1,0,0:0:0:0:
406,174,68280,1,0,0:0:0:0:
414,271,68387,2,0,L|447:363,1,97.50000371933
365,89,68602,2,0,L|312:6,1,97.50000371933
283,319,68816,6,0,P|243:340|172:354,1,97.50000371933,8|0,0:3|0:0,0:0:0:0:
0,101,69030,2,0,P|11:53|33:10,1,97.50000371933
365,89,69244,2,0,P|381:134|387:182,1,97.50000371933,8|0,0:3|0:0,0:0:0:0:
47,320,69459,2,0,P|52:271|69:226,1,97.50000371933,8|0,0:3|0:0,0:0:0:0:
173,87,69673,5,2,0:3:0:0:
149,302,69780,1,0,0:0:0:0:
196,94,69887,1,0,0:0:0:0:
1,183,69994,1,0,0:0:0:0:
263,207,70102,5,0,0:0:0:0:
230,8,70209,1,0,0:0:0:0:
175,202,70316,1,0,0:0:0:0:
380,82,70423,1,0,0:0:0:0:
78,68,70530,6,0,B|32:42|32:42|0:11,1,97.50000371933
263,207,70744,2,0,B|269:238|269:238|273:313,1,97.50000371933
108,322,70959,5,4,0:0:0:0:
108,322,71030,1,0,0:0:0:0:
108,322,71102,1,0,0:0:0:0:
108,322,71173,1,0,0:0:0:0:
108,322,71245,2,0,L|101:252,1,65.0000024795533
70,231,71387,6,0,L|54:336,1,97.50000371933,2|0,0:3|0:0,0:0:0:0:
165,199,71602,2,0,L|191:94,1,97.50000371933
340,21,71816,2,0,B|382:28|382:28|436:46,1,97.50000371933
165,252,72030,6,0,B|137:294|137:294|123:339,1,97.50000371933,8|0,0:3|0:0,0:0:0:0:
353,240,72244,2,0,B|404:243|404:243|450:232,1,97.50000371933,8|0,0:3|0:0,0:0:0:0:
249,83,72459,2,0,B|226:38|226:38|194:3,1,97.50000371933,8|0,0:3|0:0,0:0:0:0:
180,272,72673,6,0,B|173:321|173:321|156:375,1,97.50000371933
326,115,72887,2,0,B|311:69|311:69|304:20,1,97.50000371933
208,269,73102,5,2,0:3:0:0:
208,115,73209,1,0,0:0:0:0:
304,269,73316,1,0,0:0:0:0:
304,115,73423,1,0,0:0:0:0:
200,281,73530,5,8,0:3:0:0:
200,102,73637,1,0,0:0:0:0:
311,281,73744,1,8,0:3:0:0:
311,102,73851,1,0,0:0:0:0:
188,299,73959,5,0,0:0:0:0:
188,84,74066,1,0,0:0:0:0:
323,299,74173,1,0,0:0:0:0:
323,84,74280,1,0,0:0:0:0:
177,317,74387,5,0,0:0:0:0:
177,66,74494,1,0,0:0:0:0:
334,317,74601,1,0,0:0:0:0:
334,66,74708,1,0,0:0:0:0:
93,192,74816,5,2,0:3:0:0:
419,192,74923,1,0,0:0:0:0:
96,370,75030,2,0,P|46:380|-14:378,1,97.50000371933,8|0,0:3|0:0,0:0:0:0:
416,21,75244,2,0,P|464:21|512:30,1,97.50000371933,8|0,0:3|0:0,0:0:0:0:
218,203,75459,6,0,P|236:136|293:203,1,195.00000743866
160,138,78780,6,0,P|182:60|233:123,1,195.00000743866,4|0,0:0|0:0,0:0:0:0:
199,229,79102,2,0,B|36:255|36:255|-8:278,1,195.00000743866,8|0,0:3|0:0,0:0:0:0:
325,296,79530,6,0,B|386:318|386:318|451:365,1,130.000004959107
282,137,79816,6,0,B|236:186|236:186|213:261,1,130.000004959107
362,177,80102,6,0,B|361:125|361:125|339:33,1,130.000004959107
166,0,80387,6,0,B|129:181|129:181|138:275,1,260.000009918213
242,49,80816,5,0,0:0:0:0:
258,141,80959,6,0,B|271:206|271:206|273:275,1,130.000004959107
356,36,81245,6,0,B|353:106|353:106|371:173,2,130.000004959107
470,128,81673,6,0,B|457:345,1,195.00000743866
151,218,85959,6,0,L|134:317,1,97.50000371933,8|0,0:3|0:0,0:0:0:0:
280,135,86173,2,0,L|263:28,1,97.50000371933
306,292,86387,2,0,B|333:338|333:338|371:376,1,97.50000371933,8|0,0:3|0:0,0:0:0:0:
131,105,86602,2,0,B|76:88|76:88|25:86,1,97.50000371933
201,188,86816,5,0,0:0:0:0:
250,321,86959,5,0,0:0:0:0:
296,124,87102,5,0,0:0:0:0:
98,231,87244,6,0,B|81:294|81:294|79:360,2,130.000004959107
262,269,87673,6,0,B|314:275|314:275|361:294,1,97.50000371933
482,199,87887,2,0,B|430:205|430:205|383:224,1,97.50000371933
265,18,88102,2,0,L|379:89,2,130.000004959107,4|0|0,0:0|0:0|0:0,0:0:0:0:
245,167,88530,6,0,L|238:276,1,97.50000371933,2|0,0:3|0:0,0:0:0:0:
351,223,88744,2,0,L|355:274,3,48.750001859665,2|2|2|2,0:0|0:0|0:0|0:0,0:0:0:0:
380,208,88959,2,0,L|376:308,1,97.50000371933
154,256,89173,2,0,B|104:246|104:246|41:212,1,97.50000371933,8|0,0:3|0:0,0:0:0:0:
389,115,89387,6,0,B|429:92|429:92|479:82,1,97.50000371933,8|0,0:3|0:0,0:0:0:0:
137,136,89602,2,0,B|98:102|98:102|61:41,1,97.50000371933,8|0,0:3|0:0,0:0:0:0:
266,253,89816,2,0,L|328:371,2,130.000004959107,8|0|0,0:3|0:0|0:0,0:0:0:0:
403,213,90244,6,0,B|464:235|464:235|512:281,1,130.000004959107,2|0,0:3|0:0,0:0:0:0:
495,139,90530,5,0,0:0:0:0:
301,180,90673,6,0,L|165:204,1,130.000004959107
236,93,90959,5,0,0:0:0:0:
261,279,91102,6,0,B|150:256|150:256|-6:167,1,292.50001115799
17,79,91530,5,8,0:3:0:0:
127,138,91673,5,0,0:0:0:0:
89,257,91816,5,0,0:0:0:0:
76,12,91959,5,2,0:3:0:0:
54,167,92102,5,0,0:0:0:0:
182,253,92245,5,0,0:0:0:0:
143,368,92387,6,0,B|191:373|191:373|242:370,1,97.50000371933
432,346,92602,5,2,0:0:0:0:
432,346,92673,1,2,0:0:0:0:
432,346,92745,1,2,0:0:0:0:
432,346,92816,2,0,B|444:206|444:206|436:150,1,195.00000743866,8|0,0:3|0:0,0:0:0:0:
421,118,93102,2,0,L|407:187,1,65.0000024795533
315,278,93244,6,0,L|204:260,1,97.50000371933,8|0,0:3|0:0,0:0:0:0:
38,78,93459,2,0,L|141:113,1,97.50000371933,8|0,0:3|0:0,0:0:0:0:
338,107,93673,6,0,B|377:79|377:79|421:21,1,97.50000371933,2|0,0:3|0:0,0:0:0:0:
137,239,93887,2,0,B|141:288|141:288|155:346,1,97.50000371933
171,92,94102,2,0,L|154:-4,1,97.50000371933
196,41,94316,2,0,L|185:147,1,97.50000371933
317,194,94530,6,0,B|365:202|365:202|428:220,1,97.50000371933
486,205,94744,2,0,B|439:218|439:218|391:226,1,97.50000371933
254,275,94959,5,4,0:0:0:0:
254,275,95030,1,0,0:0:0:0:
254,275,95102,1,0,0:0:0:0:
254,275,95173,1,0,0:0:0:0:
254,275,95245,2,0,L|263:342,1,65.0000024795533
337,337,95387,5,0,0:0:0:0:
127,231,95530,5,0,0:0:0:0:
324,136,95673,5,0,0:0:0:0:
41,354,95816,6,0,L|16:145,2,195.00000743866
367,244,96673,6,0,L|376:373,2,130.000004959107
285,186,97102,2,0,L|276:315,2,130.000004959107
188,283,97530,2,0,B|129:312|129:312|7:361,1,130.000004959107
73,127,97959,6,0,B|47:65|47:65|5:9,2,130.000004959107
284,262,98387,2,0,B|258:324|258:324|216:380,2,130.000004959107
314,28,98816,2,0,B|377:16|377:16|451:5,1,130.000004959107
161,110,99244,6,0,L|94:98,1,65.0000024795533,2|0,0:0|0:0,0:0:0:0:
331,149,99387,6,0,L|394:132,1,65.0000024795533,2|0,0:0|0:0,0:0:0:0:
147,144,99530,6,0,L|84:119,1,65.0000024795533,2|0,0:0|0:0,0:0:0:0:
367,166,99673,6,0,L|465:194,1,97.50000371933,8|0,0:3|0:0,0:0:0:0:
154,288,99887,2,0,L|58:340,1,97.50000371933
253,192,100102,1,8,0:3:0:0:
197,35,100209,1,0,0:0:0:0:
226,200,100316,1,0,0:0:0:0:
367,55,100423,1,0,0:0:0:0:
87,125,100530,5,2,0:3:0:0:
269,104,100637,1,0,0:0:0:0:
85,153,100744,1,0,0:0:0:0:
220,300,100852,1,0,0:0:0:0:
178,125,100959,5,0,0:0:0:0:
50,243,101066,1,0,0:0:0:0:
168,371,101173,1,0,0:0:0:0:
296,253,101280,1,0,0:0:0:0:
178,125,101387,2,0,B|128:97|128:97|77:83,1,97.50000371933
292,351,101602,2,0,B|330:340|330:340|380:312,1,97.50000371933
418,84,101816,6,0,B|438:38|438:38|479:-8,1,97.50000371933,4|0,0:0|0:0,0:0:0:0:
460,291,102030,2,0,B|480:337|480:337|521:383,1,97.50000371933
327,144,102244,1,2,0:3:0:0:
499,183,102352,1,0,0:0:0:0:
380,312,102459,1,0,0:0:0:0:
365,73,102566,5,0,0:0:0:0:
407,290,102673,1,0,0:0:0:0:
245,140,102780,1,0,0:0:0:0:
465,166,102887,1,8,0:3:0:0:
272,274,102994,1,0,0:0:0:0:
384,48,103102,6,0,B|429:27|429:27|475:16,1,97.50000371933,8|0,0:3|0:0,0:0:0:0:
300,283,103316,2,0,L|263:373,1,97.50000371933,8|0,0:3|0:0,0:0:0:0:
12,94,103530,2,0,L|-8:-2,1,97.50000371933,8|0,0:3|0:0,0:0:0:0:
121,93,103744,1,0,0:0:0:0:
79,207,103852,1,0,0:0:0:0:
45,304,103959,2,0,B|20:343|20:343|0:391,1,97.50000371933,2|0,0:3|0:0,0:0:0:0:
96,182,104173,5,0,0:0:0:0:
139,304,104280,1,0,0:0:0:0:
261,261,104387,1,0,0:0:0:0:
218,139,104494,1,0,0:0:0:0:
177,223,104602,5,0,0:0:0:0:
177,223,104709,1,0,0:0:0:0:
335,205,104816,1,0,0:0:0:0:
335,205,104923,1,0,0:0:0:0:
389,117,105030,5,0,0:0:0:0:
406,275,105137,1,0,0:0:0:0:
409,114,105244,1,8,0:3:0:0:
426,272,105352,1,0,0:0:0:0:
429,111,105459,2,0,P|417:53|411:2,1,97.50000371933
446,269,105673,2,0,P|439:317|429:364,1,97.50000371933,2|0,0:3|0:0,0:0:0:0:
275,277,105887,5,0,0:0:0:0:
254,145,105994,1,0,0:0:0:0:
227,3,106102,2,0,B|165:-5|165:-5|114:2,1,97.50000371933
376,172,106316,5,2,0:0:0:0:
376,172,106387,1,2,0:0:0:0:
376,172,106459,1,2,0:0:0:0:
376,172,106530,2,0,P|428:191|472:193,1,97.50000371933,8|0,0:3|0:0,0:0:0:0:
155,89,106744,2,0,P|106:92|61:110,1,97.50000371933
290,127,106959,5,0,0:0:0:0:
123,176,107066,1,0,0:0:0:0:
271,101,107173,1,0,0:0:0:0:
235,258,107280,1,0,0:0:0:0:
325,21,107387,5,2,0:3:0:0:
348,202,107494,1,0,0:0:0:0:
325,21,107602,1,0,0:0:0:0:
441,163,107709,1,0,0:0:0:0:
263,119,107816,5,0,0:0:0:0:
445,48,107923,1,0,0:0:0:0:
263,119,108030,2,0,L|158:134,1,97.50000371933
348,202,108244,6,0,B|398:210|398:210|448:228,1,97.50000371933
121,232,108459,2,0,B|72:248|72:248|22:275,1,97.50000371933
79,113,108673,5,4,0:0:0:0:
79,113,108745,1,0,0:0:0:0:
79,113,108816,1,0,0:0:0:0:
79,113,108887,1,0,0:0:0:0:
79,113,108959,2,0,L|66:48,1,65.0000024795533
97,35,109102,6,0,L|91:147,1,97.50000371933,2|0,0:3|0:0,0:0:0:0:
217,38,109316,2,0,L|190:136,1,97.50000371933
334,79,109530,2,0,L|280:175,1,97.50000371933
457,138,109744,6,0,B|426:178|426:178|378:216,1,97.50000371933,8|0,0:3|0:0,0:0:0:0:
62,293,109959,2,0,B|106:273|106:273|162:267,1,97.50000371933,8|0,0:3|0:0,0:0:0:0:
494,326,110173,2,0,L|374:343,1,97.50000371933,8|0,0:3|0:0,0:0:0:0:
122,63,110387,6,0,L|192:133,1,97.50000371933
171,348,110602,2,0,B|162:306|162:306|160:244,1,97.50000371933
306,143,110816,5,2,0:3:0:0:
256,301,110923,1,0,0:0:0:0:
206,143,111030,1,0,0:0:0:0:
398,192,111137,1,0,0:0:0:0:
193,253,111244,5,8,0:3:0:0:
256,56,111352,1,0,0:0:0:0:
318,253,111459,1,8,0:3:0:0:
79,192,111566,1,0,0:0:0:0:
331,118,111673,5,0,0:0:0:0:
256,356,111780,1,0,0:0:0:0:
180,118,111887,1,0,0:0:0:0:
469,192,111994,1,0,0:0:0:0:
168,277,112102,5,0,0:0:0:0:
256,0,112209,1,0,0:0:0:0:
343,277,112316,1,0,0:0:0:0:
7,192,112423,1,0,0:0:0:0:
368,66,112530,5,2,0:3:0:0:
256,383,112637,1,0,0:0:0:0:
147,92,112744,2,0,P|129:52|126:-18,1,97.50000371933,8|0,0:3|0:0,0:0:0:0:
439,261,112959,2,0,P|434:309|415:353,1,97.50000371933,8|0,0:3|0:0,0:0:0:0:
256,383,113173,5,8,0:0:0:0:
256,383,113387,1,8,0:3:0:0:
