osu file format v14

[General]
AudioFilename: audio.mp3
AudioLeadIn: 0
PreviewTime: 97957
Countdown: 0
SampleSet: Soft
StackLeniency: 0.3
Mode: 0
LetterboxInBreaks: 0
WidescreenStoryboard: 1

[Editor]
Bookmarks: 13927,41350,58529,61921,79064,85921,99635,113349
DistanceSpacing: 0.3
BeatDivisor: 3
GridSize: 32
TimelineZoom: 1.899999

[Metadata]
Title:Homicide feat. Eminem (Cut Ver.)
TitleUnicode:Homicide feat. Eminem (Cut Ver.)
Artist:Logic
ArtistUnicode:Logic
Creator:Silverboxer
Version:Extra
Source:
Tags:english cut rap hip hop hip-hop confessions of a dangerous mind eminem
BeatmapID:4306815
BeatmapSetID:988751

[Difficulty]
HPDrainRate:4
CircleSize:4
OverallDifficulty:8.8
ApproachRate:9.5
SliderMultiplier:2.4
SliderTickRate:1

[Events]
//Background and Video events
0,0,"homicide_bg.png",0,0
//Break Periods
2,75873,78577
2,82301,85434
//Storyboard Layer 0 (Background)
//Storyboard Layer 1 (Fail)
//Storyboard Layer 2 (Pass)
//Storyboard Layer 3 (Foreground)
//Storyboard Layer 4 (Overlay)
//Storyboard Sound Samples

[TimingPoints]
245,428.571428571429,4,2,0,100,1,0
13912,-66.6666666666667,4,2,0,70,0,0
37948,-200,4,2,0,70,0,0
39019,-66.6666666666667,4,2,0,70,0,0
40519,-200,4,2,0,70,0,0
41376,-66.6666666666667,4,2,0,70,0,0
58733,-133.333333333333,4,2,0,35,0,0
61519,-200,4,2,0,5,0,0
61947,-66.6666666666667,4,2,0,70,0,0
78768,-66.6666666666667,4,2,0,70,0,0
79054,-66.6666666666667,4,2,0,70,0,0
80816,-100,4,2,0,70,0,0
81661,-133.333333333333,4,2,0,70,0,0
85947,-66.6666666666667,4,2,0,70,0,0
96661,-133.333333333333,4,2,0,35,0,0
99661,-66.6666666666667,4,2,0,70,0,0

[Colours]
Combo1 : 43,164,157
Combo2 : 247,72,77
Combo3 : 217,216,206

[HitObjects]
78,96,13530,5,0,0:0:0:0:
78,96,13959,6,0,B|77:147|77:147|97:212,1,90.0000034332277,8|0,0:3|0:0,0:0:0:0:
242,100,14173,2,0,B|228:52|228:52|198:2,1,90.0000034332277
161,127,14387,5,8,0:3:0:0:
196,211,14495,1,0,0:0:0:0:
235,142,14602,1,0,0:0:0:0:
121,192,14709,1,0,0:0:0:0:
177,291,14816,6,0,L|287:292,1,90.0000034332277,2|0,0:3|0:0,0:0:0:0:
348,234,15030,1,0,0:0:0:0:
348,234,15137,1,0,0:0:0:0:
413,290,15245,2,0,L|461:372,1,90.0000034332277
327,210,15459,2,0,B|312:182|312:182|295:101,1,90.0000034332277
436,189,15673,2,0,B|445:164|445:164|497:83,1,90.0000034332277
395,25,15887,5,0,0:0:0:0:
379,106,15995,1,0,0:0:0:0:
458,81,16102,2,0,L|514:5,1,90.0000034332277,4|0,0:0|0:0,0:0:0:0:
378,141,16316,2,0,L|397:251,1,90.0000034332277
287,167,16530,5,2,0:3:0:0:
287,167,16637,1,0,0:0:0:0:
204,214,16745,1,2,0:0:0:0:
141,273,16852,2,0,L|41:331,1,90.0000034332277,2|0,0:0|0:0,0:0:0:0:
108,176,17066,1,0,0:0:0:0:
108,176,17173,2,0,L|130:68,1,90.0000034332277,8|0,0:3|0:0,0:0:0:0:
83,12,17387,6,0,B|41:42|41:42|2:84,1,90.0000034332277,8|0,0:3|0:0,0:0:0:0:
229,117,17602,2,0,B|281:109|281:109|346:87,1,90.0000034332277,8|0,0:3|0:0,0:0:0:0:
411,62,17816,1,8,0:3:0:0:
411,62,17923,1,0,0:0:0:0:
362,208,18030,1,0,0:0:0:0:
362,208,18137,1,0,0:0:0:0:
455,318,18245,6,0,L|432:116,1,180.000006866455,2|0,0:3|0:0,0:0:0:0:
434,139,18566,1,0,0:0:0:0:
350,182,18673,1,0,0:0:0:0:
284,125,18780,1,0,0:0:0:0:
242,205,18887,1,0,0:0:0:0:
154,174,18995,1,0,0:0:0:0:
63,251,19102,6,0,B|35:292|35:292|18:341,1,90.0000034332277
158,275,19316,1,0,0:0:0:0:
180,177,19423,1,0,0:0:0:0:
61,155,19530,5,8,0:3:0:0:
61,155,19602,1,0,0:0:0:0:
61,155,19673,1,0,0:0:0:0:
61,155,19745,2,0,B|23:50|23:50|104:88,1,180.000006866455,0|2,0:0|0:3,0:0:0:0:
134,16,20066,6,0,L|235:7,2,90.0000034332277
239,80,20387,1,0,0:0:0:0:
444,164,20602,2,0,L|496:159,2,45.0000017166138,2|0|2,0:0|0:0|0:0,0:0:0:0:
418,152,20816,6,0,L|316:229,1,90.0000034332277,8|0,0:3|0:0,0:0:0:0:
201,305,21030,2,0,L|151:200,1,90.0000034332277
241,171,21245,1,8,0:3:0:0:
241,171,21352,1,0,0:0:0:0:
278,251,21459,2,0,L|299:358,1,90.0000034332277,8|0,0:3|0:0,0:0:0:0:
370,290,21673,5,2,0:3:0:0:
443,333,21780,1,0,0:0:0:0:
452,244,21887,1,0,0:0:0:0:
393,325,21995,1,0,0:0:0:0:
288,290,22102,2,0,L|279:174,2,90.0000034332277
190,265,22423,5,0,0:0:0:0:
190,265,22530,2,0,B|141:239|141:239|86:221,1,90.0000034332277
296,148,22745,2,0,B|335:172|335:172|379:217,1,90.0000034332277
199,154,22959,5,4,0:0:0:0:
199,154,23030,1,0,0:0:0:0:
199,154,23102,1,0,0:0:0:0:
199,154,23173,2,0,B|111:173|111:173|22:172,2,180.000006866455,0|2|0,0:0|0:3|0:0,0:0:0:0:
289,114,23709,1,0,0:0:0:0:
273,76,23816,2,0,B|229:44|229:44|173:23,1,90.0000034332277
71,5,24030,6,0,L|50:115,1,90.0000034332277,8|0,0:3|0:0,0:0:0:0:
64,289,24245,2,0,L|165:243,1,90.0000034332277,8|0,0:3|0:0,0:0:0:0:
263,97,24459,2,0,L|143:128,1,90.0000034332277,8|0,0:3|0:0,0:0:0:0:
244,198,24673,5,0,0:0:0:0:
319,247,24780,1,0,0:0:0:0:
397,204,24887,2,0,B|418:173|418:173|439:117,1,90.0000034332277
422,47,25102,5,2,0:0:0:0:
366,21,25209,1,2,0:0:0:0:
336,73,25316,1,2,0:0:0:0:
279,45,25423,1,2,0:0:0:0:
242,96,25530,1,10,0:3:0:0:
182,69,25637,1,2,0:0:0:0:
129,112,25745,2,0,L|52:186,1,90.0000034332277,10|0,0:3|0:0,0:0:0:0:
275,241,25959,6,0,B|313:239|313:239|482:198,1,180.000006866455
314,159,26280,1,0,0:0:0:0:
334,142,26387,2,0,L|423:86,1,90.0000034332277
304,256,26602,2,0,L|270:361,1,90.0000034332277
199,364,26816,5,2,0:3:0:0:
167,329,26923,1,0,0:0:0:0:
118,353,27030,1,8,0:3:0:0:
73,330,27137,1,0,0:0:0:0:
31,362,27245,2,0,L|14:246,1,90.0000034332277,8|0,0:3|0:0,0:0:0:0:
53,148,27459,2,0,L|114:231,1,90.0000034332277
184,181,27673,5,0,0:0:0:0:
215,175,27780,1,0,0:0:0:0:
250,168,27887,1,0,0:0:0:0:
281,162,27995,1,0,0:0:0:0:
312,157,28102,1,0,0:0:0:0:
345,151,28209,2,0,B|411:213|411:213|335:275,1,180.000006866455,0|2,0:0|0:0,0:0:0:0:
394,325,28530,6,0,L|495:334,1,90.0000034332277,2|0,0:3|0:0,0:0:0:0:
307,247,28745,2,0,L|223:284,1,90.0000034332277
155,344,28959,1,0,0:0:0:0:
106,272,29066,1,0,0:0:0:0:
189,270,29173,2,0,B|224:300|224:300|294:342,1,90.0000034332277
350,271,29387,6,0,L|363:169,1,90.0000034332277
437,299,29602,1,0,0:0:0:0:
437,299,29709,1,0,0:0:0:0:
470,195,29816,2,0,L|461:93,1,90.0000034332277
385,13,30030,1,0,0:0:0:0:
497,0,30137,1,0,0:0:0:0:
449,75,30245,6,0,B|408:92|408:92|208:115,1,180.000006866455,2|2,0:3|0:0,0:0:0:0:
206,18,30566,1,2,0:0:0:0:
197,46,30673,2,0,L|163:141,1,90.0000034332277
301,138,30887,2,0,L|282:37,1,90.0000034332277,2|2,0:0|0:0,0:0:0:0:
111,15,31102,6,0,P|56:44|34:165,1,180.000006866455
29,151,31423,1,0,0:0:0:0:
112,189,31530,1,0,0:0:0:0:
146,165,31637,1,0,0:0:0:0:
184,175,31745,1,0,0:0:0:0:
216,152,31852,1,0,0:0:0:0:
262,169,31959,6,0,L|246:264,1,90.0000034332277,2|0,0:3|0:0,0:0:0:0:
137,334,32173,1,0,0:0:0:0:
62,373,32280,2,0,L|41:273,1,90.0000034332277
85,148,32495,1,0,0:0:0:0:
106,73,32602,2,0,B|141:97|141:97|185:135,1,90.0000034332277
216,228,32816,6,0,P|239:299|362:340,1,180.000006866455
398,313,33137,1,0,0:0:0:0:
458,243,33245,5,0,0:0:0:0:
458,243,33316,1,0,0:0:0:0:
458,243,33387,1,0,0:0:0:0:
458,243,33459,1,0,0:0:0:0:
458,243,33530,1,0,0:0:0:0:
458,243,33602,1,0,0:0:0:0:
458,243,33673,2,0,L|495:341,2,90.0000034332277,2|0|0,0:3|0:0|0:0,0:0:0:0:
376,193,33995,5,0,0:0:0:0:
347,174,34102,2,0,L|258:109,1,90.0000034332277
387,61,34316,2,0,L|490:38,1,90.0000034332277
446,138,34530,5,0,0:0:0:0:
396,228,34637,1,0,0:0:0:0:
477,214,34745,1,0,0:0:0:0:
367,156,34852,1,0,0:0:0:0:
284,232,34959,6,0,L|297:339,1,90.0000034332277
189,142,35173,2,0,L|181:39,1,90.0000034332277
274,155,35387,1,2,0:3:0:0:
274,155,35495,1,0,0:0:0:0:
207,222,35602,2,0,L|83:240,1,90.0000034332277
33,254,35816,6,0,B|77:252|77:252|242:269,1,180.000006866455
286,362,36137,1,0,0:0:0:0:
327,323,36245,2,0,L|285:76,1,180.000006866455
281,62,36566,1,0,0:0:0:0:
372,89,36673,5,0,0:0:0:0:
107,154,36887,1,0,0:0:0:0:
425,221,37102,1,2,0:3:0:0:
67,180,37316,1,0,0:0:0:0:
208,32,37530,6,0,B|225:68|225:68|236:135,1,90.0000034332277
308,88,37745,2,0,B|299:151|299:151|283:202,1,90.0000034332277
249,254,37959,1,0,0:0:0:0:
171,275,38173,1,0,0:0:0:0:
95,297,38387,1,0,0:0:0:0:
21,268,38602,2,0,L|16:245,2,15,2|0|2,0:0|0:0|0:0,0:0:0:0:
9,299,38816,1,2,0:3:0:0:
7,180,39030,6,0,L|116:195,1,90.0000034332277
6,16,39245,2,0,L|120:62,1,90.0000034332277
166,105,39459,1,0,0:0:0:0:
166,105,39566,1,0,0:0:0:0:
230,37,39673,5,0,0:0:0:0:
305,84,39780,1,0,0:0:0:0:
304,4,39887,1,0,0:0:0:0:
254,80,39995,1,0,0:0:0:0:
225,162,40102,2,0,L|179:253,1,90.0000034332277
331,175,40316,2,0,L|438:155,1,90.0000034332277
116,191,40530,6,0,P|46:223|35:278,1,120
37,258,41387,5,8,0:3:0:0:
124,314,41495,1,0,0:0:0:0:
125,222,41602,2,0,L|115:119,1,90.0000034332277
216,273,41816,2,0,B|260:294|260:294|419:337,1,180.000006866455,8|0,0:3|0:0,0:0:0:0:
454,268,42137,1,0,0:0:0:0:
399,191,42245,6,0,L|423:300,1,90.0000034332277,2|0,0:3|0:0,0:0:0:0:
475,153,42459,1,0,0:0:0:0:
475,153,42566,1,0,0:0:0:0:
328,131,42673,2,0,P|281:106|233:66,1,90.0000034332277
289,10,42887,1,0,0:0:0:0:
289,10,42995,1,0,0:0:0:0:
377,17,43102,6,0,P|474:32|495:126,2,180.000006866455,0|0|4,0:0|0:0|0:0,0:0:0:0:
258,180,43745,1,0,0:0:0:0:
203,101,43852,1,0,0:0:0:0:
179,183,43959,2,0,L|214:273,1,90.0000034332277,2|0,0:3|0:0,0:0:0:0:
300,101,44173,2,0,L|312:51,2,45.0000017166138,2|0|2,0:0|0:0|0:0,0:0:0:0:
321,114,44387,2,0,L|361:201,1,90.0000034332277
376,284,44602,6,0,B|421:275|421:275|481:246,1,90.0000034332277,8|0,0:3|0:0,0:0:0:0:
206,358,44816,2,0,B|155:342|155:342|116:308,1,90.0000034332277,8|0,0:3|0:0,0:0:0:0:
290,170,45030,2,0,L|272:272,1,90.0000034332277,8|0,0:3|0:0,0:0:0:0:
91,218,45245,2,0,L|49:32,1,180.000006866455
51,42,45566,1,0,0:0:0:0:
13,124,45673,6,0,L|1:227,1,90.0000034332277,2|0,0:3|0:0,0:0:0:0:
42,288,45887,1,0,0:0:0:0:
42,288,45995,1,0,0:0:0:0:
114,215,46102,1,0,0:0:0:0:
114,215,46209,1,0,0:0:0:0:
156,295,46316,2,0,L|257:331,1,90.0000034332277
318,365,46530,5,0,0:0:0:0:
366,305,46637,1,0,0:0:0:0:
436,351,46745,1,0,0:0:0:0:
486,287,46852,1,0,0:0:0:0:
509,366,46959,2,0,L|438:296,1,90.0000034332277,8|0,0:3|0:0,0:0:0:0:
400,221,47173,5,0,0:0:0:0:
352,168,47280,1,0,0:0:0:0:
409,112,47387,2,0,L|506:134,1,90.0000034332277,2|0,0:3|0:0,0:0:0:0:
246,123,47602,5,0,0:0:0:0:
312,167,47709,1,0,0:0:0:0:
267,232,47816,2,0,L|216:317,1,90.0000034332277
78,263,48030,2,0,L|60:217,2,45.0000017166138,2|0|2,0:0|0:0|0:0,0:0:0:0:
54,308,48245,6,0,P|120:231|110:104,1,180.000006866455,8|0,0:3|0:0,0:0:0:0:
82,82,48566,1,0,0:0:0:0:
82,82,48673,2,0,L|-5:110,1,90.0000034332277,8|0,0:3|0:0,0:0:0:0:
278,136,48887,2,0,L|358:70,1,90.0000034332277,8|0,0:3|0:0,0:0:0:0:
475,12,49102,6,0,B|470:62|470:62|420:225,1,180.000006866455,2|0,0:3|0:0,0:0:0:0:
431,186,49423,1,0,0:0:0:0:
431,186,49530,1,0,0:0:0:0:
199,78,49745,1,0,0:0:0:0:
303,86,49852,1,0,0:0:0:0:
218,57,49959,2,0,L|108:42,1,90.0000034332277
287,118,50173,2,0,L|384:121,1,90.0000034332277
215,161,50387,5,4,0:0:0:0:
215,161,50459,1,0,0:0:0:0:
215,161,50530,1,0,0:0:0:0:
215,161,50602,2,0,B|146:222|146:222|234:267,1,180.000006866455,0|2,0:0|0:3,0:0:0:0:
297,209,50923,1,0,0:0:0:0:
340,229,51030,2,0,B|416:284|416:284|355:378,1,180.000006866455
176,298,51459,6,0,P|136:269|82:243,1,90.0000034332277,8|0,0:3|0:0,0:0:0:0:
244,117,51673,2,0,P|277:80|307:30,1,90.0000034332277,8|0,0:3|0:0,0:0:0:0:
299,199,51887,1,8,0:3:0:0:
299,199,51995,1,0,0:0:0:0:
321,297,52102,2,0,L|435:345,1,90.0000034332277
459,262,52316,5,0,0:0:0:0:
491,357,52423,1,0,0:0:0:0:
497,278,52530,2,0,L|465:178,1,90.0000034332277,2|0,0:3|0:0,0:0:0:0:
360,97,52745,2,0,L|382:200,1,90.0000034332277
361,303,52959,2,0,L|280:228,1,90.0000034332277,8|0,0:3|0:0,0:0:0:0:
195,167,53173,5,8,0:3:0:0:
100,192,53280,1,0,0:0:0:0:
166,132,53387,2,0,L|281:140,1,90.0000034332277
167,258,53602,2,0,L|96:316,1,90.0000034332277
57,186,53816,2,0,L|21:98,1,90.0000034332277
99,25,54030,5,0,0:0:0:0:
0,8,54137,1,0,0:0:0:0:
92,41,54245,2,0,L|189:55,1,90.0000034332277,2|0,0:3|0:0,0:0:0:0:
271,36,54459,1,8,0:3:0:0:
307,65,54566,1,0,0:0:0:0:
354,49,54673,1,8,0:3:0:0:
389,84,54780,1,0,0:0:0:0:
437,72,54887,1,0,0:0:0:0:
467,110,54995,1,0,0:0:0:0:
510,80,55102,6,0,L|513:189,1,90.0000034332277,8|0,0:3|0:0,0:0:0:0:
445,4,55316,2,0,L|391:200,1,180.000006866455,0|8,0:0|0:3,0:0:0:0:
245,318,55745,1,0,0:0:0:0:
245,318,55852,1,0,0:0:0:0:
166,262,55959,2,0,L|138:359,1,90.0000034332277,2|0,0:3|0:0,0:0:0:0:
248,196,56173,2,0,L|291:384,1,180.000006866455
66,256,56602,5,0,0:0:0:0:
384,237,56816,1,0,0:0:0:0:
12,193,57030,1,0,0:0:0:0:
425,156,57245,1,4,0:0:0:0:
74,131,57459,6,0,P|56:99|70:34,1,90.0000034332277
148,80,57673,1,2,0:3:0:0:
148,80,57780,1,0,0:0:0:0:
148,80,57887,2,0,L|366:120,1,180.000006866455,2|0,0:0|0:0,0:0:0:0:
454,186,58316,5,8,0:3:0:0:
485,100,58423,1,0,0:0:0:0:
506,13,58530,2,0,L|509:128,1,90.0000034332277,8|0,0:3|0:0,0:0:0:0:
500,262,58745,6,0,L|478:337,2,45.0000017166138
390,278,59173,2,0,L|334:288,1,45.0000017166138
310,278,59387,2,0,L|254:294,2,45.0000017166138
309,196,59816,2,0,L|410:168,1,90.0000034332277
282,31,60245,5,0,0:0:0:0:
253,43,60352,1,0,0:0:0:0:
173,29,60459,2,0,L|148:89,1,45.0000017166138
75,86,60673,2,0,L|47:-12,2,90.0000034332277
22,179,61316,2,0,L|11:227,1,45.0000017166138
47,221,61530,6,0,L|64:324,1,90
42,341,61959,6,0,B|92:358|92:358|171:368,1,90.0000034332277,8|0,0:3|0:0,0:0:0:0:
284,224,62173,2,0,B|236:239|236:239|189:268,1,90.0000034332277
341,291,62387,1,8,0:3:0:0:
425,336,62495,1,0,0:0:0:0:
347,331,62602,1,0,0:0:0:0:
420,260,62709,1,0,0:0:0:0:
381,189,62816,6,0,L|357:98,1,90.0000034332277,2|0,0:3|0:0,0:0:0:0:
252,170,63030,1,0,0:0:0:0:
252,170,63137,1,0,0:0:0:0:
164,215,63245,2,0,L|53:222,1,90.0000034332277
251,271,63459,2,0,L|363:287,1,90.0000034332277
435,344,63673,5,0,0:0:0:0:
488,282,63780,1,0,0:0:0:0:
433,221,63887,1,0,0:0:0:0:
488,157,63995,1,0,0:0:0:0:
441,90,64102,6,0,L|501:8,1,90.0000034332277,4|0,0:0|0:0,0:0:0:0:
353,163,64316,1,0,0:0:0:0:
353,163,64423,1,0,0:0:0:0:
309,76,64530,2,0,L|392:12,1,90.0000034332277,2|0,0:3|0:0,0:0:0:0:
433,123,64745,1,0,0:0:0:0:
446,192,64852,2,0,L|398:279,1,90.0000034332277
293,334,65066,1,0,0:0:0:0:
210,349,65173,2,0,P|142:335|105:333,1,90.0000034332277,8|0,0:3|0:0,0:0:0:0:
266,178,65387,6,0,P|310:172|357:158,1,90.0000034332277,8|0,0:3|0:0,0:0:0:0:
132,58,65602,2,0,P|89:90|50:138,1,90.0000034332277,8|0,0:3|0:0,0:0:0:0:
150,227,65816,5,8,0:3:0:0:
183,130,65923,1,0,0:0:0:0:
185,235,66030,1,0,0:0:0:0:
153,135,66137,1,0,0:0:0:0:
47,213,66245,6,0,L|123:391,1,180.000006866455,2|0,0:3|0:0,0:0:0:0:
191,329,66566,1,0,0:0:0:0:
261,261,66673,2,0,L|282:169,1,90.0000034332277
290,41,66887,2,0,L|322:148,1,90.0000034332277
420,24,67102,5,0,0:0:0:0:
462,62,67209,1,0,0:0:0:0:
434,113,67316,1,0,0:0:0:0:
471,165,67423,1,0,0:0:0:0:
422,210,67530,1,8,0:3:0:0:
465,256,67637,1,0,0:0:0:0:
426,303,67745,2,0,L|199:253,1,180.000006866455,0|2,0:0|0:3,0:0:0:0:
250,264,68066,1,0,0:0:0:0:
175,210,68173,5,0,0:0:0:0:
156,285,68280,1,0,0:0:0:0:
101,231,68387,2,0,L|9:222,1,90.0000034332277
115,146,68602,2,0,L|196:97,1,90.0000034332277
290,33,68816,6,0,L|273:143,1,90.0000034332277,8|0,0:3|0:0,0:0:0:0:
263,309,69030,2,0,L|225:221,1,90.0000034332277
173,152,69245,1,8,0:3:0:0:
173,152,69352,1,0,0:0:0:0:
106,274,69459,1,8,0:3:0:0:
106,274,69566,1,0,0:0:0:0:
48,192,69673,6,0,B|31:159|31:159|16:70,1,90.0000034332277,2|0,0:3|0:0,0:0:0:0:
159,52,69887,1,0,0:0:0:0:
117,148,69995,1,0,0:0:0:0:
186,66,70102,2,0,L|309:53,1,90.0000034332277
397,22,70316,2,0,L|342:116,1,90.0000034332277
287,155,70530,5,0,0:0:0:0:
364,217,70637,1,0,0:0:0:0:
285,232,70745,1,0,0:0:0:0:
366,140,70852,1,0,0:0:0:0:
447,180,70959,5,4,0:0:0:0:
447,180,71030,1,0,0:0:0:0:
447,180,71102,1,0,0:0:0:0:
447,180,71173,2,0,B|497:260|497:260|419:323,2,180.000006866455,0|2|0,0:0|0:3|0:0,0:0:0:0:
379,120,71709,1,0,0:0:0:0:
326,138,71816,2,0,L|228:160,1,90.0000034332277
161,101,72030,2,0,L|121:194,1,90.0000034332277,8|0,0:3|0:0,0:0:0:0:
31,122,72245,6,0,P|15:82|11:28,1,90.0000034332277,8|0,0:3|0:0,0:0:0:0:
165,201,72459,2,0,P|181:254|177:305,1,90.0000034332277,8|0,0:3|0:0,0:0:0:0:
88,261,72673,1,0,0:0:0:0:
88,261,72780,1,0,0:0:0:0:
14,198,72887,2,0,L|111:170,1,90.0000034332277
130,98,73102,5,2,0:3:0:0:
178,65,73209,1,0,0:0:0:0:
207,117,73316,1,0,0:0:0:0:
257,83,73423,1,0,0:0:0:0:
281,137,73530,1,8,0:3:0:0:
333,102,73637,1,0,0:0:0:0:
361,160,73745,1,8,0:3:0:0:
414,125,73852,1,0,0:0:0:0:
461,216,73959,5,0,0:0:0:0:
397,179,74066,1,0,0:0:0:0:
343,234,74173,1,0,0:0:0:0:
268,208,74280,1,0,0:0:0:0:
217,268,74387,1,0,0:0:0:0:
147,234,74495,1,0,0:0:0:0:
105,296,74602,1,0,0:0:0:0:
34,263,74709,1,0,0:0:0:0:
4,339,74816,5,2,0:3:0:0:
4,339,74923,1,0,0:0:0:0:
4,339,75030,2,0,P|47:361|103:363,1,90.0000034332277,8|0,0:3|0:0,0:0:0:0:
191,132,75245,2,0,P|137:137|84:162,1,90.0000034332277,8|0,0:3|0:0,0:0:0:0:
192,283,75459,6,0,B|239:322|290:306|367:351,1,180.000006866455
118,204,79102,6,0,L|217:373,1,180.000006866455,8|0,0:3|0:0,0:0:0:0:
335,292,79530,6,0,L|470:321,1,120.000004577637
429,227,79816,6,0,L|332:148,1,120.000004577637
300,51,80102,6,0,L|200:146,1,120.000004577637
136,61,80387,6,0,B|91:140|91:140|56:287,1,180.000006866455
18,320,80816,6,0,L|118:336,2,80
181,268,81245,2,0,L|266:322,2,80
147,158,81673,6,0,L|336:190,1,180.000006866455
111,147,85959,6,0,L|223:344,1,180.000006866455,8|0,0:3|0:0,0:0:0:0:
264,237,86280,1,0,0:0:0:0:
274,190,86387,2,0,L|302:99,1,90.0000034332277,8|0,0:3|0:0,0:0:0:0:
345,293,86602,2,0,L|428:351,1,90.0000034332277
466,265,86816,6,0,P|496:222|492:138,1,120.000004577637
450,94,87102,5,0,0:0:0:0:
369,45,87245,6,0,P|354:106|318:172,1,120.000004577637
252,176,87530,5,0,0:0:0:0:
199,105,87673,6,0,L|15:28,1,180.000006866455
8,106,87995,1,0,0:0:0:0:
35,184,88102,6,0,L|58:335,2,120.000004577637,4|0|0,0:0|0:0|0:0,0:0:0:0:
99,129,88530,6,0,L|17:11,2,120.000004577637,2|0|0,0:3|0:0|0:0,0:0:0:0:
170,59,88959,2,0,L|277:44,1,90.0000034332277
389,10,89173,2,0,L|342:111,1,90.0000034332277,8|0,0:3|0:0,0:0:0:0:
212,164,89387,6,0,L|107:134,1,90.0000034332277,8|0,0:3|0:0,0:0:0:0:
449,105,89602,2,0,L|479:204,1,90.0000034332277,8|0,0:3|0:0,0:0:0:0:
387,263,89816,6,0,B|412:323|412:323|451:373,2,120.000004577637,8|0|0,0:3|0:0|0:0,0:0:0:0:
260,208,90245,2,0,B|204:142|204:142|76:43,1,240.000009155274,2|0,0:3|0:0,0:0:0:0:
45,140,90673,6,0,B|21:198|21:198|1:278,2,120.000004577637
226,80,91102,2,0,B|311:111|311:111|480:134,1,240.000009155274
494,53,91530,6,0,L|345:15,1,120.000004577637,8|0,0:3|0:0,0:0:0:0:
296,17,91816,5,0,0:0:0:0:
233,71,91959,6,0,L|105:135,1,120.000004577637,2|0,0:3|0:0,0:0:0:0:
48,163,92245,5,0,0:0:0:0:
23,243,92387,5,0,0:0:0:0:
19,25,92816,6,0,L|81:178,2,120.000004577637,8|0|0,0:3|0:0|0:0,0:0:0:0:
153,112,93245,2,0,L|193:205,1,90.0000034332277,8|0,0:3|0:0,0:0:0:0:
328,299,93459,2,0,L|428:324,1,90.0000034332277,8|0,0:3|0:0,0:0:0:0:
232,282,93673,6,0,B|177:299|177:299|76:347,2,120.000004577637,2|0|0,0:3|0:0|0:0,0:0:0:0:
322,177,94102,2,0,L|504:206,1,180.000006866455
346,310,94530,5,0,0:0:0:0:
256,278,94673,5,0,0:0:0:0:
171,319,94816,5,0,0:0:0:0:
77,287,94959,6,0,L|58:358,3,60.0000022888184,4|0|0|0,0:0|0:0|0:0|0:0,0:0:0:0:
5,182,95387,5,0,0:0:0:0:
68,114,95530,5,0,0:0:0:0:
159,157,95673,5,0,0:0:0:0:
245,98,95816,6,0,L|275:294,2,180.000006866455
356,42,96673,6,0,L|415:49,2,60.0000022888184
425,137,97102,2,0,L|491:170,2,60.0000022888184
360,206,97530,2,0,L|369:271,1,60.0000022888184
280,62,97959,6,0,L|283:-8,2,60.0000022888184
197,77,98387,2,0,L|159:29,2,60.0000022888184
72,36,98816,2,0,L|8:18,1,60.0000022888184
8,152,99245,5,2,0:0:0:0:
31,255,99352,1,0,0:0:0:0:
54,348,99459,1,0,0:0:0:0:
170,331,99673,6,0,L|186:234,1,90.0000034332277,8|0,0:3|0:0,0:0:0:0:
173,53,99887,2,0,L|222:152,1,90.0000034332277
302,160,100102,1,8,0:3:0:0:
406,191,100209,1,0,0:0:0:0:
335,236,100316,1,0,0:0:0:0:
371,119,100423,1,0,0:0:0:0:
487,165,100530,6,0,L|514:252,1,90.0000034332277,2|0,0:3|0:0,0:0:0:0:
417,232,100745,1,0,0:0:0:0:
417,232,100852,1,0,0:0:0:0:
307,172,100959,2,0,L|217:117,1,90.0000034332277
136,147,101173,1,0,0:0:0:0:
95,35,101280,1,0,0:0:0:0:
42,143,101387,6,0,L|87:233,1,90.0000034332277
160,113,101602,2,0,P|178:64|186:9,1,90.0000034332277
227,183,101816,1,4,0:0:0:0:
278,202,101923,1,0,0:0:0:0:
316,167,102030,1,0,0:0:0:0:
365,190,102137,1,0,0:0:0:0:
399,149,102245,6,0,L|499:132,1,90.0000034332277,2|0,0:3|0:0,0:0:0:0:
291,64,102459,1,0,0:0:0:0:
343,49,102566,2,0,L|445:25,1,90.0000034332277
208,25,102780,1,0,0:0:0:0:
178,66,102887,2,0,L|86:147,1,90.0000034332277,8|0,0:3|0:0,0:0:0:0:
25,5,103102,6,0,L|7:111,1,90.0000034332277,8|0,0:3|0:0,0:0:0:0:
159,240,103316,2,0,L|135:350,1,90.0000034332277,8|0,0:3|0:0,0:0:0:0:
21,352,103530,2,0,L|8:253,1,90.0000034332277,8|0,0:3|0:0,0:0:0:0:
36,164,103745,1,0,0:0:0:0:
101,278,103852,1,0,0:0:0:0:
108,169,103959,6,0,B|124:118|124:118|211:9,1,180.000006866455,2|0,0:3|0:0,0:0:0:0:
202,19,104280,1,0,0:0:0:0:
281,52,104387,1,0,0:0:0:0:
315,44,104495,1,0,0:0:0:0:
360,36,104602,1,0,0:0:0:0:
405,28,104709,1,0,0:0:0:0:
446,19,104816,6,0,B|475:52|475:52|511:96,1,90.0000034332277
431,152,105030,1,0,0:0:0:0:
397,202,105137,2,0,L|288:266,2,90.0000034332277,0|8|0,0:0|0:3|0:0,0:0:0:0:
457,256,105459,2,0,L|497:347,1,90.0000034332277
348,304,105673,5,2,0:3:0:0:
285,354,105780,1,0,0:0:0:0:
226,294,105887,1,0,0:0:0:0:
294,240,105995,1,0,0:0:0:0:
373,303,106102,2,0,L|438:371,1,90.0000034332277
499,225,106316,2,0,L|507:178,2,45.0000017166138,2|0|0,0:0|0:0|0:0,0:0:0:0:
481,247,106530,6,0,L|381:216,1,90.0000034332277,8|0,0:3|0:0,0:0:0:0:
148,162,106745,2,0,B|189:151|189:151|240:131,1,90.0000034332277
376,10,106959,2,0,L|251:53,1,90.0000034332277
58,55,107173,2,0,L|72:157,1,90.0000034332277
35,234,107387,5,2,0:3:0:0:
147,185,107495,1,0,0:0:0:0:
72,282,107602,1,0,0:0:0:0:
98,171,107709,1,0,0:0:0:0:
158,302,107816,6,0,L|269:357,1,90.0000034332277
296,273,108030,2,0,L|276:182,1,90.0000034332277
389,241,108245,1,0,0:0:0:0:
389,241,108352,1,0,0:0:0:0:
346,348,108459,1,0,0:0:0:0:
346,348,108566,1,0,0:0:0:0:
440,321,108673,5,4,0:0:0:0:
440,321,108745,1,0,0:0:0:0:
440,321,108816,1,0,0:0:0:0:
440,321,108887,2,0,B|511:374|511:374|499:261,2,180.000006866455,0|2|0,0:0|0:3|0:0,0:0:0:0:
356,278,109423,1,0,0:0:0:0:
306,299,109530,2,0,L|214:347,1,90.0000034332277
139,360,109745,2,0,L|107:262,1,90.0000034332277,8|0,0:3|0:0,0:0:0:0:
152,128,109959,6,0,L|49:135,1,90.0000034332277,8|0,0:3|0:0,0:0:0:0:
323,177,110173,2,0,L|442:130,1,90.0000034332277,8|0,0:3|0:0,0:0:0:0:
484,62,110387,1,0,0:0:0:0:
484,62,110495,1,0,0:0:0:0:
406,10,110602,2,0,L|338:79,1,90.0000034332277
260,59,110816,5,2,0:3:0:0:
223,102,110923,1,0,0:0:0:0:
256,147,111030,1,0,0:0:0:0:
218,191,111137,1,0,0:0:0:0:
240,240,111245,1,8,0:3:0:0:
199,281,111352,1,0,0:0:0:0:
226,333,111459,1,8,0:3:0:0:
184,368,111566,1,0,0:0:0:0:
267,360,111673,5,0,0:0:0:0:
249,282,111780,1,0,0:0:0:0:
323,298,111887,1,0,0:0:0:0:
311,223,111995,1,0,0:0:0:0:
388,233,112102,1,0,0:0:0:0:
373,160,112209,1,0,0:0:0:0:
448,182,112316,1,0,0:0:0:0:
433,103,112423,1,0,0:0:0:0:
509,126,112530,5,2,0:3:0:0:
509,126,112637,1,0,0:0:0:0:
509,126,112745,2,0,P|503:67|492:30,1,90.0000034332277,8|0,0:3|0:0,0:0:0:0:
282,112,112959,2,0,P|288:176|307:224,1,90.0000034332277,8|0,0:3|0:0,0:0:0:0:
406,324,113173,5,8,0:0:0:0:
406,324,113387,1,8,0:3:0:0:
