osu file format v14

[General]
AudioFilename: audio.mp3
AudioLeadIn: 0
PreviewTime: 67321
Countdown: 0
SampleSet: Soft
StackLeniency: 0.7
Mode: 0
LetterboxInBreaks: 0
WidescreenStoryboard: 1

[Editor]
DistanceSpacing: 1.2
BeatDivisor: 4
GridSize: 8
TimelineZoom: 1.8

[Metadata]
Title:Red Sun (Maniac Agenda Mix)
TitleUnicode:Red Sun (Maniac Agenda Mix)
Artist:Logan Mader, Jamie Christopherson
ArtistUnicode:Logan Mader, Jamie Christopherson
Creator:Revolver
Version:LIGHT INSANE
Source:Metal Gear Rising: Revengeance
Tags:jason miller raiden jack the ripper sundower boss theme platinum platinumgames mgs mgr solid metal rock english video game gouhin fsjallink konami メタルギア ライジング リベンジェンス
BeatmapID:3487903
BeatmapSetID:1706955

[Difficulty]
HPDrainRate:5
CircleSize:3.5
OverallDifficulty:6.5
ApproachRate:7.8
SliderMultiplier:1.4
SliderTickRate:1

[Events]
//Background and Video events
0,0,"ghHKq5d.jpeg",0,0
//Break Periods
2,93220,105042
//Storyboard Layer 0 (Background)
//Storyboard Layer 1 (Fail)
//Storyboard Layer 2 (Pass)
//Storyboard Layer 3 (Foreground)
//Storyboard Layer 4 (Overlay)
//Storyboard Sound Samples

[TimingPoints]
221,400,4,2,0,50,1,0
221,-133.333333333333,4,2,0,50,0,0
3020,-100,4,2,0,50,0,0
3421,400,4,2,0,70,1,0
16220,-100,4,2,0,60,0,0
16621,-83.3333333333333,4,2,0,60,0,0
29420,-83.3333333333333,4,2,0,60,0,0
35820,-83.3333333333333,4,2,0,60,0,0
42220,-83.3333333333333,4,2,0,60,0,0
48621,-83.3333333333333,4,2,0,60,0,0
54620,-83.3333333333333,4,2,0,60,0,0
61020,-83.3333333333333,4,2,0,60,0,0
64220,-83.3333333333333,4,2,0,60,0,0
67421,-83.3333333333333,4,2,0,70,0,1
93021,-83.3333333333333,4,2,0,60,0,0
106621,-83.3333333333333,4,2,0,70,0,0
107220,-83.3333333333333,4,2,0,60,0,0
109821,-83.3333333333333,4,2,0,70,0,0
110420,-83.3333333333333,4,2,0,60,0,0
113020,-83.3333333333333,4,2,0,70,0,0
113620,-83.3333333333333,4,2,0,60,0,0
121021,-83.3333333333333,4,2,0,70,0,0
121420,-83.3333333333333,4,2,0,50,0,0
121820,-83.3333333333333,4,2,0,45,0,0
122620,-83.3333333333333,4,2,0,40,0,0
123421,-83.3333333333333,4,2,0,35,0,0
124221,-83.3333333333333,4,2,0,30,0,0
125020,-83.3333333333333,4,2,0,25,0,0
125820,-83.3333333333333,4,2,0,20,0,0
126621,-83.3333333333333,4,2,0,15,0,0
127421,-83.3333333333333,4,2,0,10,0,0
128220,-83.3333333333333,4,2,0,5,0,0

[Colours]
Combo1 : 128,128,128
Combo2 : 255,0,0

[HitObjects]
240,35,221,6,0,L|233:98,1,52.5000020027161,4|0,1:2|0:0,0:0:0:0:
221,183,620,1,0,3:0:0:0:
221,183,820,1,0,3:0:0:0:
312,142,1021,6,0,L|371:135,1,52.5000020027161,2|0,0:0|0:0,0:0:0:0:
335,231,1420,2,0,L|342:290,1,52.5000020027161
435,249,1820,6,0,L|494:242,1,52.5000020027161
466,144,2221,2,0,L|456:85,1,52.5000020027161
382,26,2620,2,0,P|353:21|321:33,1,52.5000020027161,8|0,0:0|1:0,0:0:0:0:
239,26,3020,5,0,1:0:0:0:
221,26,3121,1,0,1:0:0:0:
203,26,3221,1,0,1:0:0:0:
185,27,3321,1,0,1:0:0:0:
167,27,3421,6,0,L|161:113,1,70,4|2,1:2|0:0,0:0:0:0:
189,183,3820,1,8,0:0:0:0:
139,259,4020,2,2,L|-10:240,1,140,0|0,1:0|1:0,0:1:0:0:
32,155,4621,1,8,0:0:0:0:
22,326,4820,2,2,L|181:347,1,140,2|2,1:1|0:0,0:1:0:0:
237,294,5421,6,0,P|222:263|230:220,1,70,8|2,0:0|1:1,0:0:0:0:
294,168,5820,1,2,0:0:0:0:
373,212,6020,1,0,1:1:0:0:
373,212,6220,2,0,L|442:223,1,70,8|2,0:0|1:2,0:0:0:0:
482,141,6621,6,0,P|488:102|467:61,1,70,2|0,1:2|0:0,0:0:0:0:
391,45,7020,1,8,0:0:0:0:
294,168,7220,2,2,B|241:154|241:154|227:171|227:171|141:152,1,140,2|2,1:2|1:0,0:1:0:0:
112,81,7821,1,8,0:0:0:0:
128,231,8020,2,2,L|292:268,1,140,2|2,1:1|0:2,0:1:0:0:
353,240,8621,6,0,P|374:207|366:168,1,70,8|0,0:0|0:0,0:0:0:0:
311,108,9021,2,0,P|309:73|329:45,1,70,2|0,0:3|1:0,0:0:0:0:
414,12,9420,1,10,0:0:0:0:
225,91,9620,1,0,1:0:0:0:
225,91,9721,1,8,0:0:0:0:
225,91,9821,6,0,L|60:57,1,140,6|8,1:2|0:0,0:0:0:0:
68,142,10420,2,0,L|205:170,1,140,2|0,0:0|1:0,0:0:0:0:
280,222,11021,2,0,P|348:201|425:258,1,140,10|0,0:0|1:0,0:0:0:0:
407,320,11620,2,0,P|345:349|280:327,1,140,2|0,0:0|1:0,0:0:0:0:
191,305,12221,6,0,L|139:318,2,35,2|2|0,3:0|3:0|1:0,0:0:0:0:
190,213,12620,2,0,L|155:206,2,35,8|0|0,0:0|1:0|1:0,0:0:0:0:
280,222,13021,5,0,1:0:0:0:
206,126,13221,2,0,P|130:113|71:164,1,140,2|0,0:0|1:0,0:0:0:0:
155,206,13820,2,0,P|92:250|86:328,1,140,2|8,0:0|0:0,0:0:0:0:
172,296,14421,2,0,L|336:272,1,140,0|2,1:0|0:3,0:0:0:0:
391,316,15020,6,0,L|398:243,1,70,8|2,0:0|0:0,0:0:0:0:
453,173,15421,2,0,L|446:103,1,70,2|0,0:0|1:0,0:0:0:0:
391,30,15820,1,8,0:0:0:0:
333,157,16020,1,0,1:0:0:0:
333,157,16120,1,8,0:0:0:0:
333,157,16220,1,4,1:0:0:0:
244,48,16621,6,0,L|143:40,1,83.9999974365235,10|0,0:0|1:0,0:0:0:0:
81,90,17020,2,0,L|108:264,1,167.999994873047,2|8,0:0|0:0,0:0:0:0:
127,346,17621,1,2,0:3:0:0:
198,287,17821,2,0,L|182:191,1,83.9999974365235,0|2,1:0|0:0,0:0:0:0:
246,135,18220,1,8,0:0:0:0:
246,135,18420,1,0,1:0:0:0:
316,194,18621,1,0,3:0:0:0:
316,194,18821,1,0,1:0:0:0:
364,115,19020,2,0,P|403:103|453:122,1,83.9999974365235,8|0,1:2|1:0,0:0:0:0:
472,203,19420,6,0,L|498:368,3,167.999994873047,2|10|2|8,1:2|1:2|0:0|0:0,0:0:0:0:
408,344,20821,2,0,P|351:273|182:328,1,251.999992309571,2|8,1:2|0:0,0:0:0:0:
146,366,21620,1,2,0:0:0:0:
85,295,21821,2,0,L|93:203,1,83.9999974365235,2|0,0:0|1:0,0:0:0:0:
162,149,22221,2,0,L|148:65,1,83.9999974365235,10|0,0:0|1:0,0:0:0:0:
143,37,22520,1,8,0:0:0:0:
143,37,22620,1,4,1:2:0:0:
243,192,23021,6,0,P|288:203|329:180,1,83.9999974365235,10|2,0:0|0:3,0:0:0:0:
369,109,23420,2,0,P|451:75|507:150,1,167.999994873047,2|8,0:0|0:0,0:0:0:0:
462,205,24021,1,0,1:0:0:0:
462,205,24221,2,0,L|476:295,1,83.9999974365235,0|2,1:0|0:0,0:0:0:0:
384,270,24620,2,0,L|296:258,1,83.9999974365235,8|0,0:0|3:0,0:0:0:0:
209,274,25020,6,0,L|195:222,2,41.9999987182618,0|0|0,1:0|3:2|1:0,0:0:0:0:
119,297,25421,2,0,L|108:337,2,41.9999987182618,8|0|0,3:2|3:0|1:0,0:0:0:0:
67,220,25820,6,0,P|81:126|-5:80,2,167.999994873047,2|10|2,1:2|1:2|0:0,0:0:0:0:
161,60,27020,1,8,0:0:0:0:
192,242,27421,2,2,L|384:194,1,167.999994873047,2|8,1:0|0:0,1:0:0:0:
414,130,28020,1,2,0:0:0:0:
465,206,28220,2,0,B|457:296,1,83.9999974365235,2|0,0:3|1:0,0:0:0:0:
372,327,28621,2,0,B|274:315,1,83.9999974365235,8|0,0:0|1:0,0:0:0:0:
255,311,28920,1,8,0:0:0:0:
255,311,29020,1,4,1:2:0:0:
71,286,29420,6,0,L|85:193,1,83.9999974365235,10|2,0:0|0:3,0:0:0:0:
177,203,29821,2,0,B|148:19,1,167.999994873047,2|8,0:0|0:0,0:0:0:0:
242,47,30420,1,0,1:0:0:0:
298,120,30621,2,0,L|280:241,2,83.9999974365235,0|2|8,1:0|0:0|0:0,0:0:0:0:
449,14,31420,6,0,P|461:68|441:116,1,83.9999974365235,2|0,0:0|1:0,0:0:0:0:
398,169,31821,2,0,P|390:209|403:249,1,83.9999974365235,8|0,0:0|1:0,0:0:0:0:
478,303,32220,6,0,L|298:277,1,167.999994873047,4|10,1:2|0:0,0:0:0:0:
230,324,32821,1,2,0:3:0:0:
168,255,33021,2,0,B|171:181|171:181|185:161|185:161|184:75,1,167.999994873047,2|10,1:0|0:0,0:0:0:0:
127,18,33620,1,0,1:0:0:0:
96,105,33820,6,0,L|-7:115,1,83.9999974365235,2|2,1:0|0:1,0:0:0:0:
0,206,34221,2,0,L|83:214,1,83.9999974365235,8|2,0:0|0:0,0:0:0:0:
168,255,34620,6,0,L|160:296,4,41.9999987182618,0|0|0|0|8,3:0|3:0|3:0|3:0|0:0,0:0:0:0:
185,169,35221,5,0,1:0:0:0:
185,169,35321,1,8,0:0:0:0:
185,169,35421,1,4,1:2:0:0:
258,338,35820,6,0,L|349:328,1,83.9999974365235,10|2,0:0|0:3,0:0:0:0:
433,318,36221,1,2,0:0:0:0:
433,318,36421,1,0,1:0:0:0:
359,148,36620,1,8,0:0:0:0:
341,328,37020,1,0,1:0:0:0:
460,186,37421,6,0,P|468:140|440:88,1,83.9999974365235,10|2,1:2|1:2,0:0:0:0:
384,46,37820,2,0,P|310:22|226:103,1,167.999994873047,2|8,1:0|0:0,0:0:0:0:
153,29,38421,1,2,1:0:0:0:
73,76,38621,6,0,L|105:245,1,167.999994873047,6|8,1:2|0:0,0:0:0:0:
70,327,39220,1,2,0:0:0:0:
158,353,39421,6,0,L|207:358,3,41.9999987182618,0|0|0|0,1:2|3:0|1:0|3:0,0:0:0:0:
238,332,39821,2,0,L|279:327,3,41.9999987182618,8|0|0|0,0:0|3:0|1:0|3:0,0:0:0:0:
318,351,40220,2,0,L|495:326,1,167.999994873047,0|8,1:0|3:2,0:0:0:0:
502,236,40821,1,2,3:3:0:0:
448,160,41020,5,8,0:0:0:0:
427,153,41120,1,8,0:0:0:0:
406,146,41220,1,8,0:0:0:0:
385,139,41320,1,8,0:0:0:0:
364,134,41420,2,0,L|267:149,1,83.9999974365235,2|2,1:1|0:0,0:0:0:0:
188,156,41821,1,4,1:2:0:0:
27,64,42220,6,0,L|46:155,1,83.9999974365235,10|2,0:0|0:0,0:0:0:0:
111,210,42620,2,0,L|141:380,1,167.999994873047,2|10,3:2|0:2,0:0:0:0:
231,360,43220,1,2,0:0:0:0:
231,360,43420,2,0,B|302:353|302:353|328:333|328:333|400:334,1,167.999994873047,0|8,1:0|0:0,0:0:0:0:
460,270,44021,2,0,P|470:218|426:177,1,83.9999974365235,2|2,0:0|0:0,0:0:0:0:
371,154,44420,5,2,1:2:0:0:
371,154,44620,1,10,0:0:0:0:
315,80,44820,1,2,1:2:0:0:
280,227,45021,1,4,1:2:0:0:
209,56,45420,6,0,L|111:48,1,83.9999974365235,10|2,0:0|0:3,0:0:0:0:
82,131,45820,2,0,L|289:150,1,167.999994873047,2|8,0:0|0:0,0:0:0:0:
280,227,46421,1,2,1:3:0:0:
206,283,46620,2,0,L|222:365,1,83.9999974365235,2|2,1:0|0:1,0:0:0:0:
116,308,47020,2,0,L|132:226,1,83.9999974365235,8|0,0:0|1:0,0:0:0:0:
61,165,47421,6,0,L|49:110,4,41.9999987182618,2|0|0|0|8,3:2|3:0|1:0|3:0|3:2,0:0:0:0:
155,141,48020,5,0,1:0:0:0:
155,141,48120,1,8,3:2:0:0:
155,141,48221,1,4,1:2:0:0:
298,258,48621,6,0,P|337:272|389:246,1,83.9999974365235,10|2,0:0|0:3,0:0:0:0:
435,188,49020,2,0,L|390:11,1,167.999994873047,2|8,0:0|0:0,0:0:0:0:
318,80,49621,1,2,1:2:0:0:
238,32,49820,2,0,L|119:46,1,83.9999974365235,0|2,1:0|0:3,0:0:0:0:
61,47,50220,1,8,0:0:0:0:
61,47,50421,1,2,0:3:0:0:
99,131,50621,2,0,B|122:180|122:180|72:311,1,167.999994873047,2|8,0:0|0:0,0:0:0:0:
222,167,51420,6,0,B|290:126|346:141|398:214|367:212|376:282|449:295|496:270,1,335.999989746094,4|2,1:2|3:2,0:0:0:0:
462,184,52420,5,0,1:0:0:0:
462,184,52520,1,0,3:0:0:0:
462,184,52621,1,8,1:2:0:0:
413,104,52821,1,0,1:0:0:0:
487,49,53021,6,2,L|311:66,1,167.999994873047,0|8,1:0|0:0,0:1:0:0:
382,144,53621,1,2,1:1:0:0:
382,144,53721,2,0,L|473:136,1,83.9999974365235,8|0,0:0|1:0,0:0:0:0:
508,138,54021,1,8,0:0:0:0:
464,219,54220,5,8,3:2:0:0:
464,240,54320,1,0,1:0:0:0:
464,261,54420,1,8,0:0:0:0:
464,282,54520,1,8,0:0:0:0:
462,302,54620,6,0,L|474:363,3,41.9999987182618,4|0|0|0,1:0|3:0|3:0|3:0,0:0:0:0:
379,297,55021,2,0,L|387:255,3,41.9999987182618,8|0|0|0,3:2|3:0|3:0|3:0,0:0:0:0:
308,343,55420,6,0,L|192:322,1,83.9999974365235,2|0,1:2|3:0,0:0:0:0:
151,271,55820,2,0,L|68:285,1,83.9999974365235,10|0,3:2|3:0,0:0:0:0:
34,199,56221,5,2,1:2:0:0:
38,178,56321,1,0,3:0:0:0:
41,157,56420,1,0,3:0:0:0:
45,136,56520,1,0,3:0:0:0:
50,115,56620,6,0,L|45:19,1,83.9999974365235,8|0,3:2|3:0,0:0:0:0:
138,30,57021,2,0,L|142:113,1,83.9999974365235,2|2,1:2|3:2,0:0:0:0:
206,181,57421,5,8,3:2:0:0:
206,181,57520,1,0,3:0:0:0:
206,181,57620,1,2,3:2:0:0:
255,103,57820,2,0,P|334:100|389:166,1,167.999994873047,4|8,1:2|3:2,0:0:0:0:
481,164,58421,5,2,3:2:0:0:
481,164,58521,1,0,3:0:0:0:
481,164,58620,2,0,L|492:265,1,83.9999974365235,2|0,1:2|3:0,0:0:0:0:
405,287,59020,2,0,L|394:388,1,83.9999974365235,10|0,3:2|3:0,0:0:0:0:
313,328,59421,6,0,B|226:301|245:367|152:344,3,167.999994873047,2|8|6|8,1:2|3:2|1:2|0:0,0:0:0:0:
295,227,61020,5,8,1:2:0:0:
138,136,61421,1,8,1:2:0:0:
295,46,61821,1,8,1:2:0:0:
190,227,62220,1,8,1:2:0:0:
190,46,62621,1,8,1:2:0:0:
348,137,63020,1,8,1:2:0:0:
190,227,63420,6,0,L|209:338,1,83.9999974365235,8|2,1:2|3:2,0:0:0:0:
287,351,63821,2,0,L|301:268,1,83.9999974365235,8|2,1:2|3:2,0:0:0:0:
369,205,64220,5,4,1:2:0:0:
369,205,64420,1,0,1:0:0:0:
437,267,64620,1,0,1:2:0:0:
437,267,64821,1,0,1:0:0:0:
486,188,65021,1,0,1:0:0:0:
486,188,65220,1,0,1:0:0:0:
459,99,65420,1,0,1:0:0:0:
459,99,65620,1,0,1:0:0:0:
418,15,65821,5,0,1:0:0:0:
397,17,65920,1,0,1:0:0:0:
376,19,66020,1,0,1:0:0:0:
355,21,66120,1,0,1:0:0:0:
334,23,66220,1,0,1:0:0:0:
313,25,66320,1,0,1:0:0:0:
292,27,66420,1,0,1:0:0:0:
271,29,66520,1,0,1:0:0:0:
250,31,66620,6,0,L|176:25,4,41.9999987182618,0|0|0|0|8,1:0|1:0|1:0|1:0|1:0,0:0:0:0:
65,25,67420,6,0,L|42:131,1,83.9999974365235,6|0,1:1|1:0,0:0:0:0:
27,197,67820,1,8,0:0:0:0:
27,197,68021,1,0,1:0:0:0:
113,163,68221,2,0,L|205:180,2,83.9999974365235,2|0|8,1:2|1:0|0:0,0:0:0:0:
112,255,68820,6,0,P|135:338|238:353,1,167.999994873047,0|0,1:0|1:0,0:0:0:0:
265,290,69421,1,8,0:0:0:0:
331,353,69620,1,0,1:0:0:0:
331,353,69820,2,0,L|501:326,1,167.999994873047,2|8,1:2|0:0,0:0:0:0:
450,246,70421,2,0,P|443:203|462:161,1,83.9999974365235,0|4,1:0|1:2,0:0:0:0:
338,24,71020,5,10,0:0:0:0:
278,94,71220,2,0,B|226:61|226:61|106:102,1,167.999994873047,0|2,1:0|1:2,0:0:0:0:
36,67,71820,1,8,0:0:0:0:
19,157,72020,2,0,B|22:235|22:235|37:252|37:252|43:331,1,167.999994873047,2|0,1:2|1:0,0:0:0:0:
119,369,72621,5,8,0:0:0:0:
173,293,72821,2,0,L|156:207,1,83.9999974365235,2|0,1:2|1:0,0:0:0:0:
246,189,73220,2,0,L|262:271,1,83.9999974365235,2|8,1:2|0:0,0:0:0:0:
284,361,73621,1,8,0:0:0:0:
284,361,73721,1,8,0:0:0:0:
284,361,73821,1,4,1:0:0:0:
450,280,74220,5,10,0:0:0:0:
482,193,74420,1,0,1:0:0:0:
463,102,74621,2,0,B|419:86|380:112|380:112|346:132|281:110,2,167.999994873047,0|8|4,1:0|0:0|1:2,0:0:0:0:
298,16,75821,5,10,0:0:0:0:
298,16,76021,1,0,1:0:0:0:
209,22,76220,1,0,1:0:0:0:
209,22,76420,1,2,1:2:0:0:
116,25,76620,5,8,0:0:0:0:
219,121,76821,2,2,P|221:178|138:248,1,167.999994873047,4|0,1:2|1:0,0:1:0:0:
132,155,77420,5,8,0:0:0:0:
196,326,77620,2,2,L|375:309,1,167.999994873047,2|0,1:1|1:0,0:1:0:0:
445,353,78221,1,8,0:0:0:0:
441,261,78420,6,2,B|417:167|484:186|457:99,1,167.999994873047,4|2,1:2|0:3,0:1:0:0:
347,86,79021,2,0,P|311:106|271:98,1,83.9999974365235,10|0,0:0|1:0,0:0:0:0:
240,69,79321,1,8,0:0:0:0:
240,69,79421,2,0,L|129:88,1,83.9999974365235,0|8,1:0|0:0,0:0:0:0:
66,99,79820,5,0,1:0:0:0:
72,118,79920,1,8,0:0:0:0:
78,138,80020,1,0,1:0:0:0:
82,158,80121,1,8,0:0:0:0:
85,178,80221,6,0,L|96:286,1,83.9999974365235,4|0,1:1|1:0,0:0:0:0:
153,338,80621,1,10,0:0:0:0:
153,338,80821,1,0,1:0:0:0:
188,252,81021,1,2,1:2:0:0:
257,312,81221,2,0,P|297:288|362:315,1,83.9999974365235,0|8,1:0|0:0,0:0:0:0:
390,377,81622,1,2,1:2:0:0:
390,377,81721,1,8,0:0:0:0:
390,377,81821,6,0,L|361:192,1,167.999994873047,4|8,1:2|0:0,0:0:0:0:
298,145,82422,5,2,1:2:0:0:
346,68,82621,1,0,1:0:0:0:
346,68,82820,1,0,1:0:0:0:
265,21,83021,1,10,0:0:0:0:
219,104,83221,1,0,1:0:0:0:
219,104,83322,1,8,0:0:0:0:
219,104,83422,2,0,B|100:115,1,83.9999974365235,6|0,1:2|1:0,0:0:0:0:
58,60,83821,1,8,0:0:0:0:
18,143,84021,5,2,1:2:0:0:
70,218,84220,2,0,L|58:313,1,83.9999974365235,0|2,1:0|1:2,0:0:0:0:
120,371,84621,1,8,0:0:0:0:
188,308,84822,1,0,1:0:0:0:
188,308,84922,1,8,0:2:0:0:
188,308,85020,2,0,L|308:296,1,83.9999974365235,6|0,1:2|1:0,0:0:0:0:
342,360,85420,1,8,0:0:0:0:
342,360,85621,5,0,1:0:0:0:
400,287,85822,2,0,L|376:165,1,83.9999974365235,0|2,1:0|1:3,0:0:0:0:
452,142,86221,1,8,0:0:0:0:
409,71,86421,1,8,0:0:0:0:
409,71,86521,1,8,0:0:0:0:
409,71,86622,1,4,1:2:0:0:
224,86,87022,6,0,L|130:73,1,83.9999974365235,10|0,0:0|1:0,0:0:0:0:
94,154,87421,2,0,B|286:184,1,167.999994873047,2|8,1:2|0:0,0:0:0:0:
351,194,88022,1,0,1:0:0:0:
351,194,88122,1,8,0:0:0:0:
351,194,88221,1,4,1:2:0:0:
236,48,88621,6,0,L|116:67,1,83.9999974365235,10|0,0:0|1:0,0:0:0:0:
64,76,89022,1,2,1:2:0:0:
64,76,89222,1,0,1:0:0:0:
48,166,89421,1,8,0:0:0:0:
48,166,89621,1,0,1:0:0:0:
98,243,89821,6,0,L|200:232,1,83.9999974365235,6|0,1:2|1:0,0:0:0:0:
246,168,90221,2,0,L|342:187,1,83.9999974365235,10|0,0:0|1:0,0:0:0:0:
378,262,90621,2,0,B|392:356,1,83.9999974365235,2|0,1:2|1:0,0:0:0:0:
473,303,91022,1,8,0:0:0:0:
496,219,91222,1,0,1:0:0:0:
496,219,91322,1,8,0:0:0:0:
496,219,91422,6,2,P|508:165|401:105,1,167.999994873047,4|8,1:2|0:0,0:1:0:0:
359,156,92021,1,0,1:0:0:0:
359,156,92122,1,2,0:3:0:0:
359,156,92222,1,0,1:0:0:0:
295,89,92422,1,8,0:0:0:0:
229,195,92621,5,0,1:0:0:0:
224,215,92720,1,8,0:0:0:0:
219,235,92820,1,0,1:0:0:0:
213,255,92920,1,8,0:0:0:0:
208,275,93020,5,6,1:1:0:0:
32,145,105821,6,2,P|89:77|208:153,1,251.999992309571,6|2,1:1|0:3,0:1:0:0:
179,237,106621,2,0,L|440:194,1,251.999992309571,4|2,1:0|0:3,0:0:0:0:
371,112,107420,6,0,P|364:61|293:17,2,111.999996582031,2|0|0,1:2|0:0|0:0,0:0:0:0:
290,105,108121,1,0,1:0:0:0:
290,105,108220,2,0,L|116:90,1,167.999994873047,10|2,1:2|1:2,0:0:0:0:
43,150,108821,5,2,1:2:0:0:
43,150,108921,1,2,0:0:0:0:
43,150,109021,2,0,P|83:211|31:295,1,167.999994873047,2|2,1:2|3:3,0:0:0:0:
111,363,109620,1,0,1:0:0:0:
170,292,109821,6,0,B|310:247|269:371|426:348,1,251.999992309571,4|2,1:0|0:3,0:0:0:0:
472,289,110620,1,0,1:0:0:0:
422,210,110820,6,0,L|430:160,1,41.9999987182618,0|0,1:0|1:0,0:0:0:0:
483,93,111121,2,0,L|475:43,1,41.9999987182618,0|0,1:0|1:0,0:0:0:0:
392,13,111420,6,0,L|313:25,3,41.9999987182618,8|0|0|0,3:2|3:3|1:3|1:3,0:0:0:0:
306,35,111820,2,0,L|264:28,3,41.9999987182618,2|0|8|0,3:2|1:3|3:2|3:3,0:0:0:0:
217,24,112221,6,2,P|138:17|139:176,1,251.999992309571,6|2,1:1|0:3,0:1:0:0:
199,184,113020,2,1,L|455:153,1,251.999992309571,12|2,1:0|0:3,0:0:0:0:
501,229,113820,1,0,1:0:0:0:
501,229,113921,2,0,P|461:335|362:298,1,209.999993591309,2|0,1:1|1:0,0:0:0:0:
324,251,114621,5,8,0:0:0:0:
242,292,114821,2,0,L|166:283,1,41.9999987182618,0|0,1:0|1:0,0:0:0:0:
137,222,115121,1,0,1:0:0:0:
137,222,115221,2,0,L|150:160,1,41.9999987182618,8|0,0:0|0:0,0:0:0:0:
170,141,115421,6,0,L|163:73,3,41.9999987182618,2|0|8|2,1:2|3:3|3:2|1:3,0:0:0:0:
145,57,115820,2,0,L|152:-11,3,41.9999987182618,2|8|0|0,3:2|3:2|3:3|3:3,0:0:0:0:
104,2,116220,6,0,L|16:22,1,83.9999974365235,10|0,3:2|1:3,0:0:0:0:
0,111,116621,2,0,L|88:131,1,83.9999974365235,4|8,0:2|0:0,0:0:0:0:
122,212,117020,6,0,L|176:204,3,41.9999987182618,2|0|8|8,1:2|3:0|3:2|3:2,0:0:0:0:
200,234,117420,2,0,L|241:240,3,41.9999987182618,2|8|8|0,3:2|3:2|3:2|3:0,0:0:0:0:
280,214,117821,2,0,L|334:206,3,41.9999987182618,10|0|2|0,3:2|3:0|1:2|1:0,0:0:0:0:
367,206,118220,2,0,L|461:222,1,83.9999974365235,0|0,1:0|1:0,0:0:0:0:
491,136,118621,5,2,1:2:0:0:
434,62,118821,2,0,L|430:0,1,41.9999987182618,12|8,0:0|0:0,0:0:0:0:
338,24,119121,2,0,L|340:65,1,41.9999987182618,12|8,0:0|0:0,0:0:0:0:
263,117,119421,1,12,3:2:0:0:
184,67,119621,6,0,L|179:34,2,27.9999991455078,0|0|0,1:0|3:0|3:0,0:0:0:0:
169,94,119821,2,0,L|142:268,1,167.999994873047,0|0,1:0|1:0,0:0:0:0:
109,350,120421,5,8,0:0:0:0:
109,350,120521,1,8,0:0:0:0:
109,350,120621,1,0,1:0:0:0:
40,268,120821,1,8,0:0:0:0:
40,268,120921,1,8,0:0:0:0:
40,268,121021,1,12,1:0:0:0:
256,192,121121,12,0,128220,0:0:0:0:
