osu file format v14

[General]
AudioFilename: audio.mp3
AudioLeadIn: 0
PreviewTime: 67321
Countdown: 0
SampleSet: Soft
StackLeniency: 0.7
Mode: 0
LetterboxInBreaks: 0
WidescreenStoryboard: 1

[Editor]
Bookmarks: 26446,49719
DistanceSpacing: 1.1
BeatDivisor: 4
GridSize: 8
TimelineZoom: 1.5

[Metadata]
Title:Red Sun (Maniac Agenda Mix)
TitleUnicode:Red Sun (Maniac Agenda Mix)
Artist:Logan Mader, Jamie Christopherson
ArtistUnicode:Logan Mader, Jamie Christopherson
Creator:Revolver
Version:INSANE
Source:Metal Gear Rising: Revengeance
Tags:jason miller raiden jack the ripper sundower boss theme platinum platinumgames mgs mgr solid metal rock english video game gouhin fsjallink konami メタルギア ライジング リベンジェンス
BeatmapID:3488826
BeatmapSetID:1706955

[Difficulty]
HPDrainRate:5.5
CircleSize:2
OverallDifficulty:7.5
ApproachRate:8.2
SliderMultiplier:1.6
SliderTickRate:1

[Events]
//Background and Video events
0,0,"ghHKq5d.jpeg",0,0
//Break Periods
//Storyboard Layer 0 (Background)
//Storyboard Layer 1 (Fail)
//Storyboard Layer 2 (Pass)
//Storyboard Layer 3 (Foreground)
//Storyboard Layer 4 (Overlay)
//Storyboard Sound Samples

[TimingPoints]
221,400,4,2,0,50,1,0
221,-133.333333333333,4,2,0,50,0,0
3020,-133.333333333333,4,2,0,50,0,0
3421,400,4,2,0,70,1,0
3421,-100,4,2,0,70,0,0
16220,-100,4,2,0,60,0,0
16621,-83.3333333333333,4,2,0,60,0,0
29420,-83.3333333333333,4,2,0,60,0,0
35820,-83.3333333333333,4,2,0,60,0,0
42220,-83.3333333333333,4,2,0,60,0,0
48621,-83.3333333333333,4,2,0,60,0,0
54620,-83.3333333333333,4,2,0,60,0,0
61020,-100,4,2,0,60,0,0
64220,-100,4,2,0,60,0,0
67421,-71.4285714285714,4,2,0,70,0,1
93021,-133.333333333333,4,2,0,60,0,0
98620,-100,4,2,0,60,0,0
99420,-133.333333333333,4,2,0,60,0,0
106621,-83.3333333333333,4,2,0,70,0,0
107220,-83.3333333333333,4,2,0,60,0,0
109821,-83.3333333333333,4,2,0,70,0,0
110420,-83.3333333333333,4,2,0,60,0,0
112221,-133.333333333333,4,2,0,60,0,0
113020,-83.3333333333333,4,2,0,70,0,0
113620,-83.3333333333333,4,2,0,60,0,0
121021,-83.3333333333333,4,2,0,70,0,0
121420,-83.3333333333333,4,2,0,50,0,0
121820,-83.3333333333333,4,2,0,45,0,0
122620,-83.3333333333333,4,2,0,40,0,0
123421,-83.3333333333333,4,2,0,35,0,0
124221,-83.3333333333333,4,2,0,30,0,0
125020,-83.3333333333333,4,2,0,25,0,0
125820,-83.3333333333333,4,2,0,20,0,0
126621,-83.3333333333333,4,2,0,15,0,0
127421,-83.3333333333333,4,2,0,10,0,0
128220,-83.3333333333333,4,2,0,5,0,0

[Colours]
Combo1 : 128,128,128
Combo2 : 255,0,0

[HitObjects]
319,361,221,6,0,L|306:299,1,60.0000022888184,4|0,1:2|0:0,0:0:0:0:
221,261,621,2,0,L|234:199,1,60.0000022888184,0|0,3:0|3:0,0:0:0:0:
318,157,1021,6,0,L|390:166,1,60.0000022888184,2|0,0:0|0:0,0:0:0:0:
437,242,1421,2,0,L|497:235,1,60.0000022888184
490,138,1821,6,0,L|468:64,1,60.0000022888184
379,62,2221,2,0,L|397:5,1,60.0000022888184
284,76,2621,5,8,0:0:0:0:
202,27,2821,1,0,1:0:0:0:
120,146,3021,5,0,1:0:0:0:
124,175,3121,1,0,1:0:0:0:
129,205,3221,1,0,1:0:0:0:
134,234,3321,1,0,1:0:0:0:
137,259,3421,6,0,L|233:268,1,80,4|2,1:2|0:0,0:0:0:0:
312,275,3821,1,8,0:0:0:0:
357,78,4021,2,2,P|403:140|389:217,1,160,0|0,1:0|1:0,0:1:0:0:
302,163,4621,1,8,0:0:0:0:
70,122,4821,2,2,L|229:100,1,160,2|2,1:1|0:0,0:1:0:0:
302,163,5421,5,8,0:0:0:0:
222,211,5621,2,0,L|254:367,1,160,2|0,1:1|1:1,0:0:0:0:
354,353,6221,1,8,0:0:0:0:
447,376,6421,1,2,1:2:0:0:
480,202,6621,6,0,L|465:281,1,80,2|0,1:2|0:0,0:0:0:0:
371,256,7021,1,8,0:0:0:0:
157,232,7221,2,2,P|217:183|296:194,1,160,2|2,1:2|1:0,0:1:0:0:
244,284,7821,1,8,0:0:0:0:
386,160,8021,2,2,B|354:-1,1,160,2|2,1:1|0:2,0:1:0:0:
264,38,8621,5,8,0:0:0:0:
172,8,8821,1,0,0:0:0:0:
136,97,9021,6,0,L|151:182,1,80,2|0,0:3|1:0,0:0:0:0:
245,176,9421,2,0,L|223:257,1,80,10|0,0:0|1:0,0:0:0:0:
214,304,9721,1,8,0:0:0:0:
214,304,9821,6,0,B|386:295,1,160,6|8,1:2|0:0,0:0:0:0:
439,225,10421,2,0,P|464:156|411:83,1,160,2|0,0:0|1:0,0:0:0:0:
327,113,11021,2,0,P|253:142|180:96,1,160,10|0,0:0|1:0,0:0:0:0:
141,21,11621,2,0,P|51:25|14:96,1,160,2|0,0:0|1:0,0:0:0:0:
68,173,12221,5,2,3:0:0:0:
68,173,12321,1,2,3:0:0:0:
68,173,12421,1,0,1:0:0:0:
43,272,12621,1,8,0:0:0:0:
43,272,12721,1,0,1:0:0:0:
43,272,12821,1,0,1:0:0:0:
103,345,13021,5,0,1:0:0:0:
242,278,13221,2,0,L|163:269,1,80,2|8,0:0|0:0,0:0:0:0:
303,351,13621,5,0,1:0:0:0:
420,238,13821,2,0,L|345:265,1,80,2|0,0:0|1:0,0:0:0:0:
282,190,14221,5,8,0:0:0:0:
490,304,14421,2,0,P|515:228|475:164,1,160,0|2,1:0|0:3,0:0:0:0:
386,148,15021,1,8,0:0:0:0:
386,148,15221,1,2,0:0:0:0:
303,98,15421,5,2,0:0:0:0:
225,154,15621,1,0,1:0:0:0:
141,108,15821,1,8,0:0:0:0:
74,177,16021,1,0,1:0:0:0:
79,208,16121,1,8,0:0:0:0:
83,239,16221,1,4,1:0:0:0:
295,329,16621,6,0,P|343:343|403:322,1,95.9999970703126,10|0,0:0|1:0,0:0:0:0:
426,245,17021,2,0,L|400:47,1,191.999994140625,2|8,0:0|0:0,0:0:0:0:
312,15,17621,1,2,0:3:0:0:
234,68,17821,5,0,1:0:0:0:
234,68,18021,1,2,0:0:0:0:
146,27,18221,1,8,0:0:0:0:
146,27,18421,1,0,1:0:0:0:
76,93,18621,6,0,L|90:187,1,95.9999970703126,0|0,3:0|1:0,0:0:0:0:
151,262,19021,2,0,L|132:357,1,95.9999970703126,8|0,1:2|1:0,0:0:0:0:
229,362,19421,6,0,P|272:346|322:363,1,95.9999970703126,2|0,1:2|0:0,0:0:0:0:
348,268,19821,2,0,P|390:287|414:335,1,95.9999970703126,10|0,1:2|0:0,0:0:0:0:
499,285,20221,6,0,L|486:164,1,95.9999970703126,2|0,0:0|1:0,0:0:0:0:
479,93,20621,1,8,0:0:0:0:
208,172,20821,2,0,B|399:146,1,191.999994140625,2|2,1:2|0:3,0:0:0:0:
150,96,21421,1,8,0:0:0:0:
100,178,21621,1,2,0:0:0:0:
153,257,21821,6,0,L|130:361,1,95.9999970703126,2|0,0:0|1:0,0:0:0:0:
228,357,22221,2,0,L|247:261,1,95.9999970703126,10|0,0:0|1:0,0:0:0:0:
260,216,22521,1,8,0:0:0:0:
260,216,22621,1,4,1:2:0:0:
452,221,23021,6,0,L|465:125,1,95.9999970703126,10|2,0:0|0:3,0:0:0:0:
370,113,23421,2,0,P|293:61|208:97,1,191.999994140625,2|8,0:0|0:0,0:0:0:0:
118,63,24021,5,0,1:0:0:0:
118,63,24221,1,0,1:0:0:0:
67,146,24421,1,2,0:0:0:0:
67,146,24621,1,8,0:0:0:0:
117,240,24821,5,0,3:0:0:0:
117,240,24921,1,0,3:0:0:0:
117,240,25021,1,0,1:0:0:0:
77,327,25221,1,0,1:0:0:0:
265,317,25421,2,0,L|172:340,1,95.9999970703126,8|0,3:2|1:0,0:0:0:0:
297,227,25821,6,0,P|282:182|298:137,1,95.9999970703126,2|2,1:2|0:3,0:0:0:0:
384,181,26221,2,0,P|406:139|449:119,1,95.9999970703126,10|2,1:2|0:3,0:0:0:0:
396,37,26621,6,0,B|302:14,1,95.9999970703126,2|0,0:0|1:0,0:0:0:0:
229,74,27021,1,8,0:0:0:0:
229,74,27221,1,0,1:0:0:0:
48,35,27421,6,2,L|144:27,1,95.9999970703126,2|0,1:0|0:0,1:0:0:0:
30,136,27821,1,8,0:0:0:0:
40,231,28021,1,2,0:0:0:0:
135,221,28221,1,2,0:3:0:0:
125,126,28421,1,0,1:0:0:0:
144,27,28621,5,8,0:0:0:0:
226,75,28821,1,0,1:0:0:0:
256,63,28921,1,8,0:0:0:0:
292,48,29021,1,4,1:2:0:0:
468,124,29421,6,0,L|452:221,1,95.9999970703126,10|2,0:0|0:3,0:0:0:0:
357,237,29821,2,0,L|391:47,1,191.999994140625,2|8,0:0|0:0,0:0:0:0:
292,48,30421,1,0,1:0:0:0:
246,132,30621,5,0,1:0:0:0:
246,132,30821,1,2,0:0:0:0:
70,87,31021,2,0,L|166:78,1,95.9999970703126,8|2,0:0|0:3,0:0:0:0:
152,173,31421,6,0,P|118:213|124:280,1,95.9999970703126,2|0,0:0|1:0,0:0:0:0:
210,249,31821,2,0,P|250:283|317:277,1,95.9999970703126,8|0,0:0|1:0,0:0:0:0:
284,190,32221,1,4,1:2:0:0:
459,110,32621,6,0,L|445:205,1,95.9999970703126,10|2,0:0|0:3,0:0:0:0:
388,284,33021,2,0,L|401:412,1,95.9999970703126,2|0,1:0|1:0,0:0:0:0:
291,286,33421,1,10,0:0:0:0:
232,362,33621,1,0,1:0:0:0:
188,275,33821,6,0,L|196:227,1,47.9999985351563,2|0,1:0|0:0,0:0:0:0:
219,185,34021,2,0,L|211:138,1,47.9999985351563,2|0,0:1|0:0,0:0:0:0:
179,100,34221,2,0,L|197:5,1,95.9999970703126,8|2,0:0|0:0,0:0:0:0:
287,37,34621,5,0,3:0:0:0:
317,13,34721,1,0,3:0:0:0:
353,0,34821,1,0,3:0:0:0:
391,8,34921,1,0,3:0:0:0:
424,30,35021,2,0,L|490:20,4,47.9999985351563,8|0|0|8|4,0:0|3:0|1:0|0:0|1:2,0:0:0:0:
361,212,35821,6,0,L|347:307,1,95.9999970703126,10|2,0:0|0:3,0:0:0:0:
270,363,36221,1,2,0:0:0:0:
270,363,36421,1,0,1:0:0:0:
237,272,36621,2,0,L|142:284,1,95.9999970703126,8|0,0:0|1:0,0:0:0:0:
96,368,37021,2,0,L|1:357,1,95.9999970703126,0|2,1:0|0:3,0:0:0:0:
17,261,37421,6,0,L|9:202,1,47.9999985351563,10|0,1:2|0:0,0:0:0:0:
3,165,37621,2,0,L|11:106,1,47.9999985351563,2|0,1:2|0:1,0:0:0:0:
15,69,37821,5,2,1:0:0:0:
98,116,38021,1,2,1:0:0:0:
175,58,38221,1,8,0:0:0:0:
252,115,38421,1,2,1:0:0:0:
506,86,38621,6,0,L|319:47,1,191.999994140625,6|8,1:2|0:0,0:0:0:0:
252,115,39221,1,2,0:0:0:0:
295,203,39421,6,0,L|284:260,3,47.9999985351563,0|0|0|0,1:2|3:0|1:0|3:0,0:0:0:0:
327,275,39821,2,0,L|336:332,3,47.9999985351563,8|0|0|0,0:0|3:0|1:0|3:0,0:0:0:0:
308,345,40221,5,0,1:0:0:0:
283,367,40321,1,0,3:0:0:0:
252,378,40421,1,2,3:3:0:0:
219,377,40521,1,0,3:0:0:0:
188,364,40621,1,8,3:2:0:0:
163,341,40721,1,0,3:0:0:0:
132,330,40821,1,2,3:3:0:0:
99,331,40921,1,0,3:0:0:0:
64,346,41021,6,0,L|60:281,3,47.9999985351563,8|8|8|8,0:0|0:0|0:0|0:0,0:0:0:0:
58,259,41421,1,2,1:1:0:0:
55,168,41621,1,2,0:0:0:0:
232,203,41821,6,0,P|187:219|142:207,1,95.9999970703126,4|2,1:2|0:3,0:0:0:0:
188,122,42221,2,0,L|183:25,1,95.9999970703126,10|2,0:0|0:0,0:0:0:0:
421,96,42621,2,0,P|371:19|279:21,1,191.999994140625,2|10,3:2|0:2,0:0:0:0:
324,113,43221,1,2,0:0:0:0:
386,186,43421,6,0,L|364:281,1,95.9999970703126,0|2,1:0|0:3,0:0:0:0:
344,373,43821,1,8,0:0:0:0:
130,328,44021,6,0,L|273:308,2,143.999995605469,2|0|10,0:0|0:0|0:0,0:0:0:0:
34,338,44821,1,2,1:2:0:0:
73,250,45021,1,4,1:2:0:0:
58,58,45421,6,0,P|109:43|165:61,1,95.9999970703126,10|2,0:0|0:3,0:0:0:0:
202,132,45821,2,0,P|253:147|309:129,1,95.9999970703126,2|0,0:0|1:0,0:0:0:0:
344,55,46221,1,8,0:0:0:0:
344,55,46421,1,2,1:3:0:0:
405,127,46621,6,0,L|412:176,1,47.9999985351563,2|0,1:0|0:0,0:0:0:0:
377,209,46821,2,0,L|370:258,1,47.9999985351563,2|0,0:1|0:0,0:0:0:0:
377,304,47021,2,0,P|324:331|275:318,1,95.9999970703126,8|0,0:0|1:0,0:0:0:0:
196,299,47421,5,2,3:2:0:0:
170,277,47521,1,0,3:0:0:0:
153,248,47621,1,0,1:0:0:0:
147,215,47721,1,0,3:0:0:0:
153,182,47821,1,8,3:2:0:0:
169,153,47921,1,0,3:0:0:0:
195,131,48021,1,0,1:0:0:0:
226,119,48121,1,8,3:2:0:0:
259,118,48221,5,4,1:2:0:0:
448,83,48621,6,0,L|432:181,1,95.9999970703126,10|2,0:0|0:3,0:0:0:0:
353,232,49021,2,0,L|243:211,1,95.9999970703126,2|0,0:0|1:0,0:0:0:0:
259,118,49421,1,8,0:0:0:0:
259,118,49621,1,2,1:2:0:0:
173,161,49821,6,0,L|146:262,1,95.9999970703126,0|2,1:0|0:3,0:0:0:0:
207,330,50221,2,0,L|302:321,1,95.9999970703126,8|2,0:0|0:3,0:0:0:0:
353,232,50621,6,0,P|377:184|370:130,1,95.9999970703126,2|0,0:0|1:0,0:0:0:0:
295,89,51021,2,0,P|294:41|316:0,1,95.9999970703126,8|0,0:0|1:0,0:0:0:0:
71,90,51421,6,0,P|114:8|206:0,1,191.999994140625,4|8,1:2|0:0,0:0:0:0:
172,95,52021,1,2,0:0:0:0:
123,177,52221,5,2,3:2:0:0:
147,199,52321,1,0,3:0:0:0:
177,214,52421,1,0,1:0:0:0:
210,221,52521,1,0,3:0:0:0:
244,218,52621,1,8,1:2:0:0:
275,208,52721,1,0,3:0:0:0:
303,189,52821,1,0,1:0:0:0:
325,163,52921,1,0,3:0:0:0:
345,136,53021,6,2,L|478:134,1,95.9999970703126,0|0,1:0|0:0,0:1:0:0:
496,212,53421,1,8,0:0:0:0:
452,355,53621,1,2,1:1:0:0:
417,369,53721,6,0,L|404:274,1,95.9999970703126,8|0,0:0|1:0,0:0:0:0:
395,226,54021,1,8,0:0:0:0:
324,344,54221,5,8,3:2:0:0:
291,323,54321,2,0,L|302:272,2,47.9999985351563,0|8|8,1:0|0:0|0:0,0:0:0:0:
275,181,54621,5,4,1:0:0:0:
242,172,54721,1,0,3:0:0:0:
208,172,54821,1,0,3:0:0:0:
178,185,54921,1,0,3:0:0:0:
152,207,55021,1,8,3:2:0:0:
125,226,55121,1,0,3:0:0:0:
92,233,55221,1,0,3:0:0:0:
59,230,55321,1,0,3:0:0:0:
35,206,55421,6,0,L|43:158,3,47.9999985351563,2|0|0|0,1:2|3:0|3:0|3:0,0:0:0:0:
63,131,55821,2,0,L|54:83,3,47.9999985351563,10|0|0|0,3:2|3:0|3:0|3:0,0:0:0:0:
71,54,56221,5,2,1:2:0:0:
97,33,56321,1,0,3:0:0:0:
130,29,56421,1,0,3:0:0:0:
160,44,56521,1,0,3:0:0:0:
177,72,56621,1,8,3:2:0:0:
203,92,56721,1,0,3:0:0:0:
236,96,56821,1,0,3:0:0:0:
266,81,56921,1,0,3:0:0:0:
296,67,57021,6,0,L|353:75,1,47.9999985351563,2|0,1:2|3:0,0:0:0:0:
373,90,57221,2,0,L|428:83,1,47.9999985351563,2|0,3:2|3:0,0:0:0:0:
454,87,57421,2,0,L|443:133,3,47.9999985351563,8|0|2|0,3:2|3:0|3:2|3:0,0:0:0:0:
442,166,57821,5,4,1:2:0:0:
446,199,57921,1,0,3:0:0:0:
439,231,58021,1,0,3:0:0:0:
419,258,58121,1,0,3:0:0:0:
392,277,58221,1,8,3:2:0:0:
359,283,58321,1,0,3:0:0:0:
326,277,58421,1,2,3:2:0:0:
298,260,58521,1,0,3:0:0:0:
274,236,58621,6,0,L|221:244,3,47.9999985351563,2|0|0|0,1:2|3:0|3:0|3:0,0:0:0:0:
195,256,59021,2,0,L|148:249,3,47.9999985351563,10|0|0|0,3:2|3:0|3:0|3:0,0:0:0:0:
113,244,59421,5,2,1:2:0:0:
118,210,59521,1,0,3:0:0:0:
124,177,59621,1,0,3:0:0:0:
130,144,59721,1,0,3:0:0:0:
162,133,59821,1,8,3:2:0:0:
168,100,59921,1,0,3:0:0:0:
174,67,60021,1,2,3:2:0:0:
180,34,60121,1,0,3:0:0:0:
212,23,60221,6,2,L|424:49,1,191.999994140625,6|8,1:2|0:0,1:0:0:0:
463,120,60821,1,0,1:0:0:0:
378,167,61021,6,0,L|357:244,1,80,8|0,1:2|3:0,0:0:0:0:
288,358,61421,2,0,L|268:281,1,80,8|2,1:2|3:2,0:0:0:0:
450,287,61821,6,0,L|468:209,1,80,8|0,1:2|3:0,0:0:0:0:
191,160,62221,2,0,L|172:237,1,80,8|2,1:2|3:2,0:0:0:0:
27,294,62621,6,0,L|106:308,1,80,8|0,1:2|3:0,0:0:0:0:
360,114,63021,2,0,L|281:127,1,80,8|2,1:2|3:2,0:0:0:0:
107,109,63421,6,0,L|123:30,1,80,8|2,1:2|3:2,0:0:0:0:
268,281,63821,2,0,L|280:367,1,80,8|2,1:2|3:2,0:0:0:0:
182,354,64221,5,4,1:2:0:0:
129,273,64421,1,0,1:0:0:0:
181,192,64621,1,0,1:2:0:0:
274,170,64821,1,0,1:0:0:0:
327,89,65021,1,0,1:0:0:0:
275,14,65221,1,0,1:0:0:0:
178,18,65421,1,0,1:0:0:0:
135,104,65621,1,0,1:0:0:0:
181,192,65821,5,0,1:0:0:0:
208,189,65921,1,0,1:0:0:0:
236,186,66021,1,0,1:0:0:0:
264,183,66121,1,0,1:0:0:0:
292,180,66221,1,0,1:0:0:0:
320,177,66321,1,0,1:0:0:0:
348,174,66421,1,0,1:0:0:0:
375,171,66521,1,0,1:0:0:0:
403,168,66621,5,0,1:0:0:0:
440,182,66721,1,0,1:0:0:0:
463,214,66821,1,0,1:0:0:0:
462,254,66921,1,0,1:0:0:0:
440,286,67021,5,8,1:0:0:0:
168,322,67421,6,0,B|389:365,1,223.999993164063,6|8,1:1|0:0,0:0:0:0:
349,258,68021,1,0,1:0:0:0:
335,157,68221,1,2,1:2:0:0:
335,157,68421,1,0,1:0:0:0:
243,198,68621,1,8,0:0:0:0:
0,158,68821,6,0,P|77:86|179:119,1,223.999993164063,0|0,1:0|1:0,0:0:0:0:
151,216,69421,1,8,0:0:0:0:
151,216,69621,1,0,1:0:0:0:
243,198,69821,2,0,L|367:228,1,111.999996582031,2|0,1:2|1:0,0:0:0:0:
446,260,70221,1,8,0:0:0:0:
446,158,70421,1,0,1:0:0:0:
450,107,70521,1,8,0:0:0:0:
454,56,70621,1,4,1:2:0:0:
252,91,71021,6,0,P|194:96|146:50,1,111.999996582031,10|0,0:0|1:0,0:0:0:0:
73,126,71421,2,0,P|105:183|89:252,1,111.999996582031,0|2,1:0|1:2,0:0:0:0:
201,190,71821,1,8,0:0:0:0:
445,259,72021,2,0,B|223:288,1,223.999993164063,2|0,1:2|1:0,0:0:0:0:
150,358,72621,1,8,0:0:0:0:
86,279,72821,6,0,P|116:172|42:91,2,223.999993164063,2|2|8,1:2|1:2|0:0,0:0:0:0:
46,310,73721,1,8,0:0:0:0:
46,310,73821,1,4,1:0:0:0:
223,288,74221,5,10,0:0:0:0:
223,288,74421,1,0,1:0:0:0:
327,277,74621,1,0,1:0:0:0:
327,277,74821,1,2,1:2:0:0:
366,184,75021,6,0,P|371:124|340:79,1,111.999996582031,8|0,0:0|1:0,0:0:0:0:
304,62,75321,1,8,0:0:0:0:
304,62,75421,1,4,1:2:0:0:
135,173,75821,6,0,L|23:161,1,111.999996582031,10|0,0:0|1:0,0:0:0:0:
11,261,76221,1,0,1:0:0:0:
11,261,76421,1,2,1:2:0:0:
66,344,76621,1,8,0:0:0:0:
138,273,76821,6,2,P|221:266|255:299,1,111.999996582031,4|0,1:2|1:0,0:1:0:0:
403,353,77221,2,0,P|353:376|301:361,1,111.999996582031,0|8,1:0|0:0,0:0:0:0:
329,161,77621,6,2,L|349:272,1,111.999996582031,2|0,1:1|1:0,0:1:0:0:
437,222,78021,2,0,L|456:111,1,111.999996582031,0|8,1:0|0:0,0:0:0:0:
329,161,78421,6,2,B|205:130|230:219|113:183,1,223.999993164063,4|2,1:2|0:3,0:1:0:0:
55,265,79021,2,0,P|45:322|80:374,1,111.999996582031,10|0,0:0|1:0,0:0:0:0:
121,374,79321,1,8,0:0:0:0:
121,374,79421,2,0,L|255:350,1,111.999996582031,0|8,1:0|0:0,0:0:0:0:
324,317,79821,5,0,1:0:0:0:
341,282,79921,1,8,0:0:0:0:
362,249,80021,1,0,1:0:0:0:
379,214,80121,1,8,0:0:0:0:
400,181,80221,6,0,L|384:65,1,111.999996582031,4|0,1:1|1:0,0:0:0:0:
306,15,80621,1,10,0:0:0:0:
306,15,80821,1,0,1:0:0:0:
252,100,81021,1,2,1:2:0:0:
62,53,81221,2,0,L|173:37,1,111.999996582031,0|8,1:0|0:0,0:0:0:0:
175,147,81621,1,2,1:2:0:0:
175,147,81721,1,8,0:0:0:0:
175,147,81821,6,0,B|209:368,1,223.999993164063,4|8,1:2|0:0,0:0:0:0:
308,346,82421,5,2,1:2:0:0:
308,346,82621,1,0,1:0:0:0:
361,261,82821,1,0,1:0:0:0:
361,261,83021,1,10,0:0:0:0:
319,182,83221,1,0,1:0:0:0:
319,182,83321,1,8,0:0:0:0:
319,182,83421,2,0,B|182:169,1,111.999996582031,6|0,1:2|1:0,0:0:0:0:
137,99,83821,1,8,0:0:0:0:
72,176,84021,6,0,P|47:237|69:301,1,111.999996582031,2|0,1:2|1:0,0:0:0:0:
131,347,84421,2,0,P|185:354|235:330,1,111.999996582031,2|8,1:2|0:0,0:0:0:0:
342,369,84821,1,0,1:0:0:0:
342,369,84921,1,8,0:2:0:0:
342,369,85021,2,0,L|453:346,1,111.999996582031,6|0,1:2|1:0,0:0:0:0:
495,254,85421,5,8,0:0:0:0:
495,254,85621,1,0,1:0:0:0:
385,93,85821,2,0,L|407:203,1,111.999996582031,0|2,1:0|1:3,0:0:0:0:
324,260,86221,1,8,0:0:0:0:
248,193,86421,1,8,0:0:0:0:
198,204,86521,1,8,0:0:0:0:
149,214,86621,1,4,1:2:0:0:
54,35,87021,6,0,P|42:89|60:141,1,111.999996582031,10|0,0:0|1:0,0:0:0:0:
141,80,87421,2,0,B|260:50|220:159|348:119,1,223.999993164063,2|8,1:2|0:0,0:0:0:0:
423,51,88021,1,0,1:0:0:0:
458,86,88121,1,8,0:0:0:0:
491,122,88221,1,4,1:2:0:0:
340,256,88621,6,0,L|229:273,1,111.999996582031,10|0,0:0|1:0,0:0:0:0:
133,291,89021,1,2,1:2:0:0:
133,291,89221,1,0,1:0:0:0:
168,197,89421,1,8,0:0:0:0:
168,197,89621,1,0,1:0:0:0:
111,113,89821,6,0,L|0:120,1,111.999996582031,6|0,1:2|1:0,0:0:0:0:
293,49,90221,2,0,L|182:41,1,111.999996582031,10|0,0:0|1:0,0:0:0:0:
479,110,90621,2,0,B|368:118,1,111.999996582031,2|0,1:2|1:0,0:0:0:0:
291,184,91021,1,8,0:0:0:0:
207,152,91221,1,0,1:0:0:0:
207,152,91321,1,8,0:0:0:0:
207,152,91421,6,2,P|153:140|92:273,1,223.999993164063,4|8,1:2|0:0,0:1:0:0:
150,360,92021,1,0,1:0:0:0:
150,360,92121,1,2,0:3:0:0:
150,360,92221,1,0,1:0:0:0:
217,284,92421,1,8,0:0:0:0:
314,307,92621,5,0,1:0:0:0:
326,252,92721,1,8,0:0:0:0:
338,197,92821,1,0,1:0:0:0:
351,143,92921,1,8,0:0:0:0:
363,88,93021,6,2,L|113:122,1,240.000009155274,6|8,1:1|0:0,0:1:0:0:
59,301,94221,5,0,1:0:0:0:
133,240,94421,2,2,P|157:144|-5:102,1,300.000011444092,0|8,1:0|0:0,0:1:0:0:
170,13,95821,5,2,0:3:0:0:
196,14,95921,1,2,3:3:0:0:
222,16,96021,1,2,0:3:0:0:
249,19,96121,1,2,1:3:0:0:
275,22,96221,6,2,P|335:175|256:353,1,360.000013732911,4|0,1:2|1:0,0:1:0:0:
174,307,97621,5,0,1:0:0:0:
174,307,97721,1,2,0:3:0:0:
174,307,97821,1,0,1:2:0:0:
90,247,98021,5,2,0:3:0:0:
90,247,98121,1,0,1:0:0:0:
90,247,98221,1,8,0:0:0:0:
147,170,98421,5,0,1:0:0:0:
79,30,98621,2,0,L|71:110,1,80,2|8,1:2|0:0,0:0:0:0:
170,76,99021,5,0,1:0:0:0:
196,52,99121,1,8,0:0:0:0:
232,42,99221,1,0,1:0:0:0:
267,51,99321,1,8,0:0:0:0:
295,75,99421,6,2,L|475:51,1,180.000006866455,4|0,1:2|1:0,0:1:0:0:
456,151,100221,2,0,L|445:210,1,60.0000022888184,10|0,0:0|1:0,0:0:0:0:
432,309,100621,1,0,1:0:0:0:
432,309,100821,1,2,1:2:0:0:
185,368,101021,6,2,P|241:266|356:249,1,240.000009155274,0|8,1:0|0:0,0:1:0:0:
357,152,102021,1,0,1:0:0:0:
289,83,102221,5,2,0:3:0:0:
217,144,102421,1,2,0:3:0:0:
217,144,102521,1,0,1:0:0:0:
217,144,102621,6,0,L|135:157,1,60.0000022888184,2|2,1:2|0:3,0:0:0:0:
78,98,103021,1,2,0:3:0:0:
58,120,103121,1,8,0:0:0:0:
46,148,103221,1,2,0:3:0:0:
43,177,103321,1,2,0:3:0:0:
48,207,103421,2,0,L|35:276,1,60.0000022888184,8|0,0:0|1:0,0:0:0:0:
32,317,103721,1,8,0:0:0:0:
32,317,103821,5,2,0:3:0:0:
111,370,104021,1,8,0:0:0:0:
183,306,104221,1,0,1:0:0:0:
256,368,104421,5,8,0:0:0:0:
284,363,104521,1,8,0:0:0:0:
311,359,104621,1,2,0:3:0:0:
339,355,104721,1,8,0:0:0:0:
366,350,104821,1,8,0:0:0:0:
415,267,105021,1,8,0:0:0:0:
346,199,105221,5,0,1:0:0:0:
354,161,105321,1,0,1:0:0:0:
346,123,105421,1,0,1:0:0:0:
324,91,105521,1,0,1:0:0:0:
291,71,105621,1,0,1:0:0:0:
253,66,105721,1,0,1:0:0:0:
216,76,105821,6,2,L|33:63,1,180.000006866455,6|2,1:1|0:3,0:1:0:0:
436,192,106621,2,0,L|149:169,1,287.999991210938,4|2,1:0|0:3,0:0:0:0:
13,239,107421,6,0,L|35:373,2,127.99999609375,2|0|0,1:2|0:0|0:0,0:0:0:0:
122,320,108121,5,0,1:0:0:0:
122,320,108221,2,0,L|170:315,1,47.9999985351563,10|0,1:2|0:0,0:0:0:0:
215,330,108421,2,0,L|261:342,1,47.9999985351563,2|0,1:2|0:0,0:0:0:0:
307,356,108621,1,2,1:2:0:0:
378,291,108821,1,2,1:2:0:0:
466,329,109021,5,2,1:2:0:0:
472,296,109154,1,2,3:2:0:0:
477,263,109287,1,2,3:2:0:0:
483,233,109421,2,0,L|477:165,2,63.9999980468751,2|0|0,3:3|1:3|1:3,0:0:0:0:
126,149,109821,6,0,L|408:88,1,287.999991210938,4|2,1:0|0:3,0:0:0:0:
379,193,110621,1,0,1:0:0:0:
323,273,110821,6,0,L|316:321,1,47.9999985351563,0|0,1:0|1:0,0:0:0:0:
227,193,111121,2,0,L|235:241,1,47.9999985351563,0|0,1:0|1:0,0:0:0:0:
149,314,111421,5,8,3:2:0:0:
143,280,111521,1,0,3:3:0:0:
138,247,111621,1,0,1:3:0:0:
132,214,111721,1,0,1:3:0:0:
106,188,111821,1,2,3:2:0:0:
111,154,111921,1,0,1:3:0:0:
116,121,112021,1,8,3:2:0:0:
122,88,112121,1,0,3:3:0:0:
129,58,112221,6,2,L|319:77,1,180.000006866455,6|2,1:1|0:3,0:1:0:0:
387,129,113021,6,1,B|409:169|398:230|339:238|341:212|280:255|267:302|304:365,1,287.999991210938,12|2,1:0|0:3,0:0:0:0:
196,295,113821,1,0,1:0:0:0:
183,341,113921,2,0,L|-1:375,1,143.999995605469,2|2,1:1|0:3,0:0:0:0:
8,278,114421,1,0,1:0:0:0:
8,278,114621,1,8,0:0:0:0:
66,202,114821,6,0,L|59:154,1,47.9999985351563,0|0,1:0|1:0,0:0:0:0:
9,71,115121,2,0,L|22:-11,1,47.9999985351563,0|8,1:0|0:0,0:0:0:0:
113,25,115421,5,2,1:2:0:0:
148,12,115521,1,0,3:3:0:0:
182,27,115621,1,8,3:2:0:0:
196,62,115721,1,2,1:3:0:0:
182,97,115821,1,2,3:2:0:0:
172,134,115921,1,8,3:2:0:0:
186,168,116021,1,0,3:3:0:0:
219,188,116121,1,0,3:3:0:0:
257,186,116221,1,10,3:2:0:0:
288,165,116321,1,0,3:3:0:0:
326,166,116421,1,0,1:3:0:0:
357,186,116521,1,8,3:2:0:0:
371,223,116621,6,0,L|365:321,1,95.9999970703126,4|8,0:2|0:0,0:0:0:0:
277,357,117021,5,2,1:2:0:0:
240,366,117121,1,0,3:0:0:0:
204,353,117221,1,8,3:2:0:0:
180,323,117321,1,8,3:2:0:0:
161,290,117421,1,2,3:2:0:0:
132,266,117521,1,8,3:2:0:0:
94,257,117621,1,8,3:2:0:0:
57,266,117721,1,0,3:0:0:0:
13,287,117821,6,0,L|19:239,1,47.9999985351563,10|0,3:2|3:0,0:0:0:0:
35,194,118021,2,0,L|26:146,1,47.9999985351563,2|0,1:2|1:0,0:0:0:0:
23,98,118221,2,0,P|71:68|128:83,1,95.9999970703126,0|0,1:0|1:0,0:0:0:0:
141,108,118521,1,8,0:3:0:0:
141,108,118621,1,2,1:2:0:0:
229,71,118821,6,0,L|236:23,1,47.9999985351563,12|8,0:0|0:0,0:0:0:0:
339,69,119121,2,0,L|332:22,1,47.9999985351563,12|8,0:0|0:0,0:0:0:0:
428,23,119421,1,12,3:2:0:0:
458,142,119621,6,0,L|472:107,2,31.9999990234375,0|0|0,1:0|3:0|3:0,0:0:0:0:
453,177,119821,2,0,L|485:336,1,159.999995117188,0|0,1:0|1:0,0:0:0:0:
464,362,120221,1,0,1:0:0:0:
368,318,120421,6,0,L|292:310,1,47.9999985351563,8|8,0:0|0:0,0:0:0:0:
217,297,120621,1,0,1:0:0:0:
281,170,120821,5,8,0:0:0:0:
265,119,120921,1,8,0:0:0:0:
249,68,121021,1,12,1:0:0:0:
256,192,121121,12,0,128221,0:0:0:0:
