osu file format v14

[General]
AudioFilename: audio.mp3
AudioLeadIn: 0
PreviewTime: 67321
Countdown: 0
SampleSet: Soft
StackLeniency: 0.7
Mode: 0
LetterboxInBreaks: 0
WidescreenStoryboard: 1

[Editor]
DistanceSpacing: 1.2
BeatDivisor: 4
GridSize: 8
TimelineZoom: 0.8999999

[Metadata]
Title:Red Sun (Maniac Agenda Mix)
TitleUnicode:Red Sun (Maniac Agenda Mix)
Artist:Logan Mader, Jamie Christopherson
ArtistUnicode:Logan Mader, Jamie Christopherson
Creator:Revolver
Version:EASY
Source:Metal Gear Rising: Revengeance
Tags:jason miller raiden jack the ripper sundower boss theme platinum platinumgames mgs mgr solid metal rock english video game gouhin fsjallink konami メタルギア ライジング リベンジェンス
BeatmapID:3487902
BeatmapSetID:1706955

[Difficulty]
HPDrainRate:2
CircleSize:2.5
OverallDifficulty:2
ApproachRate:3
SliderMultiplier:0.8
SliderTickRate:1

[Events]
//Background and Video events
0,0,"ghHKq5d.jpeg",0,0
//Break Periods
2,54821,59506
2,93221,102690
//Storyboard Layer 0 (Background)
//Storyboard Layer 1 (Fail)
//Storyboard Layer 2 (Pass)
//Storyboard Layer 3 (Foreground)
//Storyboard Layer 4 (Overlay)
//Storyboard Sound Samples

[TimingPoints]
221,400,4,2,0,50,1,0
221,-133.333333333333,4,2,0,50,0,0
3020,-133.333333333333,4,2,0,50,0,0
3421,400,4,2,0,70,1,0
3421,-100,4,2,0,70,0,0
16220,-100,4,2,0,60,0,0
29420,-100,4,2,0,60,0,0
35820,-100,4,2,0,60,0,0
42220,-100,4,2,0,60,0,0
48621,-100,4,2,0,60,0,0
54620,-100,4,2,0,60,0,0
61020,-100,4,2,0,60,0,0
64220,-100,4,2,0,60,0,0
67421,-100,4,2,0,70,0,1
93021,-100,4,2,0,60,0,0
106621,-100,4,2,0,70,0,0
107220,-100,4,2,0,60,0,0
109821,-100,4,2,0,70,0,0
110420,-100,4,2,0,60,0,0
113020,-100,4,2,0,70,0,0
113620,-100,4,2,0,60,0,0
121021,-100,4,2,0,70,0,0
121420,-100,4,2,0,50,0,0
121820,-100,4,2,0,45,0,0
122620,-100,4,2,0,40,0,0
123421,-100,4,2,0,35,0,0
124221,-100,4,2,0,30,0,0
125020,-100,4,2,0,25,0,0
125820,-100,4,2,0,20,0,0
126621,-100,4,2,0,15,0,0
127421,-100,4,2,0,10,0,0
128220,-100,4,2,0,5,0,0

[Colours]
Combo1 : 128,128,128
Combo2 : 255,0,0

[HitObjects]
18,316,222,6,0,L|300:278,1,240.000009155274,4|0,1:2|0:0,0:0:0:0:
335,194,2621,1,8,0:0:0:0:
249,58,3422,6,0,P|192:37|124:112,1,160,4|0,1:2|1:0,0:0:0:0:
40,143,4622,1,8,0:0:0:0:
97,219,5021,2,0,L|69:407,1,160,0|2,1:0|0:0,0:0:0:0:
167,358,6221,1,8,0:0:0:0:
227,283,6621,6,0,B|270:276|270:276|293:294|293:294|348:288,1,120,2|2,1:2|1:2,0:0:0:0:
435,300,7621,1,2,1:0:0:0:
428,204,8021,2,2,P|433:136|468:96,1,120,2|8,1:1|0:0,0:1:0:0:
452,2,9021,1,2,0:3:0:0:
357,12,9421,1,10,0:0:0:0:
277,65,9822,6,0,B|247:45|216:56|216:56|188:69|150:47,1,120,6|2,1:2|0:0,0:0:0:0:
21,83,11021,2,0,P|1:126|44:192,1,120,10|2,0:0|0:0,0:0:0:0:
171,224,12221,1,2,3:0:0:0:
265,237,12621,1,8,0:0:0:0:
352,197,13022,6,0,L|380:361,2,160,0|2|0,1:0|0:0|1:0,0:0:0:0:
272,144,15021,1,8,0:0:0:0:
182,108,15422,2,0,L|188:28,1,80,2|8,0:0|0:0,0:0:0:0:
283,24,16221,5,4,1:0:0:0:
357,84,16622,2,0,L|477:58,2,80,10|2|8,0:0|0:0|0:0,0:0:0:0:
289,151,17822,2,0,P|281:202|303:240,1,80,0|8,1:0|0:0,0:0:0:0:
344,308,18622,1,0,3:0:0:0:
172,222,19421,6,0,L|36:245,1,80,2|10,1:2|1:2,0:0:0:0:
14,179,20221,1,2,0:0:0:0:
95,129,20621,2,0,P|88:86|107:50,1,80,8|0,0:0|1:0,0:0:0:0:
188,99,21421,2,0,P|213:63|252:51,1,80,8|2,0:0|0:0,0:0:0:0:
279,142,22222,1,10,0:0:0:0:
371,117,22621,5,4,1:2:0:0:
399,210,23022,2,0,L|369:355,2,80,10|2|8,0:0|0:0|0:0,0:0:0:0:
475,152,24222,2,0,L|460:52,1,80,0|8,1:0|0:0,0:0:0:0:
382,20,25021,1,0,1:0:0:0:
210,105,25821,6,0,P|162:95|124:116,1,80,2|10,1:2|1:2,0:0:0:0:
89,191,26622,2,0,L|109:282,1,80,2|8,0:0|0:0,0:0:0:0:
171,339,27422,2,2,P|221:367|295:352,1,80,2|8,1:0|0:0,1:0:0:0:
301,293,28221,2,0,P|351:265|425:280,1,80,2|8,0:3|0:0,0:0:0:0:
464,293,29021,5,4,1:2:0:0:
448,198,29421,2,0,L|478:37,1,160,10|8,0:0|0:0,0:0:0:0:
382,55,30622,2,0,L|264:61,1,80,0|8,1:0|0:0,0:0:0:0:
226,117,31421,2,0,L|127:105,1,80,2|8,0:0|0:0,0:0:0:0:
240,276,32621,6,0,L|369:291,1,80,10|2,0:0|1:0,0:0:0:0:
415,282,33421,1,10,0:0:0:0:
422,186,33821,2,0,L|409:98,1,80,2|8,1:0|0:0,0:0:0:0:
316,84,34621,2,0,L|325:-14,1,80,0|8,3:0|0:0,0:0:0:0:
139,59,35821,6,0,P|91:43|40:79,2,80,10|2|8,0:0|0:0|0:0,0:0:0:0:
166,151,37021,1,0,1:0:0:0:
247,99,37422,2,0,L|391:91,1,80,10|2,1:2|1:0,0:0:0:0:
419,71,38221,1,8,0:0:0:0:
462,158,38622,2,0,P|491:242|402:347,1,160,6|0,1:2|1:2,0:0:0:0:
295,218,40221,6,0,B|172:159|202:294|32:232,1,240,0|2,1:0|1:1,0:0:0:0:
25,156,41822,6,0,L|2:16,1,80,4|10,1:2|0:0,0:0:0:0:
107,75,42621,2,0,L|185:87,1,80,2|10,3:2|0:2,0:0:0:0:
268,36,43421,2,0,B|338:36|338:36|355:24|355:24|438:21,1,160,0|2,1:0|0:0,0:0:0:0:
457,210,45022,6,0,P|413:224|364:205,1,80,4|10,1:2|0:0,0:0:0:0:
313,147,45821,2,0,P|274:139|237:153,1,80,2|8,0:0|0:0,0:0:0:0:
173,224,46621,2,0,B|119:255|119:255|-32:178,1,160,2|2,1:0|3:2,0:0:0:0:
89,27,48222,5,4,1:2:0:0:
160,90,48621,1,10,0:0:0:0:
250,58,49021,2,0,L|339:69,1,80,2|8,0:0|0:0,0:0:0:0:
379,149,49821,2,0,P|456:152|467:230,1,160,0|2,1:0|0:0,0:0:0:0:
407,294,51021,1,8,0:0:0:0:
336,359,51421,6,0,L|142:340,1,160,4|2,1:2|3:2,0:0:0:0:
111,272,52622,1,8,1:2:0:0:
199,235,53022,2,2,B|211:96,1,80,0|8,1:0|0:0,0:1:0:0:
112,131,53821,2,0,B|100:-8,1,80,2|8,0:3|3:2,0:0:0:0:
197,22,54621,5,4,1:0:0:0:
6,193,61021,6,0,P|46:176|92:199,1,80,8|8,1:2|1:2,0:0:0:0:
134,265,61821,2,0,P|171:275|207:258,1,80,8|8,1:2|1:2,0:0:0:0:
265,181,62621,1,8,1:2:0:0:
351,222,63021,1,8,1:2:0:0:
426,162,63421,1,8,1:2:0:0:
385,75,63821,1,8,1:2:0:0:
289,75,64221,6,0,L|188:83,1,80,4|0,1:2|1:2,0:0:0:0:
137,145,65021,2,0,L|57:138,1,80,0|0,1:0|1:0,0:0:0:0:
30,231,65821,2,0,B|50:331|50:330,1,80,0|0,1:0|1:0,0:0:0:0:
134,345,66621,1,0,1:0:0:0:
483,192,67421,6,0,L|361:180,1,80,6|8,1:1|0:0,0:0:0:0:
321,234,68222,2,0,L|241:241,1,80,2|8,1:2|0:0,0:0:0:0:
162,186,69021,1,6,1:2:0:0:
178,91,69422,2,0,P|252:37|348:93,1,160,8|8,0:0|0:0,0:0:0:0:
380,120,70622,5,4,1:2:0:0:
461,170,71021,2,0,B|465:298,1,80,10|0,0:0|1:0,0:0:0:0:
367,246,71821,2,0,B|346:373,1,80,8|4,0:0|1:2,0:0:0:0:
264,360,72621,1,8,0:0:0:0:
230,270,73021,2,0,L|246:176,1,80,0|8,1:0|0:0,0:0:0:0:
207,101,73822,5,4,1:0:0:0:
137,166,74221,2,0,P|112:246|172:344,1,160,10|8,0:0|0:0,0:0:0:0:
219,365,75421,1,4,1:2:0:0:
287,297,75822,2,0,L|377:292,1,80,10|0,0:0|1:0,0:0:0:0:
462,293,76621,1,8,0:0:0:0:
426,203,77022,6,0,P|431:115|391:71,2,80,0|8|0,1:0|0:0|1:0,0:0:0:0:
330,196,78221,1,8,0:0:0:0:
301,104,78621,2,0,L|174:84,1,80,0|10,1:0|0:0,0:0:0:0:
135,50,79421,2,0,L|55:62,1,80,0|0,1:0|1:0,0:0:0:0:
8,145,80222,5,4,1:1:0:0:
60,225,80621,2,0,L|154:244,1,80,10|2,0:0|1:2,0:0:0:0:
228,205,81422,1,8,0:0:0:0:
251,297,81821,2,0,P|289:312|367:281,1,80,4|8,1:2|0:0,0:0:0:0:
381,229,82621,2,0,P|419:214|497:245,1,80,0|10,1:0|0:0,0:0:0:0:
476,122,83422,6,0,L|488:32,1,80,6|8,1:2|0:0,0:0:0:0:
390,40,84221,2,0,P|345:25|289:65,1,80,0|8,1:0|0:0,0:0:0:0:
278,123,85021,2,0,P|193:145|119:101,1,160,6|0,1:2|1:0,0:0:0:0:
68,41,86221,1,8,0:0:0:0:
22,125,86621,1,4,1:2:0:0:
79,201,87022,6,0,L|56:294,1,80,10|2,0:0|1:2,0:0:0:0:
138,333,87822,1,8,0:0:0:0:
216,277,88222,2,0,B|282:271|282:271|303:254|303:254|369:251,1,160,4|2,1:2|1:2,0:0:0:0:
424,172,89421,1,8,0:0:0:0:
343,119,89821,6,0,L|332:23,1,80,6|10,1:2|0:0,0:0:0:0:
238,50,90621,2,0,L|159:41,1,80,2|8,1:2|0:0,0:0:0:0:
95,114,91422,2,2,P|57:172|148:271,1,160,4|0,1:2|1:0,0:1:0:0:
167,303,92622,1,0,1:0:0:0:
237,238,93021,5,6,1:1:0:0:
256,192,104221,5,0,1:0:0:0:
308,111,104622,2,0,L|481:94,1,160,2|0,0:3|1:0,0:0:0:0:
501,185,105822,5,6,1:1:0:0:
367,322,106622,1,4,1:0:0:0:
185,259,107421,2,0,L|76:255,1,80,2|0,1:2|0:0,0:0:0:0:
29,196,108221,2,0,L|31:116,1,80,10|2,1:2|1:2,0:0:0:0:
91,40,109022,5,2,1:2:0:0:
282,47,109822,1,4,1:0:0:0:
187,217,110621,2,0,L|7:193,1,160,0|8,1:0|3:2,0:0:0:0:
16,100,111821,1,2,3:2:0:0:
91,40,112222,5,6,1:1:0:0:
254,139,113021,1,12,1:0:0:0:
413,32,113821,2,0,P|454:21|493:45,1,80,0|2,1:0|0:3,0:0:0:0:
486,133,114622,2,0,L|447:313,1,160,8|2,0:0|1:2,0:0:0:0:
390,362,115821,5,2,3:2:0:0:
321,294,116221,2,0,P|272:280|220:306,1,80,10|4,3:2|0:2,0:0:0:0:
160,332,117021,2,0,P|75:358|-3:272,1,160,2|10,1:2|3:2,0:0:0:0:
22,228,118221,1,0,1:0:0:0:
77,149,118622,6,0,L|80:13,1,120,2|8,1:2|0:0,0:0:0:0:
175,31,119621,2,0,L|179:110,1,80,0|0,1:0|1:0,0:0:0:0:
229,192,120421,1,8,0:0:0:0:
307,137,120821,2,0,L|351:142,1,40,8|12,0:0|1:0,0:0:0:0:
256,192,121121,12,0,128221,0:0:0:0:
