osu file format v14

[General]
AudioFilename: audio300.mp3
AudioLeadIn: 0
PreviewTime: 38058
Countdown: 0
SampleSet: None
StackLeniency: 0.7
Mode: 1
LetterboxInBreaks: 0
WidescreenStoryboard: 0

[Editor]
DistanceSpacing: 1.6
BeatDivisor: 4
GridSize: 32
TimelineZoom: 2.999999

[Metadata]
Title:Hejterdisskor Jebana Dziewico
TitleUnicode:Hejterdisskor Jebana Dziewico
Artist:Loffciamcore
ArtistUnicode:Loffciamcore
Creator:7_7
Version:300
Source:
Tags:
BeatmapID:2446457
BeatmapSetID:1173017

[Difficulty]
HPDrainRate:5
CircleSize:5
OverallDifficulty:7.5
ApproachRate:5
SliderMultiplier:1.4
SliderTickRate:1

[Events]
//Background and Video events
0,0,"painting-GIMP-2011-ART-layers-modernart-572593-wallhere.com.jpg",0,0
//Break Periods
//Storyboard Layer 0 (Background)
//Storyboard Layer 1 (Fail)
//Storyboard Layer 2 (Pass)
//Storyboard Layer 3 (Foreground)
//Storyboard Layer 4 (Overlay)
//Storyboard Sound Samples

[TimingPoints]
4846,200,4,1,0,80,1,0
4846,-125,4,1,0,80,0,0
17596,-100,4,1,0,80,0,0
30396,-95.2381,4,1,0,80,0,0
30446,-95.2381,4,1,0,80,0,1
41596,-111.1111,4,1,0,80,0,1
41646,-111.1111,4,1,0,80,0,0
43196,-90.90909,4,1,0,80,0,0
43246,-90.90909,4,1,0,80,0,1
55596,-90.90909,4,1,0,80,0,0
55646,-90.90909,4,1,0,80,0,0
56046,-125,4,1,0,80,0,0
68796,-95.2381,4,1,0,80,0,0
68846,-95.2381,4,1,0,80,0,0
81596,-90.90909,4,1,0,80,0,0
81646,-90.90909,4,1,0,80,0,1
86396,-100,4,1,0,80,0,1
86446,-100,4,1,0,80,0,1
87996,-90.90909,4,1,0,80,0,1
88046,-90.90909,4,1,0,80,0,1
92796,-100,4,1,0,80,0,1
92846,-100,4,1,0,80,0,1
94046,-100,4,1,0,80,0,0
94396,-95.2381,4,1,0,80,0,0
94446,-95.2381,4,1,0,80,0,0

[HitObjects]
250,143,4846,5,0,0:0:0:0:
216,177,5146,1,0,0:0:0:0:
133,154,5246,1,2,0:0:0:0:
216,177,5446,1,0,0:0:0:0:
216,177,5746,1,0,0:0:0:0:
245,107,5846,1,0,0:0:0:0:
133,154,6046,1,2,0:0:0:0:
216,177,6246,1,0,0:0:0:0:
245,107,6346,1,0,0:0:0:0:
245,107,6446,1,0,0:0:0:0:
194,81,6746,1,0,0:0:0:0:
133,154,6846,1,2,0:0:0:0:
199,168,7046,1,0,0:0:0:0:
199,168,7346,1,0,0:0:0:0:
199,168,7446,1,0,0:0:0:0:
133,154,7646,1,2,0:0:0:0:
199,168,7846,1,0,0:0:0:0:
133,154,7946,1,2,0:0:0:0:
245,107,8046,1,0,0:0:0:0:
194,81,8346,1,0,0:0:0:0:
133,154,8446,1,2,0:0:0:0:
199,168,8646,1,0,0:0:0:0:
199,168,8946,1,0,0:0:0:0:
199,168,9046,1,0,0:0:0:0:
133,154,9246,1,2,0:0:0:0:
199,168,9446,1,0,0:0:0:0:
199,168,9546,1,0,0:0:0:0:
245,107,9646,1,0,0:0:0:0:
194,81,9946,1,0,0:0:0:0:
133,154,10046,1,2,0:0:0:0:
199,168,10246,1,0,0:0:0:0:
199,168,10546,1,0,0:0:0:0:
199,168,10646,1,0,0:0:0:0:
133,154,10846,1,2,0:0:0:0:
216,177,11246,1,0,0:0:0:0:
216,177,11546,1,0,0:0:0:0:
133,154,11646,1,2,0:0:0:0:
216,177,11846,1,0,0:0:0:0:
216,177,12146,1,0,0:0:0:0:
245,107,12246,1,0,0:0:0:0:
133,154,12446,1,2,0:0:0:0:
216,177,12646,1,0,0:0:0:0:
245,107,12746,1,0,0:0:0:0:
245,107,12846,1,0,0:0:0:0:
194,81,13146,1,0,0:0:0:0:
133,154,13246,1,2,0:0:0:0:
199,168,13446,1,0,0:0:0:0:
199,168,13746,1,0,0:0:0:0:
199,168,13846,1,0,0:0:0:0:
133,154,14046,1,2,0:0:0:0:
199,168,14246,1,0,0:0:0:0:
133,154,14346,1,2,0:0:0:0:
245,107,14446,1,0,0:0:0:0:
194,81,14746,1,0,0:0:0:0:
133,154,14846,1,2,0:0:0:0:
199,168,15046,1,0,0:0:0:0:
199,168,15346,1,0,0:0:0:0:
199,168,15446,1,0,0:0:0:0:
133,154,15646,1,2,0:0:0:0:
199,168,15846,1,0,0:0:0:0:
199,168,15946,1,0,0:0:0:0:
245,107,16046,1,0,0:0:0:0:
194,81,16346,1,0,0:0:0:0:
133,154,16446,1,2,0:0:0:0:
199,168,16646,1,0,0:0:0:0:
199,168,16946,1,0,0:0:0:0:
199,168,17046,1,0,0:0:0:0:
133,154,17246,1,2,0:0:0:0:
262,134,17646,1,4,0:0:0:0:
321,166,17746,1,0,0:0:0:0:
321,166,17796,1,0,0:0:0:0:
321,166,17846,1,2,0:0:0:0:
321,166,17946,1,0,0:0:0:0:
321,166,18046,1,2,0:0:0:0:
321,166,18096,1,2,0:0:0:0:
321,166,18146,1,0,0:0:0:0:
321,166,18246,1,2,0:0:0:0:
321,166,18346,1,0,0:0:0:0:
321,166,18396,1,0,0:0:0:0:
321,166,18446,1,2,0:0:0:0:
321,166,18496,1,2,0:0:0:0:
321,166,18546,1,0,0:0:0:0:
321,166,18596,1,2,0:0:0:0:
321,166,18646,1,0,0:0:0:0:
156,51,18746,1,2,0:0:0:0:
156,51,18846,1,0,0:0:0:0:
156,51,18946,1,0,0:0:0:0:
156,51,18996,1,0,0:0:0:0:
156,51,19046,1,2,0:0:0:0:
156,51,19146,1,2,0:0:0:0:
186,77,19246,1,0,0:0:0:0:
186,77,19346,1,0,0:0:0:0:
186,77,19396,1,0,0:0:0:0:
186,77,19446,1,2,0:0:0:0:
186,77,19546,1,0,0:0:0:0:
186,77,19646,1,2,0:0:0:0:
186,77,19696,1,2,0:0:0:0:
186,77,19746,1,0,0:0:0:0:
186,77,19846,1,2,0:0:0:0:
186,77,19946,1,0,0:0:0:0:
179,178,19996,1,0,0:0:0:0:
186,77,20046,1,2,0:0:0:0:
186,77,20096,1,0,0:0:0:0:
186,77,20146,1,2,0:0:0:0:
186,77,20196,1,2,0:0:0:0:
186,77,20246,1,0,0:0:0:0:
186,77,20346,1,2,0:0:0:0:
186,77,20396,1,2,0:0:0:0:
186,77,20446,1,0,0:0:0:0:
186,77,20546,1,2,0:0:0:0:
186,77,20646,1,0,0:0:0:0:
186,77,20696,1,2,0:0:0:0:
186,77,20746,1,2,0:0:0:0:
156,132,20796,1,2,0:0:0:0:
262,134,20846,1,0,0:0:0:0:
321,166,20946,1,0,0:0:0:0:
321,166,20996,1,0,0:0:0:0:
321,166,21046,1,2,0:0:0:0:
321,166,21146,1,0,0:0:0:0:
321,166,21246,1,2,0:0:0:0:
321,166,21296,1,2,0:0:0:0:
321,166,21346,1,0,0:0:0:0:
412,73,21396,1,0,0:0:0:0:
321,166,21446,1,2,0:0:0:0:
321,166,21546,1,0,0:0:0:0:
321,166,21596,1,0,0:0:0:0:
321,166,21646,1,2,0:0:0:0:
321,166,21696,1,2,0:0:0:0:
321,166,21746,1,0,0:0:0:0:
321,166,21796,1,2,0:0:0:0:
321,166,21846,1,0,0:0:0:0:
156,51,21946,1,2,0:0:0:0:
156,51,22046,1,0,0:0:0:0:
156,51,22146,1,0,0:0:0:0:
156,51,22196,1,0,0:0:0:0:
156,51,22246,1,2,0:0:0:0:
156,51,22346,1,2,0:0:0:0:
186,77,22446,1,0,0:0:0:0:
186,77,22546,1,0,0:0:0:0:
186,77,22596,1,0,0:0:0:0:
186,77,22646,1,2,0:0:0:0:
186,77,22746,1,0,0:0:0:0:
186,77,22846,1,2,0:0:0:0:
186,77,22896,1,2,0:0:0:0:
186,77,22946,1,0,0:0:0:0:
227,117,22996,1,0,0:0:0:0:
186,77,23046,1,2,0:0:0:0:
186,77,23146,1,0,0:0:0:0:
179,178,23196,1,0,0:0:0:0:
186,77,23246,1,2,0:0:0:0:
186,77,23296,1,0,0:0:0:0:
186,77,23346,1,2,0:0:0:0:
186,77,23396,1,2,0:0:0:0:
186,77,23446,1,0,0:0:0:0:
186,77,23546,1,2,0:0:0:0:
186,77,23596,1,2,0:0:0:0:
186,77,23646,1,0,0:0:0:0:
186,77,23746,1,2,0:0:0:0:
310,175,23846,1,0,0:0:0:0:
310,175,23879,1,0,0:0:0:0:
310,175,23912,1,0,0:0:0:0:
310,175,23946,1,2,0:0:0:0:
262,134,24046,1,4,0:0:0:0:
321,166,24146,1,0,0:0:0:0:
321,166,24196,1,0,0:0:0:0:
321,166,24246,1,2,0:0:0:0:
321,166,24346,1,0,0:0:0:0:
321,166,24446,1,2,0:0:0:0:
321,166,24496,1,2,0:0:0:0:
321,166,24546,1,0,0:0:0:0:
321,166,24646,1,2,0:0:0:0:
321,166,24746,1,0,0:0:0:0:
321,166,24796,1,0,0:0:0:0:
321,166,24846,1,2,0:0:0:0:
321,166,24896,1,2,0:0:0:0:
321,166,24946,1,0,0:0:0:0:
321,166,24996,1,2,0:0:0:0:
321,166,25046,1,0,0:0:0:0:
156,51,25146,1,2,0:0:0:0:
156,51,25246,1,0,0:0:0:0:
156,51,25346,1,0,0:0:0:0:
156,51,25396,1,0,0:0:0:0:
156,51,25446,1,2,0:0:0:0:
156,51,25546,1,2,0:0:0:0:
186,77,25646,1,0,0:0:0:0:
186,77,25746,1,0,0:0:0:0:
186,77,25796,1,0,0:0:0:0:
186,77,25846,1,2,0:0:0:0:
186,77,25946,1,0,0:0:0:0:
186,77,26046,1,2,0:0:0:0:
186,77,26096,1,2,0:0:0:0:
186,77,26146,1,0,0:0:0:0:
186,77,26246,1,2,0:0:0:0:
186,77,26346,1,0,0:0:0:0:
179,178,26396,1,0,0:0:0:0:
186,77,26446,1,2,0:0:0:0:
186,77,26496,1,0,0:0:0:0:
186,77,26546,1,2,0:0:0:0:
186,77,26596,1,2,0:0:0:0:
186,77,26646,1,0,0:0:0:0:
186,77,26746,1,2,0:0:0:0:
186,77,26796,1,2,0:0:0:0:
186,77,26846,1,0,0:0:0:0:
186,77,26946,1,2,0:0:0:0:
186,77,27046,1,0,0:0:0:0:
186,77,27096,1,2,0:0:0:0:
186,77,27146,1,0,0:0:0:0:
156,132,27196,1,2,0:0:0:0:
262,134,27246,1,0,0:0:0:0:
321,166,27346,1,0,0:0:0:0:
321,166,27396,1,0,0:0:0:0:
321,166,27446,1,2,0:0:0:0:
321,166,27546,1,0,0:0:0:0:
321,166,27646,1,2,0:0:0:0:
321,166,27696,1,2,0:0:0:0:
321,166,27746,1,0,0:0:0:0:
412,73,27796,1,0,0:0:0:0:
321,166,27846,1,2,0:0:0:0:
321,166,27946,1,0,0:0:0:0:
321,166,27996,1,0,0:0:0:0:
321,166,28046,1,2,0:0:0:0:
321,166,28096,1,2,0:0:0:0:
321,166,28146,1,0,0:0:0:0:
321,166,28196,1,2,0:0:0:0:
321,166,28246,1,0,0:0:0:0:
156,51,28346,1,2,0:0:0:0:
156,51,28446,1,0,0:0:0:0:
156,51,28546,1,0,0:0:0:0:
156,51,28596,1,0,0:0:0:0:
156,51,28646,1,2,0:0:0:0:
156,51,28746,1,2,0:0:0:0:
186,77,28846,1,4,0:0:0:0:
232,201,30446,1,6,0:0:0:0:
232,201,30596,1,0,0:0:0:0:
232,201,30646,1,2,0:0:0:0:
232,201,30746,1,0,0:0:0:0:
232,201,30846,1,2,0:0:0:0:
232,201,30896,1,0,0:0:0:0:
232,201,30946,1,0,0:0:0:0:
232,201,31046,1,2,0:0:0:0:
232,201,31146,1,0,0:0:0:0:
232,201,31196,1,0,0:0:0:0:
232,201,31246,1,2,0:0:0:0:
232,201,31346,1,0,0:0:0:0:
232,201,31396,1,2,0:0:0:0:
232,201,31446,1,2,0:0:0:0:
232,201,31546,1,0,0:0:0:0:
232,201,31646,1,2,0:0:0:0:
232,201,31696,1,2,0:0:0:0:
232,201,31746,1,0,0:0:0:0:
232,201,31846,1,2,0:0:0:0:
232,201,31946,1,0,0:0:0:0:
232,201,31996,1,0,0:0:0:0:
232,201,32046,1,2,0:0:0:0:
232,201,32096,1,0,0:0:0:0:
232,201,32196,1,0,0:0:0:0:
232,201,32246,1,2,0:0:0:0:
232,201,32346,1,0,0:0:0:0:
232,201,32446,1,2,0:0:0:0:
232,201,32496,1,2,0:0:0:0:
232,201,32596,1,0,0:0:0:0:
232,201,32646,1,2,0:0:0:0:
232,201,32746,1,2,0:0:0:0:
232,201,32796,1,2,0:0:0:0:
232,201,32846,1,0,0:0:0:0:
232,201,32946,1,0,0:0:0:0:
232,201,32996,1,0,0:0:0:0:
232,201,33046,1,2,0:0:0:0:
232,201,33146,1,2,0:0:0:0:
232,201,33246,1,0,0:0:0:0:
232,201,33296,1,2,0:0:0:0:
232,201,33346,1,2,0:0:0:0:
232,201,33396,1,2,0:0:0:0:
232,201,33446,1,0,0:0:0:0:
232,201,33496,1,2,0:0:0:0:
232,201,33546,1,0,0:0:0:0:
232,201,33646,1,6,0:0:0:0:
232,201,33796,1,0,0:0:0:0:
232,201,33846,1,2,0:0:0:0:
232,201,33946,1,0,0:0:0:0:
202,13,33996,1,0,0:0:0:0:
232,201,34046,1,2,0:0:0:0:
203,61,34096,1,0,0:0:0:0:
232,201,34146,1,0,0:0:0:0:
203,61,34196,1,0,0:0:0:0:
232,201,34246,1,2,0:0:0:0:
232,201,34346,1,2,0:0:0:0:
232,201,34396,1,2,0:0:0:0:
232,201,34446,1,0,0:0:0:0:
232,201,34496,1,2,0:0:0:0:
232,201,34546,1,0,0:0:0:0:
232,201,34596,1,0,0:0:0:0:
232,201,34646,1,2,0:0:0:0:
232,201,34746,1,0,0:0:0:0:
232,201,34846,1,2,0:0:0:0:
232,201,34896,1,2,0:0:0:0:
232,201,34946,1,0,0:0:0:0:
129,117,34996,1,0,0:0:0:0:
232,201,35046,1,2,0:0:0:0:
232,201,35096,1,2,0:0:0:0:
232,201,35146,1,0,0:0:0:0:
232,201,35246,1,0,0:0:0:0:
232,201,35346,1,2,0:0:0:0:
232,201,35396,1,2,0:0:0:0:
232,201,35446,1,0,0:0:0:0:
232,201,35546,1,2,0:0:0:0:
232,201,35646,1,0,0:0:0:0:
215,109,35696,1,0,0:0:0:0:
196,52,35746,1,2,0:0:0:0:
196,52,35796,1,0,0:0:0:0:
196,52,35846,1,2,0:0:0:0:
232,201,35946,1,2,0:0:0:0:
232,201,36046,1,4,0:0:0:0:
232,201,36196,1,0,0:0:0:0:
232,201,36246,1,2,0:0:0:0:
232,201,36346,1,2,0:0:0:0:
221,151,36446,1,4,0:0:0:0:
221,151,36646,1,0,0:0:0:0:
221,151,36746,1,0,0:0:0:0:
232,201,36846,1,6,0:0:0:0:
232,201,36996,1,0,0:0:0:0:
232,201,37046,1,2,0:0:0:0:
232,201,37146,1,0,0:0:0:0:
232,201,37246,1,2,0:0:0:0:
232,201,37296,1,0,0:0:0:0:
232,201,37346,1,0,0:0:0:0:
232,201,37446,1,2,0:0:0:0:
232,201,37546,1,0,0:0:0:0:
232,201,37596,1,0,0:0:0:0:
232,201,37646,1,2,0:0:0:0:
232,201,37746,1,0,0:0:0:0:
232,201,37796,1,2,0:0:0:0:
232,201,37846,1,2,0:0:0:0:
232,201,37946,1,0,0:0:0:0:
232,201,38046,1,2,0:0:0:0:
232,201,38096,1,2,0:0:0:0:
232,201,38146,1,0,0:0:0:0:
232,201,38246,1,2,0:0:0:0:
232,201,38346,1,0,0:0:0:0:
232,201,38396,1,0,0:0:0:0:
232,201,38446,1,2,0:0:0:0:
232,201,38496,1,0,0:0:0:0:
232,201,38596,1,0,0:0:0:0:
232,201,38646,1,2,0:0:0:0:
232,201,38746,1,0,0:0:0:0:
232,201,38846,1,2,0:0:0:0:
232,201,38896,1,2,0:0:0:0:
232,201,38996,1,0,0:0:0:0:
232,201,39046,1,2,0:0:0:0:
232,201,39146,1,2,0:0:0:0:
232,201,39196,1,2,0:0:0:0:
232,201,39246,1,0,0:0:0:0:
232,201,39346,1,0,0:0:0:0:
232,201,39396,1,0,0:0:0:0:
232,201,39446,1,2,0:0:0:0:
232,201,39546,1,2,0:0:0:0:
232,201,39646,1,0,0:0:0:0:
232,201,39696,1,2,0:0:0:0:
232,201,39746,1,2,0:0:0:0:
232,201,39796,1,2,0:0:0:0:
232,201,39846,1,0,0:0:0:0:
232,201,39896,1,2,0:0:0:0:
232,201,39946,1,0,0:0:0:0:
232,201,40046,1,6,0:0:0:0:
232,201,40196,1,0,0:0:0:0:
232,201,40246,1,2,0:0:0:0:
232,201,40346,1,0,0:0:0:0:
202,13,40396,1,0,0:0:0:0:
232,201,40446,1,2,0:0:0:0:
203,61,40496,1,0,0:0:0:0:
232,201,40546,1,0,0:0:0:0:
203,61,40596,1,0,0:0:0:0:
232,201,40646,1,2,0:0:0:0:
232,201,40746,1,2,0:0:0:0:
232,201,40796,1,2,0:0:0:0:
232,201,40846,1,0,0:0:0:0:
232,201,40896,1,2,0:0:0:0:
232,201,40946,1,0,0:0:0:0:
232,201,40996,1,0,0:0:0:0:
232,201,41046,1,2,0:0:0:0:
232,201,41146,1,0,0:0:0:0:
232,201,41246,1,2,0:0:0:0:
232,201,41296,1,2,0:0:0:0:
232,201,41346,1,0,0:0:0:0:
129,117,41396,1,0,0:0:0:0:
232,201,41446,1,2,0:0:0:0:
232,201,41496,1,2,0:0:0:0:
232,201,41546,1,0,0:0:0:0:
245,115,41646,1,0,0:0:0:0:
245,115,42046,1,0,0:0:0:0:
245,115,42446,1,0,0:0:0:0:
256,192,42846,12,0,43146,0:0:0:0:
296,213,43246,5,2,0:0:0:0:
296,213,43296,1,0,0:0:0:0:
296,213,43346,1,2,0:0:0:0:
296,213,43396,1,0,0:0:0:0:
296,213,43446,1,2,0:0:0:0:
296,213,43496,1,2,0:0:0:0:
296,213,43546,1,0,0:0:0:0:
296,213,43596,1,0,0:0:0:0:
296,213,43646,1,2,0:0:0:0:
296,213,43746,1,0,0:0:0:0:
258,178,43796,1,0,0:0:0:0:
296,213,43846,1,0,0:0:0:0:
296,213,43946,1,0,0:0:0:0:
302,193,44046,1,2,0:0:0:0:
302,193,44146,1,0,0:0:0:0:
302,193,44196,1,0,0:0:0:0:
302,193,44246,1,0,0:0:0:0:
302,193,44346,1,0,0:0:0:0:
302,193,44446,1,2,0:0:0:0:
302,193,44546,1,0,0:0:0:0:
302,193,44596,1,0,0:0:0:0:
302,193,44646,1,0,0:0:0:0:
302,193,44746,1,0,0:0:0:0:
302,193,44846,1,2,0:0:0:0:
302,193,44946,1,0,0:0:0:0:
302,193,44996,1,0,0:0:0:0:
302,193,45046,1,0,0:0:0:0:
302,193,45146,1,0,0:0:0:0:
302,193,45246,1,2,0:0:0:0:
302,193,45346,1,0,0:0:0:0:
302,193,45396,1,0,0:0:0:0:
302,193,45446,1,2,0:0:0:0:
302,193,45546,1,2,0:0:0:0:
255,178,45646,1,0,0:0:0:0:
255,178,45746,1,2,0:0:0:0:
255,178,45796,1,2,0:0:0:0:
255,178,45846,1,0,0:0:0:0:
255,178,45946,1,0,0:0:0:0:
255,178,45996,1,0,0:0:0:0:
255,178,46046,1,2,0:0:0:0:
255,178,46146,1,2,0:0:0:0:
264,179,46246,1,0,0:0:0:0:
264,179,46346,1,0,0:0:0:0:
296,213,46446,5,2,0:0:0:0:
296,213,46496,1,2,0:0:0:0:
296,213,46546,1,2,0:0:0:0:
296,213,46596,1,0,0:0:0:0:
296,213,46646,1,2,0:0:0:0:
296,213,46696,1,2,0:0:0:0:
296,213,46746,1,0,0:0:0:0:
296,213,46796,1,0,0:0:0:0:
296,213,46846,1,2,0:0:0:0:
296,213,46946,1,0,0:0:0:0:
258,178,46996,1,0,0:0:0:0:
296,213,47046,1,0,0:0:0:0:
296,213,47146,1,0,0:0:0:0:
302,193,47246,1,2,0:0:0:0:
302,193,47346,1,0,0:0:0:0:
302,193,47396,1,0,0:0:0:0:
302,193,47446,1,0,0:0:0:0:
302,193,47546,1,0,0:0:0:0:
302,193,47646,1,2,0:0:0:0:
302,193,47746,1,0,0:0:0:0:
302,193,47796,1,0,0:0:0:0:
302,193,47846,1,2,0:0:0:0:
302,193,47946,1,2,0:0:0:0:
196,150,48046,1,4,0:0:0:0:
196,150,48196,1,2,0:0:0:0:
196,150,48246,1,0,0:0:0:0:
196,150,48346,1,2,0:0:0:0:
196,150,48396,1,2,0:0:0:0:
196,150,48446,1,0,0:0:0:0:
174,87,48546,1,0,0:0:0:0:
186,108,48646,1,2,0:0:0:0:
174,87,48746,1,0,0:0:0:0:
174,87,48796,1,2,0:0:0:0:
176,96,48846,1,0,0:0:0:0:
176,96,48896,1,0,0:0:0:0:
176,96,48996,1,2,0:0:0:0:
176,96,49046,1,0,0:0:0:0:
176,96,49146,1,2,0:0:0:0:
176,96,49246,1,0,0:0:0:0:
176,96,49296,1,0,0:0:0:0:
176,96,49346,1,0,0:0:0:0:
176,96,49446,1,2,0:0:0:0:
296,213,49646,5,2,0:0:0:0:
296,213,49696,1,0,0:0:0:0:
296,213,49746,1,2,0:0:0:0:
296,213,49796,1,0,0:0:0:0:
296,213,49846,1,2,0:0:0:0:
296,213,49896,1,2,0:0:0:0:
296,213,49946,1,0,0:0:0:0:
296,213,49996,1,0,0:0:0:0:
296,213,50046,1,2,0:0:0:0:
296,213,50146,1,0,0:0:0:0:
258,178,50196,1,0,0:0:0:0:
296,213,50246,1,0,0:0:0:0:
296,213,50346,1,0,0:0:0:0:
302,193,50446,1,2,0:0:0:0:
302,193,50546,1,0,0:0:0:0:
302,193,50596,1,0,0:0:0:0:
302,193,50646,1,0,0:0:0:0:
302,193,50746,1,0,0:0:0:0:
302,193,50846,1,2,0:0:0:0:
302,193,50946,1,0,0:0:0:0:
302,193,50996,1,0,0:0:0:0:
302,193,51046,1,0,0:0:0:0:
302,193,51146,1,0,0:0:0:0:
302,193,51246,1,2,0:0:0:0:
302,193,51346,1,0,0:0:0:0:
302,193,51396,1,0,0:0:0:0:
302,193,51446,1,0,0:0:0:0:
302,193,51546,1,0,0:0:0:0:
302,193,51646,1,2,0:0:0:0:
302,193,51746,1,0,0:0:0:0:
302,193,51796,1,0,0:0:0:0:
302,193,51846,1,2,0:0:0:0:
302,193,51946,1,2,0:0:0:0:
255,178,52046,1,0,0:0:0:0:
255,178,52146,1,2,0:0:0:0:
255,178,52196,1,2,0:0:0:0:
255,178,52246,1,0,0:0:0:0:
255,178,52346,1,0,0:0:0:0:
255,178,52396,1,0,0:0:0:0:
255,178,52446,1,2,0:0:0:0:
255,178,52546,1,2,0:0:0:0:
264,179,52646,1,0,0:0:0:0:
264,179,52746,1,0,0:0:0:0:
296,213,52846,5,2,0:0:0:0:
296,213,52896,1,2,0:0:0:0:
296,213,52946,1,2,0:0:0:0:
296,213,52996,1,0,0:0:0:0:
296,213,53046,1,2,0:0:0:0:
296,213,53096,1,2,0:0:0:0:
296,213,53146,1,0,0:0:0:0:
296,213,53196,1,0,0:0:0:0:
296,213,53246,1,2,0:0:0:0:
296,213,53346,1,0,0:0:0:0:
258,178,53396,1,0,0:0:0:0:
296,213,53446,1,0,0:0:0:0:
296,213,53546,1,0,0:0:0:0:
302,193,53646,1,2,0:0:0:0:
302,193,53746,1,0,0:0:0:0:
302,193,53796,1,0,0:0:0:0:
302,193,53846,1,0,0:0:0:0:
302,193,53946,1,0,0:0:0:0:
302,193,54046,1,2,0:0:0:0:
302,193,54146,1,0,0:0:0:0:
302,193,54196,1,0,0:0:0:0:
302,193,54246,1,2,0:0:0:0:
302,193,54346,1,2,0:0:0:0:
196,150,54446,1,4,0:0:0:0:
196,150,54596,1,2,0:0:0:0:
196,150,54646,1,0,0:0:0:0:
196,150,54746,1,2,0:0:0:0:
196,150,54796,1,2,0:0:0:0:
196,150,54846,1,0,0:0:0:0:
174,87,54946,1,0,0:0:0:0:
186,108,55046,1,0,0:0:0:0:
174,87,55146,1,0,0:0:0:0:
174,87,55196,1,2,0:0:0:0:
176,96,55246,1,0,0:0:0:0:
256,192,55646,12,0,55846,0:0:0:0:
241,181,56046,5,0,0:0:0:0:
241,181,56346,1,0,0:0:0:0:
241,181,56646,1,0,0:0:0:0:
203,214,56946,1,0,0:0:0:0:
203,214,57046,1,0,0:0:0:0:
203,214,57246,1,2,0:0:0:0:
203,214,57446,1,0,0:0:0:0:
203,214,57546,1,2,0:0:0:0:
241,181,57646,5,0,0:0:0:0:
241,181,57946,1,0,0:0:0:0:
241,181,58246,1,0,0:0:0:0:
203,214,58546,1,0,0:0:0:0:
203,214,58646,1,0,0:0:0:0:
203,214,58846,1,2,0:0:0:0:
203,214,59046,1,0,0:0:0:0:
203,214,59146,1,0,0:0:0:0:
241,181,59246,5,0,0:0:0:0:
241,181,59546,1,0,0:0:0:0:
241,181,59846,1,0,0:0:0:0:
203,214,60146,1,0,0:0:0:0:
203,214,60246,1,0,0:0:0:0:
203,214,60446,1,2,0:0:0:0:
203,214,60646,1,0,0:0:0:0:
203,214,60746,1,2,0:0:0:0:
241,181,60846,5,0,0:0:0:0:
181,157,60946,1,2,0:0:0:0:
270,148,60996,1,2,0:0:0:0:
270,148,61046,1,2,0:0:0:0:
241,181,61146,1,2,0:0:0:0:
270,148,61246,1,0,0:0:0:0:
270,148,61296,1,0,0:0:0:0:
270,148,61346,1,2,0:0:0:0:
270,148,61396,1,2,0:0:0:0:
241,181,61446,1,0,0:0:0:0:
275,149,61646,1,0,0:0:0:0:
275,149,61696,1,0,0:0:0:0:
203,214,61746,1,2,0:0:0:0:
275,149,61796,1,0,0:0:0:0:
203,214,61846,1,2,0:0:0:0:
275,149,61946,1,2,0:0:0:0:
203,214,62046,1,0,0:0:0:0:
266,153,62096,1,0,0:0:0:0:
266,153,62146,1,2,0:0:0:0:
203,214,62246,1,0,0:0:0:0:
110,140,62279,1,0,0:0:0:0:
183,145,62312,1,0,0:0:0:0:
203,214,62346,1,2,0:0:0:0:
241,181,62446,5,0,0:0:0:0:
241,181,62746,1,0,0:0:0:0:
241,181,63046,1,0,0:0:0:0:
203,214,63346,1,0,0:0:0:0:
203,214,63446,1,0,0:0:0:0:
203,214,63646,1,2,0:0:0:0:
203,214,63846,1,0,0:0:0:0:
203,214,63946,1,2,0:0:0:0:
241,181,64046,5,0,0:0:0:0:
241,181,64346,1,0,0:0:0:0:
241,181,64646,1,0,0:0:0:0:
203,214,64946,1,0,0:0:0:0:
203,214,65046,1,0,0:0:0:0:
203,214,65246,1,2,0:0:0:0:
203,214,65446,1,0,0:0:0:0:
203,214,65546,1,0,0:0:0:0:
241,181,65646,5,0,0:0:0:0:
241,181,65946,1,0,0:0:0:0:
241,181,66246,1,0,0:0:0:0:
203,214,66546,1,0,0:0:0:0:
203,214,66646,1,0,0:0:0:0:
203,214,66846,1,2,0:0:0:0:
203,214,67046,1,0,0:0:0:0:
203,214,67146,1,2,0:0:0:0:
182,117,67246,1,0,0:0:0:0:
236,180,68846,1,4,0:0:0:0:
321,153,68946,1,2,0:0:0:0:
321,153,68996,1,2,0:0:0:0:
321,153,69046,1,2,0:0:0:0:
328,145,69146,1,0,0:0:0:0:
321,153,69246,1,2,0:0:0:0:
321,153,69296,1,2,0:0:0:0:
321,153,69346,1,2,0:0:0:0:
328,145,69446,1,0,0:0:0:0:
326,153,69546,1,2,0:0:0:0:
326,153,69596,1,2,0:0:0:0:
326,153,69646,1,0,0:0:0:0:
222,106,69679,1,0,0:0:0:0:
222,106,69712,1,0,0:0:0:0:
328,145,69746,1,2,0:0:0:0:
230,102,69796,1,0,0:0:0:0:
281,133,69846,1,2,0:0:0:0:
326,153,69946,1,0,0:0:0:0:
326,153,69996,1,0,0:0:0:0:
281,133,70046,1,2,0:0:0:0:
326,153,70146,1,2,0:0:0:0:
281,133,70246,1,0,0:0:0:0:
230,102,70296,1,2,0:0:0:0:
281,133,70346,1,2,0:0:0:0:
230,102,70396,1,2,0:0:0:0:
281,133,70446,1,0,0:0:0:0:
230,102,70496,1,0,0:0:0:0:
230,102,70596,1,2,0:0:0:0:
230,102,70646,1,0,0:0:0:0:
281,133,70746,1,2,0:0:0:0:
237,106,70846,1,0,0:0:0:0:
237,106,70896,1,0,0:0:0:0:
237,106,70946,1,2,0:0:0:0:
281,133,71046,1,0,0:0:0:0:
237,106,71146,1,2,0:0:0:0:
237,106,71196,1,2,0:0:0:0:
237,106,71246,1,0,0:0:0:0:
193,109,71279,1,2,0:0:0:0:
188,107,71312,5,2,0:0:0:0:
281,133,71346,1,0,0:0:0:0:
276,127,71446,1,2,0:0:0:0:
237,106,71546,1,0,0:0:0:0:
271,121,71646,1,2,0:0:0:0:
237,106,71696,1,2,0:0:0:0:
237,106,71746,1,0,0:0:0:0:
270,119,71846,1,2,0:0:0:0:
237,106,71896,1,2,0:0:0:0:
263,109,71946,1,2,0:0:0:0:
311,155,71996,1,2,0:0:0:0:
236,180,72046,1,0,0:0:0:0:
321,153,72146,1,2,0:0:0:0:
321,153,72196,1,2,0:0:0:0:
321,153,72246,1,2,0:0:0:0:
328,145,72346,1,0,0:0:0:0:
321,153,72446,1,2,0:0:0:0:
321,153,72496,1,2,0:0:0:0:
321,153,72546,1,0,0:0:0:0:
328,145,72646,1,2,0:0:0:0:
326,153,72746,1,0,0:0:0:0:
326,153,72796,1,2,0:0:0:0:
326,153,72846,1,0,0:0:0:0:
222,106,72879,1,0,0:0:0:0:
222,106,72912,1,0,0:0:0:0:
328,145,72946,1,2,0:0:0:0:
230,102,72996,1,2,0:0:0:0:
281,133,73046,1,0,0:0:0:0:
326,153,73146,1,2,0:0:0:0:
326,153,73196,1,2,0:0:0:0:
281,133,73246,1,0,0:0:0:0:
326,153,73346,1,2,0:0:0:0:
281,133,73446,1,0,0:0:0:0:
230,102,73496,1,0,0:0:0:0:
281,133,73546,1,2,0:0:0:0:
230,102,73596,1,2,0:0:0:0:
281,133,73646,1,0,0:0:0:0:
230,102,73696,1,2,0:0:0:0:
230,102,73796,1,2,0:0:0:0:
230,102,73846,1,0,0:0:0:0:
281,133,73946,1,2,0:0:0:0:
237,106,74046,1,0,0:0:0:0:
237,106,74096,1,2,0:0:0:0:
237,106,74146,1,2,0:0:0:0:
281,133,74246,1,0,0:0:0:0:
237,106,74346,1,2,0:0:0:0:
237,106,74396,1,2,0:0:0:0:
237,106,74446,1,0,0:0:0:0:
193,109,74479,1,2,0:0:0:0:
188,107,74512,5,2,0:0:0:0:
281,133,74546,1,0,0:0:0:0:
276,127,74646,1,2,0:0:0:0:
237,106,74746,1,0,0:0:0:0:
271,121,74846,1,2,0:0:0:0:
237,106,74896,1,2,0:0:0:0:
237,106,74946,1,0,0:0:0:0:
91,119,74996,1,0,0:0:0:0:
270,119,75046,1,2,0:0:0:0:
346,143,75079,1,0,0:0:0:0:
346,143,75112,1,0,0:0:0:0:
263,109,75146,1,2,0:0:0:0:
236,180,75246,1,4,0:0:0:0:
321,153,75346,1,2,0:0:0:0:
321,153,75396,1,2,0:0:0:0:
321,153,75446,1,2,0:0:0:0:
328,145,75546,1,0,0:0:0:0:
321,153,75646,1,2,0:0:0:0:
321,153,75696,1,2,0:0:0:0:
321,153,75746,1,2,0:0:0:0:
328,145,75846,1,0,0:0:0:0:
326,153,75946,1,2,0:0:0:0:
326,153,75996,1,2,0:0:0:0:
326,153,76046,1,0,0:0:0:0:
222,106,76079,1,0,0:0:0:0:
222,106,76112,1,0,0:0:0:0:
328,145,76146,1,2,0:0:0:0:
230,102,76196,1,0,0:0:0:0:
281,133,76246,1,2,0:0:0:0:
326,153,76346,1,0,0:0:0:0:
326,153,76396,1,0,0:0:0:0:
281,133,76446,1,2,0:0:0:0:
326,153,76546,1,2,0:0:0:0:
281,133,76646,1,0,0:0:0:0:
230,102,76696,1,2,0:0:0:0:
281,133,76746,1,2,0:0:0:0:
230,102,76796,1,2,0:0:0:0:
281,133,76846,1,0,0:0:0:0:
230,102,76896,1,0,0:0:0:0:
230,102,76996,1,2,0:0:0:0:
230,102,77046,1,0,0:0:0:0:
281,133,77146,1,2,0:0:0:0:
237,106,77246,1,0,0:0:0:0:
237,106,77296,1,0,0:0:0:0:
237,106,77346,1,2,0:0:0:0:
281,133,77446,1,0,0:0:0:0:
237,106,77546,1,2,0:0:0:0:
237,106,77596,1,2,0:0:0:0:
237,106,77646,1,0,0:0:0:0:
193,109,77679,1,2,0:0:0:0:
188,107,77712,5,2,0:0:0:0:
281,133,77746,1,0,0:0:0:0:
276,127,77846,1,2,0:0:0:0:
237,106,77946,1,0,0:0:0:0:
271,121,78046,1,2,0:0:0:0:
237,106,78096,1,2,0:0:0:0:
237,106,78146,1,0,0:0:0:0:
270,119,78246,1,2,0:0:0:0:
237,106,78296,1,2,0:0:0:0:
263,109,78346,1,2,0:0:0:0:
311,155,78396,1,2,0:0:0:0:
236,180,78446,1,0,0:0:0:0:
321,153,78546,1,2,0:0:0:0:
321,153,78596,1,2,0:0:0:0:
321,153,78646,1,2,0:0:0:0:
328,145,78746,1,0,0:0:0:0:
321,153,78846,1,2,0:0:0:0:
321,153,78896,1,2,0:0:0:0:
321,153,78946,1,0,0:0:0:0:
328,145,79046,1,2,0:0:0:0:
326,153,79146,1,0,0:0:0:0:
326,153,79196,1,2,0:0:0:0:
326,153,79246,1,0,0:0:0:0:
222,106,79279,1,0,0:0:0:0:
222,106,79312,1,0,0:0:0:0:
328,145,79346,1,2,0:0:0:0:
230,102,79396,1,2,0:0:0:0:
281,133,79446,1,0,0:0:0:0:
326,153,79546,1,2,0:0:0:0:
326,153,79596,1,2,0:0:0:0:
281,133,79646,1,0,0:0:0:0:
326,153,79746,1,2,0:0:0:0:
281,133,79846,1,0,0:0:0:0:
230,102,79896,1,2,0:0:0:0:
281,133,79946,1,0,0:0:0:0:
230,102,79996,1,2,0:0:0:0:
281,133,80046,1,0,0:0:0:0:
256,192,80846,12,0,81546,0:0:0:0:
277,147,81646,5,2,0:0:0:0:
277,147,81696,1,2,0:0:0:0:
277,147,81746,1,0,0:0:0:0:
277,147,81796,1,0,0:0:0:0:
277,147,81846,1,2,0:0:0:0:
277,147,81896,1,0,0:0:0:0:
277,147,81946,1,0,0:0:0:0:
277,147,81996,1,0,0:0:0:0:
277,147,82046,1,2,0:0:0:0:
277,147,82096,1,2,0:0:0:0:
277,147,82146,1,2,0:0:0:0:
277,147,82196,1,0,0:0:0:0:
277,147,82246,1,2,0:0:0:0:
277,147,82296,1,2,0:0:0:0:
277,147,82346,1,0,0:0:0:0:
277,147,82396,1,0,0:0:0:0:
277,147,82446,5,2,0:0:0:0:
277,147,82496,1,2,0:0:0:0:
277,147,82546,1,0,0:0:0:0:
277,147,82596,1,0,0:0:0:0:
277,147,82646,1,2,0:0:0:0:
277,147,82696,1,0,0:0:0:0:
277,147,82746,1,2,0:0:0:0:
277,147,82796,1,2,0:0:0:0:
277,147,82846,1,0,0:0:0:0:
277,147,82896,1,0,0:0:0:0:
277,147,82946,1,2,0:0:0:0:
277,147,82996,1,0,0:0:0:0:
277,147,83046,1,2,0:0:0:0:
277,147,83096,1,2,0:0:0:0:
277,147,83146,1,0,0:0:0:0:
277,147,83196,1,0,0:0:0:0:
277,147,83246,5,2,0:0:0:0:
277,147,83296,1,2,0:0:0:0:
277,147,83346,1,0,0:0:0:0:
277,147,83396,1,0,0:0:0:0:
277,147,83446,1,2,0:0:0:0:
277,147,83496,1,0,0:0:0:0:
277,147,83546,1,0,0:0:0:0:
277,147,83596,1,0,0:0:0:0:
277,147,83646,1,2,0:0:0:0:
277,147,83696,1,2,0:0:0:0:
277,147,83746,1,2,0:0:0:0:
277,147,83796,1,0,0:0:0:0:
277,147,83846,1,2,0:0:0:0:
277,147,83896,1,2,0:0:0:0:
277,147,83946,1,0,0:0:0:0:
277,147,83996,1,0,0:0:0:0:
301,169,84046,1,2,0:0:0:0:
301,169,84146,1,0,0:0:0:0:
301,169,84196,1,0,0:0:0:0:
301,169,84246,1,2,0:0:0:0:
301,169,84346,1,2,0:0:0:0:
301,169,84396,1,0,0:0:0:0:
301,169,84446,1,2,0:0:0:0:
301,169,84546,1,2,0:0:0:0:
301,169,84646,1,0,0:0:0:0:
330,163,84746,1,0,0:0:0:0:
277,147,84846,5,2,0:0:0:0:
277,147,84896,1,2,0:0:0:0:
277,147,84946,1,0,0:0:0:0:
277,147,84996,1,0,0:0:0:0:
277,147,85046,1,2,0:0:0:0:
277,147,85096,1,0,0:0:0:0:
277,147,85146,1,0,0:0:0:0:
277,147,85196,1,0,0:0:0:0:
277,147,85246,1,2,0:0:0:0:
277,147,85346,1,0,0:0:0:0:
266,154,85396,1,0,0:0:0:0:
277,147,85446,1,0,0:0:0:0:
277,147,85546,1,0,0:0:0:0:
266,154,85646,1,2,0:0:0:0:
266,154,85746,1,0,0:0:0:0:
266,154,85796,1,0,0:0:0:0:
266,154,85846,1,0,0:0:0:0:
265,154,85946,1,0,0:0:0:0:
265,154,86046,1,2,0:0:0:0:
265,154,86146,1,0,0:0:0:0:
266,154,86196,1,0,0:0:0:0:
265,154,86246,1,2,0:0:0:0:
265,154,86346,1,2,0:0:0:0:
233,154,86446,1,0,0:0:0:0:
233,154,86596,1,2,0:0:0:0:
233,154,86646,1,0,0:0:0:0:
233,154,86746,1,2,0:0:0:0:
233,154,86796,1,2,0:0:0:0:
233,154,86846,1,0,0:0:0:0:
233,154,86946,1,2,0:0:0:0:
233,154,87046,1,0,0:0:0:0:
233,154,87096,1,0,0:0:0:0:
233,154,87146,1,2,0:0:0:0:
233,154,87196,1,2,0:0:0:0:
233,154,87246,1,0,0:0:0:0:
233,154,87296,1,2,0:0:0:0:
250,143,87396,1,2,0:0:0:0:
236,126,87446,1,0,0:0:0:0:
236,126,87546,1,2,0:0:0:0:
236,126,87596,1,2,0:0:0:0:
236,126,87646,1,0,0:0:0:0:
236,126,87746,1,2,0:0:0:0:
236,126,87846,1,0,0:0:0:0:
314,112,87879,1,0,0:0:0:0:
314,112,87912,1,0,0:0:0:0:
236,126,87946,1,2,0:0:0:0:
277,147,88046,5,2,0:0:0:0:
277,147,88096,1,2,0:0:0:0:
277,147,88146,1,0,0:0:0:0:
277,147,88196,1,0,0:0:0:0:
277,147,88246,1,2,0:0:0:0:
277,147,88296,1,0,0:0:0:0:
277,147,88346,1,0,0:0:0:0:
277,147,88396,1,0,0:0:0:0:
277,147,88446,1,2,0:0:0:0:
277,147,88496,1,2,0:0:0:0:
277,147,88546,1,2,0:0:0:0:
277,147,88596,1,0,0:0:0:0:
277,147,88646,1,2,0:0:0:0:
277,147,88696,1,2,0:0:0:0:
277,147,88746,1,0,0:0:0:0:
277,147,88796,1,0,0:0:0:0:
277,147,88846,5,2,0:0:0:0:
277,147,88896,1,2,0:0:0:0:
277,147,88946,1,0,0:0:0:0:
277,147,88996,1,0,0:0:0:0:
277,147,89046,1,2,0:0:0:0:
277,147,89096,1,0,0:0:0:0:
277,147,89146,1,2,0:0:0:0:
277,147,89196,1,2,0:0:0:0:
277,147,89246,1,0,0:0:0:0:
277,147,89296,1,0,0:0:0:0:
277,147,89346,1,2,0:0:0:0:
277,147,89396,1,0,0:0:0:0:
277,147,89446,1,2,0:0:0:0:
277,147,89496,1,2,0:0:0:0:
277,147,89546,1,0,0:0:0:0:
277,147,89596,1,0,0:0:0:0:
277,147,89646,5,2,0:0:0:0:
277,147,89696,1,2,0:0:0:0:
277,147,89746,1,0,0:0:0:0:
277,147,89796,1,0,0:0:0:0:
277,147,89846,1,2,0:0:0:0:
277,147,89896,1,0,0:0:0:0:
277,147,89946,1,0,0:0:0:0:
277,147,89996,1,0,0:0:0:0:
277,147,90046,1,2,0:0:0:0:
277,147,90096,1,2,0:0:0:0:
277,147,90146,1,2,0:0:0:0:
277,147,90196,1,0,0:0:0:0:
277,147,90246,1,2,0:0:0:0:
277,147,90296,1,2,0:0:0:0:
277,147,90346,1,0,0:0:0:0:
277,147,90396,1,0,0:0:0:0:
301,169,90446,1,2,0:0:0:0:
301,169,90546,1,0,0:0:0:0:
301,169,90596,1,0,0:0:0:0:
301,169,90646,1,2,0:0:0:0:
301,169,90746,1,2,0:0:0:0:
301,169,90796,1,0,0:0:0:0:
301,169,90846,1,2,0:0:0:0:
301,169,90946,1,2,0:0:0:0:
301,169,91046,1,0,0:0:0:0:
330,163,91146,1,0,0:0:0:0:
277,147,91246,5,2,0:0:0:0:
277,147,91296,1,2,0:0:0:0:
277,147,91346,1,0,0:0:0:0:
277,147,91396,1,0,0:0:0:0:
277,147,91446,1,2,0:0:0:0:
277,147,91496,1,0,0:0:0:0:
277,147,91546,1,0,0:0:0:0:
277,147,91596,1,0,0:0:0:0:
277,147,91646,1,2,0:0:0:0:
277,147,91746,1,0,0:0:0:0:
266,154,91796,1,0,0:0:0:0:
277,147,91846,1,0,0:0:0:0:
277,147,91946,1,0,0:0:0:0:
266,154,92046,1,2,0:0:0:0:
266,154,92146,1,0,0:0:0:0:
266,154,92196,1,0,0:0:0:0:
266,154,92246,1,0,0:0:0:0:
265,154,92346,1,0,0:0:0:0:
265,154,92446,1,2,0:0:0:0:
265,154,92546,1,0,0:0:0:0:
266,154,92596,1,0,0:0:0:0:
265,154,92646,1,2,0:0:0:0:
265,154,92746,1,2,0:0:0:0:
233,154,92846,1,0,0:0:0:0:
233,154,92996,1,2,0:0:0:0:
233,154,93046,1,0,0:0:0:0:
233,154,93146,1,2,0:0:0:0:
233,154,93196,1,2,0:0:0:0:
233,154,93246,1,0,0:0:0:0:
233,154,93346,1,2,0:0:0:0:
233,154,93446,1,0,0:0:0:0:
233,154,93496,1,2,0:0:0:0:
233,154,93546,1,0,0:0:0:0:
233,154,93596,1,2,0:0:0:0:
233,154,93646,1,0,0:0:0:0:
256,192,94046,12,0,94346,0:0:0:0:
232,201,94446,5,6,0:0:0:0:
232,201,94596,1,0,0:0:0:0:
232,201,94646,1,2,0:0:0:0:
232,201,94746,1,0,0:0:0:0:
232,201,94846,1,2,0:0:0:0:
232,201,94896,1,0,0:0:0:0:
232,201,94946,1,0,0:0:0:0:
232,201,95046,1,2,0:0:0:0:
232,201,95146,1,0,0:0:0:0:
232,201,95196,1,0,0:0:0:0:
232,201,95246,1,2,0:0:0:0:
232,201,95346,1,0,0:0:0:0:
232,201,95396,1,2,0:0:0:0:
232,201,95446,1,2,0:0:0:0:
232,201,95546,1,0,0:0:0:0:
232,201,95646,1,2,0:0:0:0:
232,201,95696,1,2,0:0:0:0:
232,201,95746,1,0,0:0:0:0:
232,201,95846,1,2,0:0:0:0:
232,201,95946,1,0,0:0:0:0:
232,201,95996,1,0,0:0:0:0:
232,201,96046,1,2,0:0:0:0:
232,201,96096,1,0,0:0:0:0:
232,201,96196,1,0,0:0:0:0:
232,201,96246,1,2,0:0:0:0:
232,201,96346,1,0,0:0:0:0:
232,201,96446,1,2,0:0:0:0:
232,201,96496,1,2,0:0:0:0:
232,201,96596,1,0,0:0:0:0:
232,201,96646,1,2,0:0:0:0:
232,201,96746,1,2,0:0:0:0:
232,201,96796,1,2,0:0:0:0:
232,201,96846,1,0,0:0:0:0:
232,201,96946,1,0,0:0:0:0:
232,201,96996,1,0,0:0:0:0:
232,201,97046,1,2,0:0:0:0:
232,201,97146,1,2,0:0:0:0:
232,201,97246,1,0,0:0:0:0:
232,201,97296,1,2,0:0:0:0:
232,201,97346,1,2,0:0:0:0:
232,201,97396,1,2,0:0:0:0:
232,201,97446,1,0,0:0:0:0:
232,201,97496,1,2,0:0:0:0:
232,201,97546,1,0,0:0:0:0:
232,201,97646,1,6,0:0:0:0:
232,201,97796,1,0,0:0:0:0:
232,201,97846,1,2,0:0:0:0:
232,201,97946,1,0,0:0:0:0:
202,13,97996,1,0,0:0:0:0:
232,201,98046,1,2,0:0:0:0:
203,61,98096,1,0,0:0:0:0:
232,201,98146,1,0,0:0:0:0:
203,61,98196,1,0,0:0:0:0:
232,201,98246,1,2,0:0:0:0:
232,201,98346,1,2,0:0:0:0:
232,201,98396,1,2,0:0:0:0:
232,201,98446,1,0,0:0:0:0:
232,201,98496,1,2,0:0:0:0:
232,201,98546,1,0,0:0:0:0:
232,201,98596,1,0,0:0:0:0:
232,201,98646,1,2,0:0:0:0:
232,201,98746,1,0,0:0:0:0:
232,201,98846,1,2,0:0:0:0:
232,201,98896,1,2,0:0:0:0:
232,201,98946,1,0,0:0:0:0:
129,117,98996,1,0,0:0:0:0:
232,201,99046,1,2,0:0:0:0:
232,201,99096,1,2,0:0:0:0:
232,201,99146,1,0,0:0:0:0:
232,201,99246,1,0,0:0:0:0:
232,201,99346,1,2,0:0:0:0:
232,201,99396,1,2,0:0:0:0:
232,201,99446,1,0,0:0:0:0:
232,201,99546,1,2,0:0:0:0:
232,201,99646,1,0,0:0:0:0:
215,109,99696,1,0,0:0:0:0:
196,52,99746,1,2,0:0:0:0:
196,52,99796,1,0,0:0:0:0:
196,52,99846,1,2,0:0:0:0:
232,201,99946,1,2,0:0:0:0:
232,201,100046,1,4,0:0:0:0:
232,201,100196,1,0,0:0:0:0:
232,201,100246,1,2,0:0:0:0:
232,201,100346,1,2,0:0:0:0:
221,151,100446,1,4,0:0:0:0:
221,151,100646,1,0,0:0:0:0:
221,151,100746,1,0,0:0:0:0:
232,201,100846,1,6,0:0:0:0:
232,201,100996,1,0,0:0:0:0:
232,201,101046,1,2,0:0:0:0:
232,201,101146,1,0,0:0:0:0:
232,201,101246,1,2,0:0:0:0:
232,201,101296,1,0,0:0:0:0:
232,201,101346,1,0,0:0:0:0:
232,201,101446,1,2,0:0:0:0:
232,201,101546,1,0,0:0:0:0:
232,201,101596,1,0,0:0:0:0:
232,201,101646,1,2,0:0:0:0:
232,201,101746,1,0,0:0:0:0:
232,201,101796,1,2,0:0:0:0:
232,201,101846,1,2,0:0:0:0:
232,201,101946,1,0,0:0:0:0:
232,201,102046,1,2,0:0:0:0:
232,201,102096,1,2,0:0:0:0:
232,201,102146,1,0,0:0:0:0:
232,201,102246,1,2,0:0:0:0:
232,201,102346,1,0,0:0:0:0:
232,201,102396,1,0,0:0:0:0:
232,201,102446,1,2,0:0:0:0:
232,201,102496,1,0,0:0:0:0:
232,201,102596,1,0,0:0:0:0:
232,201,102646,1,2,0:0:0:0:
232,201,102746,1,0,0:0:0:0:
232,201,102846,1,2,0:0:0:0:
232,201,102896,1,2,0:0:0:0:
232,201,102996,1,0,0:0:0:0:
232,201,103046,1,2,0:0:0:0:
232,201,103146,1,2,0:0:0:0:
232,201,103196,1,2,0:0:0:0:
232,201,103246,1,0,0:0:0:0:
232,201,103346,1,0,0:0:0:0:
232,201,103396,1,0,0:0:0:0:
232,201,103446,1,2,0:0:0:0:
232,201,103546,1,2,0:0:0:0:
232,201,103646,1,0,0:0:0:0:
232,201,103696,1,2,0:0:0:0:
232,201,103746,1,2,0:0:0:0:
232,201,103796,1,2,0:0:0:0:
232,201,103846,1,0,0:0:0:0:
232,201,103896,1,2,0:0:0:0:
232,201,103946,1,0,0:0:0:0:
232,201,104046,1,6,0:0:0:0:
232,201,104196,1,0,0:0:0:0:
232,201,104246,1,2,0:0:0:0:
232,201,104346,1,0,0:0:0:0:
202,13,104396,1,0,0:0:0:0:
232,201,104446,1,2,0:0:0:0:
203,61,104496,1,0,0:0:0:0:
232,201,104546,1,0,0:0:0:0:
203,61,104596,1,0,0:0:0:0:
232,201,104646,1,2,0:0:0:0:
232,201,104746,1,2,0:0:0:0:
232,201,104796,1,2,0:0:0:0:
232,201,104846,1,0,0:0:0:0:
232,201,104896,1,2,0:0:0:0:
232,201,104946,1,0,0:0:0:0:
232,201,104996,1,0,0:0:0:0:
232,201,105046,1,2,0:0:0:0:
232,201,105146,1,0,0:0:0:0:
232,201,105246,1,2,0:0:0:0:
232,201,105296,1,2,0:0:0:0:
232,201,105346,1,0,0:0:0:0:
129,117,105396,1,0,0:0:0:0:
232,201,105446,1,2,0:0:0:0:
232,201,105496,1,2,0:0:0:0:
232,201,105546,1,0,0:0:0:0:
245,115,105646,1,4,0:0:0:0:
245,115,106046,1,4,0:0:0:0:
245,115,106446,1,4,0:0:0:0:
