osu file format v14

[General]
AudioFilename: audio260.mp3
AudioLeadIn: 0
PreviewTime: 38058
Countdown: 0
SampleSet: None
StackLeniency: 0.7
Mode: 1
LetterboxInBreaks: 0
WidescreenStoryboard: 0

[Editor]
DistanceSpacing: 1.6
BeatDivisor: 4
GridSize: 32
TimelineZoom: 2.999999

[Metadata]
Title:Hejterdisskor Jebana Dziewico
TitleUnicode:Hejterdisskor Jebana Dziewico
Artist:Loffciamcore
ArtistUnicode:Loffciamcore
Creator:7_7
Version:260
Source:
Tags:
BeatmapID:2446455
BeatmapSetID:1173017

[Difficulty]
HPDrainRate:5
CircleSize:5
OverallDifficulty:6.5
ApproachRate:5
SliderMultiplier:1.4
SliderTickRate:1

[Events]
//Background and Video events
0,0,"painting-GIMP-2011-ART-layers-modernart-572593-wallhere.com.jpg",0,0
//Break Periods
//Storyboard Layer 0 (Background)
//Storyboard Layer 1 (Fail)
//Storyboard Layer 2 (Pass)
//Storyboard Layer 3 (Foreground)
//Storyboard Layer 4 (Overlay)
//Storyboard Sound Samples

[TimingPoints]
5592,230.7692,4,1,0,80,1,0
5592,-125,4,1,0,80,0,0
20303,-100,4,1,0,80,0,0
35072,-95.2381,4,1,0,80,0,0
35130,-95.2381,4,1,0,80,0,1
47995,-111.1111,4,1,0,80,0,1
48053,-111.1111,4,1,0,80,0,0
49841,-90.90909,4,1,0,80,0,0
49899,-90.90909,4,1,0,80,0,1
64149,-90.90909,4,1,0,80,0,0
64207,-90.90909,4,1,0,80,0,0
64668,-125,4,1,0,80,0,0
79380,-95.2381,4,1,0,80,0,0
79438,-95.2381,4,1,0,80,0,0
94149,-90.90909,4,1,0,80,0,0
94207,-90.90909,4,1,0,80,0,1
99687,-100,4,1,0,80,0,1
99745,-100,4,1,0,80,0,1
101533,-90.90909,4,1,0,80,0,1
101592,-90.90909,4,1,0,80,0,1
107072,-100,4,1,0,80,0,1
107130,-100,4,1,0,80,0,1
108515,-100,4,1,0,80,0,0
108918,-95.2381,4,1,0,80,0,0
108976,-95.2381,4,1,0,80,0,0

[HitObjects]
250,143,5592,5,0,0:0:0:0:
216,177,5938,1,0,0:0:0:0:
133,154,6053,1,2,0:0:0:0:
216,177,6284,1,0,0:0:0:0:
216,177,6630,1,0,0:0:0:0:
245,107,6745,1,0,0:0:0:0:
133,154,6976,1,2,0:0:0:0:
216,177,7207,1,0,0:0:0:0:
245,107,7322,1,0,0:0:0:0:
245,107,7438,1,0,0:0:0:0:
194,81,7784,1,0,0:0:0:0:
133,154,7899,1,2,0:0:0:0:
199,168,8130,1,0,0:0:0:0:
199,168,8476,1,0,0:0:0:0:
199,168,8592,1,0,0:0:0:0:
133,154,8822,1,2,0:0:0:0:
199,168,9053,1,0,0:0:0:0:
133,154,9168,1,2,0:0:0:0:
245,107,9284,1,0,0:0:0:0:
194,81,9630,1,0,0:0:0:0:
133,154,9745,1,2,0:0:0:0:
199,168,9976,1,0,0:0:0:0:
199,168,10322,1,0,0:0:0:0:
199,168,10438,1,0,0:0:0:0:
133,154,10668,1,2,0:0:0:0:
199,168,10899,1,0,0:0:0:0:
199,168,11015,1,0,0:0:0:0:
245,107,11130,1,0,0:0:0:0:
194,81,11476,1,0,0:0:0:0:
133,154,11592,1,2,0:0:0:0:
199,168,11822,1,0,0:0:0:0:
199,168,12168,1,0,0:0:0:0:
199,168,12284,1,0,0:0:0:0:
133,154,12515,1,2,0:0:0:0:
216,177,12976,1,0,0:0:0:0:
216,177,13322,1,0,0:0:0:0:
133,154,13438,1,2,0:0:0:0:
216,177,13668,1,0,0:0:0:0:
216,177,14015,1,0,0:0:0:0:
245,107,14130,1,0,0:0:0:0:
133,154,14361,1,2,0:0:0:0:
216,177,14592,1,0,0:0:0:0:
245,107,14707,1,0,0:0:0:0:
245,107,14822,1,0,0:0:0:0:
194,81,15168,1,0,0:0:0:0:
133,154,15284,1,2,0:0:0:0:
199,168,15515,1,0,0:0:0:0:
199,168,15861,1,0,0:0:0:0:
199,168,15976,1,0,0:0:0:0:
133,154,16207,1,2,0:0:0:0:
199,168,16438,1,0,0:0:0:0:
133,154,16553,1,2,0:0:0:0:
245,107,16668,1,0,0:0:0:0:
194,81,17015,1,0,0:0:0:0:
133,154,17130,1,2,0:0:0:0:
199,168,17361,1,0,0:0:0:0:
199,168,17707,1,0,0:0:0:0:
199,168,17822,1,0,0:0:0:0:
133,154,18053,1,2,0:0:0:0:
199,168,18284,1,0,0:0:0:0:
199,168,18399,1,0,0:0:0:0:
245,107,18515,1,0,0:0:0:0:
194,81,18861,1,0,0:0:0:0:
133,154,18976,1,2,0:0:0:0:
199,168,19207,1,0,0:0:0:0:
199,168,19553,1,0,0:0:0:0:
199,168,19668,1,0,0:0:0:0:
133,154,19899,1,2,0:0:0:0:
262,134,20361,1,4,0:0:0:0:
321,166,20476,1,0,0:0:0:0:
321,166,20533,1,0,0:0:0:0:
321,166,20592,1,2,0:0:0:0:
321,166,20707,1,0,0:0:0:0:
321,166,20822,1,2,0:0:0:0:
321,166,20880,1,2,0:0:0:0:
321,166,20938,1,0,0:0:0:0:
321,166,21053,1,2,0:0:0:0:
321,166,21168,1,0,0:0:0:0:
321,166,21226,1,0,0:0:0:0:
321,166,21284,1,2,0:0:0:0:
321,166,21341,1,2,0:0:0:0:
321,166,21399,1,0,0:0:0:0:
321,166,21456,1,2,0:0:0:0:
321,166,21515,1,0,0:0:0:0:
156,51,21630,1,2,0:0:0:0:
156,51,21745,1,0,0:0:0:0:
156,51,21861,1,0,0:0:0:0:
156,51,21918,1,0,0:0:0:0:
156,51,21976,1,2,0:0:0:0:
156,51,22092,1,2,0:0:0:0:
186,77,22207,1,0,0:0:0:0:
186,77,22322,1,0,0:0:0:0:
186,77,22380,1,0,0:0:0:0:
186,77,22438,1,2,0:0:0:0:
186,77,22553,1,0,0:0:0:0:
186,77,22668,1,2,0:0:0:0:
186,77,22726,1,2,0:0:0:0:
186,77,22784,1,0,0:0:0:0:
186,77,22899,1,2,0:0:0:0:
186,77,23015,1,0,0:0:0:0:
179,178,23072,1,0,0:0:0:0:
186,77,23130,1,2,0:0:0:0:
186,77,23187,1,0,0:0:0:0:
186,77,23245,1,2,0:0:0:0:
186,77,23303,1,2,0:0:0:0:
186,77,23361,1,0,0:0:0:0:
186,77,23476,1,2,0:0:0:0:
186,77,23533,1,2,0:0:0:0:
186,77,23592,1,0,0:0:0:0:
186,77,23707,1,2,0:0:0:0:
186,77,23822,1,0,0:0:0:0:
186,77,23880,1,2,0:0:0:0:
186,77,23938,1,2,0:0:0:0:
156,132,23995,1,2,0:0:0:0:
262,134,24053,1,0,0:0:0:0:
321,166,24168,1,0,0:0:0:0:
321,166,24226,1,0,0:0:0:0:
321,166,24284,1,2,0:0:0:0:
321,166,24399,1,0,0:0:0:0:
321,166,24515,1,2,0:0:0:0:
321,166,24572,1,2,0:0:0:0:
321,166,24630,1,0,0:0:0:0:
412,73,24687,1,0,0:0:0:0:
321,166,24745,1,2,0:0:0:0:
321,166,24861,1,0,0:0:0:0:
321,166,24918,1,0,0:0:0:0:
321,166,24976,1,2,0:0:0:0:
321,166,25033,1,2,0:0:0:0:
321,166,25092,1,0,0:0:0:0:
321,166,25149,1,2,0:0:0:0:
321,166,25207,1,0,0:0:0:0:
156,51,25322,1,2,0:0:0:0:
156,51,25438,1,0,0:0:0:0:
156,51,25553,1,0,0:0:0:0:
156,51,25610,1,0,0:0:0:0:
156,51,25668,1,2,0:0:0:0:
156,51,25784,1,2,0:0:0:0:
186,77,25899,1,0,0:0:0:0:
186,77,26015,1,0,0:0:0:0:
186,77,26072,1,0,0:0:0:0:
186,77,26130,1,2,0:0:0:0:
186,77,26245,1,0,0:0:0:0:
186,77,26361,1,2,0:0:0:0:
186,77,26418,1,2,0:0:0:0:
186,77,26476,1,0,0:0:0:0:
227,117,26533,1,0,0:0:0:0:
186,77,26592,1,2,0:0:0:0:
186,77,26707,1,0,0:0:0:0:
179,178,26764,1,0,0:0:0:0:
186,77,26822,1,2,0:0:0:0:
186,77,26880,1,0,0:0:0:0:
186,77,26938,1,2,0:0:0:0:
186,77,26995,1,2,0:0:0:0:
186,77,27053,1,0,0:0:0:0:
186,77,27168,1,2,0:0:0:0:
186,77,27226,1,2,0:0:0:0:
186,77,27284,1,0,0:0:0:0:
186,77,27399,1,2,0:0:0:0:
310,175,27515,1,0,0:0:0:0:
310,175,27552,1,0,0:0:0:0:
310,175,27591,1,0,0:0:0:0:
310,175,27630,1,2,0:0:0:0:
262,134,27745,1,4,0:0:0:0:
321,166,27861,1,0,0:0:0:0:
321,166,27918,1,0,0:0:0:0:
321,166,27976,1,2,0:0:0:0:
321,166,28092,1,0,0:0:0:0:
321,166,28207,1,2,0:0:0:0:
321,166,28264,1,2,0:0:0:0:
321,166,28322,1,0,0:0:0:0:
321,166,28438,1,2,0:0:0:0:
321,166,28553,1,0,0:0:0:0:
321,166,28610,1,0,0:0:0:0:
321,166,28668,1,2,0:0:0:0:
321,166,28726,1,2,0:0:0:0:
321,166,28784,1,0,0:0:0:0:
321,166,28841,1,2,0:0:0:0:
321,166,28899,1,0,0:0:0:0:
156,51,29015,1,2,0:0:0:0:
156,51,29130,1,0,0:0:0:0:
156,51,29245,1,0,0:0:0:0:
156,51,29303,1,0,0:0:0:0:
156,51,29361,1,2,0:0:0:0:
156,51,29476,1,2,0:0:0:0:
186,77,29592,1,0,0:0:0:0:
186,77,29707,1,0,0:0:0:0:
186,77,29764,1,0,0:0:0:0:
186,77,29822,1,2,0:0:0:0:
186,77,29938,1,0,0:0:0:0:
186,77,30053,1,2,0:0:0:0:
186,77,30110,1,2,0:0:0:0:
186,77,30168,1,0,0:0:0:0:
186,77,30284,1,2,0:0:0:0:
186,77,30399,1,0,0:0:0:0:
179,178,30456,1,0,0:0:0:0:
186,77,30515,1,2,0:0:0:0:
186,77,30572,1,0,0:0:0:0:
186,77,30630,1,2,0:0:0:0:
186,77,30687,1,2,0:0:0:0:
186,77,30745,1,0,0:0:0:0:
186,77,30861,1,2,0:0:0:0:
186,77,30918,1,2,0:0:0:0:
186,77,30976,1,0,0:0:0:0:
186,77,31092,1,2,0:0:0:0:
186,77,31207,1,0,0:0:0:0:
186,77,31264,1,2,0:0:0:0:
186,77,31322,1,0,0:0:0:0:
156,132,31380,1,2,0:0:0:0:
262,134,31438,1,0,0:0:0:0:
321,166,31553,1,0,0:0:0:0:
321,166,31610,1,0,0:0:0:0:
321,166,31668,1,2,0:0:0:0:
321,166,31784,1,0,0:0:0:0:
321,166,31899,1,2,0:0:0:0:
321,166,31956,1,2,0:0:0:0:
321,166,32015,1,0,0:0:0:0:
412,73,32072,1,0,0:0:0:0:
321,166,32130,1,2,0:0:0:0:
321,166,32245,1,0,0:0:0:0:
321,166,32303,1,0,0:0:0:0:
321,166,32361,1,2,0:0:0:0:
321,166,32418,1,2,0:0:0:0:
321,166,32476,1,0,0:0:0:0:
321,166,32533,1,2,0:0:0:0:
321,166,32592,1,0,0:0:0:0:
156,51,32707,1,2,0:0:0:0:
156,51,32822,1,0,0:0:0:0:
156,51,32938,1,0,0:0:0:0:
156,51,32995,1,0,0:0:0:0:
156,51,33053,1,2,0:0:0:0:
156,51,33168,1,2,0:0:0:0:
186,77,33284,1,4,0:0:0:0:
232,201,35130,1,6,0:0:0:0:
232,201,35303,1,0,0:0:0:0:
232,201,35361,1,2,0:0:0:0:
232,201,35476,1,0,0:0:0:0:
232,201,35592,1,2,0:0:0:0:
232,201,35649,1,0,0:0:0:0:
232,201,35707,1,0,0:0:0:0:
232,201,35822,1,2,0:0:0:0:
232,201,35938,1,0,0:0:0:0:
232,201,35995,1,0,0:0:0:0:
232,201,36053,1,2,0:0:0:0:
232,201,36168,1,0,0:0:0:0:
232,201,36226,1,2,0:0:0:0:
232,201,36284,1,2,0:0:0:0:
232,201,36399,1,0,0:0:0:0:
232,201,36515,1,2,0:0:0:0:
232,201,36572,1,2,0:0:0:0:
232,201,36630,1,0,0:0:0:0:
232,201,36745,1,2,0:0:0:0:
232,201,36861,1,0,0:0:0:0:
232,201,36918,1,0,0:0:0:0:
232,201,36976,1,2,0:0:0:0:
232,201,37033,1,0,0:0:0:0:
232,201,37149,1,0,0:0:0:0:
232,201,37207,1,2,0:0:0:0:
232,201,37322,1,0,0:0:0:0:
232,201,37438,1,2,0:0:0:0:
232,201,37495,1,2,0:0:0:0:
232,201,37610,1,0,0:0:0:0:
232,201,37668,1,2,0:0:0:0:
232,201,37784,1,2,0:0:0:0:
232,201,37841,1,2,0:0:0:0:
232,201,37899,1,0,0:0:0:0:
232,201,38015,1,0,0:0:0:0:
232,201,38072,1,0,0:0:0:0:
232,201,38130,1,2,0:0:0:0:
232,201,38245,1,2,0:0:0:0:
232,201,38361,1,0,0:0:0:0:
232,201,38418,1,2,0:0:0:0:
232,201,38476,1,2,0:0:0:0:
232,201,38533,1,2,0:0:0:0:
232,201,38592,1,0,0:0:0:0:
232,201,38649,1,2,0:0:0:0:
232,201,38707,1,0,0:0:0:0:
232,201,38822,1,6,0:0:0:0:
232,201,38995,1,0,0:0:0:0:
232,201,39053,1,2,0:0:0:0:
232,201,39168,1,0,0:0:0:0:
202,13,39226,1,0,0:0:0:0:
232,201,39284,1,2,0:0:0:0:
203,61,39341,1,0,0:0:0:0:
232,201,39399,1,0,0:0:0:0:
203,61,39456,1,0,0:0:0:0:
232,201,39515,1,2,0:0:0:0:
232,201,39630,1,2,0:0:0:0:
232,201,39687,1,2,0:0:0:0:
232,201,39745,1,0,0:0:0:0:
232,201,39803,1,2,0:0:0:0:
232,201,39861,1,0,0:0:0:0:
232,201,39918,1,0,0:0:0:0:
232,201,39976,1,2,0:0:0:0:
232,201,40092,1,0,0:0:0:0:
232,201,40207,1,2,0:0:0:0:
232,201,40264,1,2,0:0:0:0:
232,201,40322,1,0,0:0:0:0:
129,117,40380,1,0,0:0:0:0:
232,201,40438,1,2,0:0:0:0:
232,201,40495,1,2,0:0:0:0:
232,201,40553,1,0,0:0:0:0:
232,201,40668,1,0,0:0:0:0:
232,201,40784,1,2,0:0:0:0:
232,201,40841,1,2,0:0:0:0:
232,201,40899,1,0,0:0:0:0:
232,201,41015,1,2,0:0:0:0:
232,201,41130,1,0,0:0:0:0:
215,109,41187,1,0,0:0:0:0:
196,52,41245,1,2,0:0:0:0:
196,52,41303,1,0,0:0:0:0:
196,52,41361,1,2,0:0:0:0:
232,201,41476,1,2,0:0:0:0:
232,201,41592,1,4,0:0:0:0:
232,201,41764,1,0,0:0:0:0:
232,201,41822,1,2,0:0:0:0:
232,201,41938,1,2,0:0:0:0:
221,151,42053,1,4,0:0:0:0:
221,151,42284,1,0,0:0:0:0:
221,151,42399,1,0,0:0:0:0:
232,201,42515,1,6,0:0:0:0:
232,201,42687,1,0,0:0:0:0:
232,201,42745,1,2,0:0:0:0:
232,201,42861,1,0,0:0:0:0:
232,201,42976,1,2,0:0:0:0:
232,201,43033,1,0,0:0:0:0:
232,201,43092,1,0,0:0:0:0:
232,201,43207,1,2,0:0:0:0:
232,201,43322,1,0,0:0:0:0:
232,201,43380,1,0,0:0:0:0:
232,201,43438,1,2,0:0:0:0:
232,201,43553,1,0,0:0:0:0:
232,201,43610,1,2,0:0:0:0:
232,201,43668,1,2,0:0:0:0:
232,201,43784,1,0,0:0:0:0:
232,201,43899,1,2,0:0:0:0:
232,201,43956,1,2,0:0:0:0:
232,201,44015,1,0,0:0:0:0:
232,201,44130,1,2,0:0:0:0:
232,201,44245,1,0,0:0:0:0:
232,201,44303,1,0,0:0:0:0:
232,201,44361,1,2,0:0:0:0:
232,201,44418,1,0,0:0:0:0:
232,201,44533,1,0,0:0:0:0:
232,201,44592,1,2,0:0:0:0:
232,201,44707,1,0,0:0:0:0:
232,201,44822,1,2,0:0:0:0:
232,201,44880,1,2,0:0:0:0:
232,201,44995,1,0,0:0:0:0:
232,201,45053,1,2,0:0:0:0:
232,201,45168,1,2,0:0:0:0:
232,201,45226,1,2,0:0:0:0:
232,201,45284,1,0,0:0:0:0:
232,201,45399,1,0,0:0:0:0:
232,201,45456,1,0,0:0:0:0:
232,201,45515,1,2,0:0:0:0:
232,201,45630,1,2,0:0:0:0:
232,201,45745,1,0,0:0:0:0:
232,201,45803,1,2,0:0:0:0:
232,201,45861,1,2,0:0:0:0:
232,201,45918,1,2,0:0:0:0:
232,201,45976,1,0,0:0:0:0:
232,201,46033,1,2,0:0:0:0:
232,201,46092,1,0,0:0:0:0:
232,201,46207,1,6,0:0:0:0:
232,201,46380,1,0,0:0:0:0:
232,201,46438,1,2,0:0:0:0:
232,201,46553,1,0,0:0:0:0:
202,13,46610,1,0,0:0:0:0:
232,201,46668,1,2,0:0:0:0:
203,61,46726,1,0,0:0:0:0:
232,201,46784,1,0,0:0:0:0:
203,61,46841,1,0,0:0:0:0:
232,201,46899,1,2,0:0:0:0:
232,201,47015,1,2,0:0:0:0:
232,201,47072,1,2,0:0:0:0:
232,201,47130,1,0,0:0:0:0:
232,201,47187,1,2,0:0:0:0:
232,201,47245,1,0,0:0:0:0:
232,201,47303,1,0,0:0:0:0:
232,201,47361,1,2,0:0:0:0:
232,201,47476,1,0,0:0:0:0:
232,201,47592,1,2,0:0:0:0:
232,201,47649,1,2,0:0:0:0:
232,201,47707,1,0,0:0:0:0:
129,117,47764,1,0,0:0:0:0:
232,201,47822,1,2,0:0:0:0:
232,201,47880,1,2,0:0:0:0:
232,201,47938,1,0,0:0:0:0:
245,115,48053,1,0,0:0:0:0:
245,115,48515,1,0,0:0:0:0:
245,115,48976,1,0,0:0:0:0:
256,192,49438,12,0,49784,0:0:0:0:
296,213,49899,5,2,0:0:0:0:
296,213,49956,1,0,0:0:0:0:
296,213,50015,1,2,0:0:0:0:
296,213,50072,1,0,0:0:0:0:
296,213,50130,1,2,0:0:0:0:
296,213,50187,1,2,0:0:0:0:
296,213,50245,1,0,0:0:0:0:
296,213,50303,1,0,0:0:0:0:
296,213,50361,1,2,0:0:0:0:
296,213,50476,1,0,0:0:0:0:
258,178,50533,1,0,0:0:0:0:
296,213,50592,1,0,0:0:0:0:
296,213,50707,1,0,0:0:0:0:
302,193,50822,1,2,0:0:0:0:
302,193,50938,1,0,0:0:0:0:
302,193,50995,1,0,0:0:0:0:
302,193,51053,1,0,0:0:0:0:
302,193,51168,1,0,0:0:0:0:
302,193,51284,1,2,0:0:0:0:
302,193,51399,1,0,0:0:0:0:
302,193,51456,1,0,0:0:0:0:
302,193,51515,1,0,0:0:0:0:
302,193,51630,1,0,0:0:0:0:
302,193,51745,1,2,0:0:0:0:
302,193,51861,1,0,0:0:0:0:
302,193,51918,1,0,0:0:0:0:
302,193,51976,1,0,0:0:0:0:
302,193,52092,1,0,0:0:0:0:
302,193,52207,1,2,0:0:0:0:
302,193,52322,1,0,0:0:0:0:
302,193,52380,1,0,0:0:0:0:
302,193,52438,1,2,0:0:0:0:
302,193,52553,1,2,0:0:0:0:
255,178,52668,1,0,0:0:0:0:
255,178,52784,1,2,0:0:0:0:
255,178,52841,1,2,0:0:0:0:
255,178,52899,1,0,0:0:0:0:
255,178,53015,1,0,0:0:0:0:
255,178,53072,1,0,0:0:0:0:
255,178,53130,1,2,0:0:0:0:
255,178,53245,1,2,0:0:0:0:
264,179,53361,1,0,0:0:0:0:
264,179,53476,1,0,0:0:0:0:
296,213,53592,5,2,0:0:0:0:
296,213,53649,1,2,0:0:0:0:
296,213,53707,1,2,0:0:0:0:
296,213,53764,1,0,0:0:0:0:
296,213,53822,1,2,0:0:0:0:
296,213,53880,1,2,0:0:0:0:
296,213,53938,1,0,0:0:0:0:
296,213,53995,1,0,0:0:0:0:
296,213,54053,1,2,0:0:0:0:
296,213,54168,1,0,0:0:0:0:
258,178,54226,1,0,0:0:0:0:
296,213,54284,1,0,0:0:0:0:
296,213,54399,1,0,0:0:0:0:
302,193,54515,1,2,0:0:0:0:
302,193,54630,1,0,0:0:0:0:
302,193,54687,1,0,0:0:0:0:
302,193,54745,1,0,0:0:0:0:
302,193,54861,1,0,0:0:0:0:
302,193,54976,1,2,0:0:0:0:
302,193,55092,1,0,0:0:0:0:
302,193,55149,1,0,0:0:0:0:
302,193,55207,1,2,0:0:0:0:
302,193,55322,1,2,0:0:0:0:
196,150,55438,1,4,0:0:0:0:
196,150,55610,1,2,0:0:0:0:
196,150,55668,1,0,0:0:0:0:
196,150,55784,1,2,0:0:0:0:
196,150,55841,1,2,0:0:0:0:
196,150,55899,1,0,0:0:0:0:
174,87,56015,1,0,0:0:0:0:
186,108,56130,1,2,0:0:0:0:
174,87,56245,1,0,0:0:0:0:
174,87,56303,1,2,0:0:0:0:
176,96,56361,1,0,0:0:0:0:
176,96,56418,1,0,0:0:0:0:
176,96,56533,1,2,0:0:0:0:
176,96,56592,1,0,0:0:0:0:
176,96,56707,1,2,0:0:0:0:
176,96,56822,1,0,0:0:0:0:
176,96,56880,1,0,0:0:0:0:
176,96,56938,1,0,0:0:0:0:
176,96,57053,1,2,0:0:0:0:
296,213,57284,5,2,0:0:0:0:
296,213,57341,1,0,0:0:0:0:
296,213,57399,1,2,0:0:0:0:
296,213,57456,1,0,0:0:0:0:
296,213,57515,1,2,0:0:0:0:
296,213,57572,1,2,0:0:0:0:
296,213,57630,1,0,0:0:0:0:
296,213,57687,1,0,0:0:0:0:
296,213,57745,1,2,0:0:0:0:
296,213,57861,1,0,0:0:0:0:
258,178,57918,1,0,0:0:0:0:
296,213,57976,1,0,0:0:0:0:
296,213,58092,1,0,0:0:0:0:
302,193,58207,1,2,0:0:0:0:
302,193,58322,1,0,0:0:0:0:
302,193,58380,1,0,0:0:0:0:
302,193,58438,1,0,0:0:0:0:
302,193,58553,1,0,0:0:0:0:
302,193,58668,1,2,0:0:0:0:
302,193,58784,1,0,0:0:0:0:
302,193,58841,1,0,0:0:0:0:
302,193,58899,1,0,0:0:0:0:
302,193,59015,1,0,0:0:0:0:
302,193,59130,1,2,0:0:0:0:
302,193,59245,1,0,0:0:0:0:
302,193,59303,1,0,0:0:0:0:
302,193,59361,1,0,0:0:0:0:
302,193,59476,1,0,0:0:0:0:
302,193,59592,1,2,0:0:0:0:
302,193,59707,1,0,0:0:0:0:
302,193,59764,1,0,0:0:0:0:
302,193,59822,1,2,0:0:0:0:
302,193,59938,1,2,0:0:0:0:
255,178,60053,1,0,0:0:0:0:
255,178,60168,1,2,0:0:0:0:
255,178,60226,1,2,0:0:0:0:
255,178,60284,1,0,0:0:0:0:
255,178,60399,1,0,0:0:0:0:
255,178,60456,1,0,0:0:0:0:
255,178,60515,1,2,0:0:0:0:
255,178,60630,1,2,0:0:0:0:
264,179,60745,1,0,0:0:0:0:
264,179,60861,1,0,0:0:0:0:
296,213,60976,5,2,0:0:0:0:
296,213,61033,1,2,0:0:0:0:
296,213,61092,1,2,0:0:0:0:
296,213,61149,1,0,0:0:0:0:
296,213,61207,1,2,0:0:0:0:
296,213,61264,1,2,0:0:0:0:
296,213,61322,1,0,0:0:0:0:
296,213,61380,1,0,0:0:0:0:
296,213,61438,1,2,0:0:0:0:
296,213,61553,1,0,0:0:0:0:
258,178,61610,1,0,0:0:0:0:
296,213,61668,1,0,0:0:0:0:
296,213,61784,1,0,0:0:0:0:
302,193,61899,1,2,0:0:0:0:
302,193,62015,1,0,0:0:0:0:
302,193,62072,1,0,0:0:0:0:
302,193,62130,1,0,0:0:0:0:
302,193,62245,1,0,0:0:0:0:
302,193,62361,1,2,0:0:0:0:
302,193,62476,1,0,0:0:0:0:
302,193,62533,1,0,0:0:0:0:
302,193,62592,1,2,0:0:0:0:
302,193,62707,1,2,0:0:0:0:
196,150,62822,1,4,0:0:0:0:
196,150,62995,1,2,0:0:0:0:
196,150,63053,1,0,0:0:0:0:
196,150,63168,1,2,0:0:0:0:
196,150,63226,1,2,0:0:0:0:
196,150,63284,1,0,0:0:0:0:
174,87,63399,1,0,0:0:0:0:
186,108,63515,1,0,0:0:0:0:
174,87,63630,1,0,0:0:0:0:
174,87,63687,1,2,0:0:0:0:
176,96,63745,1,0,0:0:0:0:
256,192,64207,12,0,64438,0:0:0:0:
241,181,64668,5,0,0:0:0:0:
241,181,65015,1,0,0:0:0:0:
241,181,65361,1,0,0:0:0:0:
203,214,65707,1,0,0:0:0:0:
203,214,65822,1,0,0:0:0:0:
203,214,66053,1,2,0:0:0:0:
203,214,66284,1,0,0:0:0:0:
203,214,66399,1,2,0:0:0:0:
241,181,66515,5,0,0:0:0:0:
241,181,66861,1,0,0:0:0:0:
241,181,67207,1,0,0:0:0:0:
203,214,67553,1,0,0:0:0:0:
203,214,67668,1,0,0:0:0:0:
203,214,67899,1,2,0:0:0:0:
203,214,68130,1,0,0:0:0:0:
203,214,68245,1,0,0:0:0:0:
241,181,68361,5,0,0:0:0:0:
241,181,68707,1,0,0:0:0:0:
241,181,69053,1,0,0:0:0:0:
203,214,69399,1,0,0:0:0:0:
203,214,69515,1,0,0:0:0:0:
203,214,69745,1,2,0:0:0:0:
203,214,69976,1,0,0:0:0:0:
203,214,70092,1,2,0:0:0:0:
241,181,70207,5,0,0:0:0:0:
181,157,70322,1,2,0:0:0:0:
270,148,70380,1,2,0:0:0:0:
270,148,70438,1,2,0:0:0:0:
241,181,70553,1,2,0:0:0:0:
270,148,70668,1,0,0:0:0:0:
270,148,70726,1,0,0:0:0:0:
270,148,70784,1,2,0:0:0:0:
270,148,70841,1,2,0:0:0:0:
241,181,70899,1,0,0:0:0:0:
275,149,71130,1,0,0:0:0:0:
275,149,71187,1,0,0:0:0:0:
203,214,71245,1,2,0:0:0:0:
275,149,71303,1,0,0:0:0:0:
203,214,71361,1,2,0:0:0:0:
275,149,71476,1,2,0:0:0:0:
203,214,71592,1,0,0:0:0:0:
266,153,71649,1,0,0:0:0:0:
266,153,71707,1,2,0:0:0:0:
203,214,71822,1,0,0:0:0:0:
110,140,71860,1,0,0:0:0:0:
183,145,71899,1,0,0:0:0:0:
203,214,71938,1,2,0:0:0:0:
241,181,72053,5,0,0:0:0:0:
241,181,72399,1,0,0:0:0:0:
241,181,72745,1,0,0:0:0:0:
203,214,73092,1,0,0:0:0:0:
203,214,73207,1,0,0:0:0:0:
203,214,73438,1,2,0:0:0:0:
203,214,73668,1,0,0:0:0:0:
203,214,73784,1,2,0:0:0:0:
241,181,73899,5,0,0:0:0:0:
241,181,74245,1,0,0:0:0:0:
241,181,74592,1,0,0:0:0:0:
203,214,74938,1,0,0:0:0:0:
203,214,75053,1,0,0:0:0:0:
203,214,75284,1,2,0:0:0:0:
203,214,75515,1,0,0:0:0:0:
203,214,75630,1,0,0:0:0:0:
241,181,75745,5,0,0:0:0:0:
241,181,76092,1,0,0:0:0:0:
241,181,76438,1,0,0:0:0:0:
203,214,76784,1,0,0:0:0:0:
203,214,76899,1,0,0:0:0:0:
203,214,77130,1,2,0:0:0:0:
203,214,77361,1,0,0:0:0:0:
203,214,77476,1,2,0:0:0:0:
182,117,77592,1,0,0:0:0:0:
236,180,79438,1,4,0:0:0:0:
321,153,79553,1,2,0:0:0:0:
321,153,79610,1,2,0:0:0:0:
321,153,79668,1,2,0:0:0:0:
328,145,79784,1,0,0:0:0:0:
321,153,79899,1,2,0:0:0:0:
321,153,79956,1,2,0:0:0:0:
321,153,80015,1,2,0:0:0:0:
328,145,80130,1,0,0:0:0:0:
326,153,80245,1,2,0:0:0:0:
326,153,80303,1,2,0:0:0:0:
326,153,80361,1,0,0:0:0:0:
222,106,80399,1,0,0:0:0:0:
222,106,80437,1,0,0:0:0:0:
328,145,80476,1,2,0:0:0:0:
230,102,80533,1,0,0:0:0:0:
281,133,80592,1,2,0:0:0:0:
326,153,80707,1,0,0:0:0:0:
326,153,80764,1,0,0:0:0:0:
281,133,80822,1,2,0:0:0:0:
326,153,80938,1,2,0:0:0:0:
281,133,81053,1,0,0:0:0:0:
230,102,81110,1,2,0:0:0:0:
281,133,81168,1,2,0:0:0:0:
230,102,81226,1,2,0:0:0:0:
281,133,81284,1,0,0:0:0:0:
230,102,81341,1,0,0:0:0:0:
230,102,81456,1,2,0:0:0:0:
230,102,81515,1,0,0:0:0:0:
281,133,81630,1,2,0:0:0:0:
237,106,81745,1,0,0:0:0:0:
237,106,81803,1,0,0:0:0:0:
237,106,81861,1,2,0:0:0:0:
281,133,81976,1,0,0:0:0:0:
237,106,82092,1,2,0:0:0:0:
237,106,82149,1,2,0:0:0:0:
237,106,82207,1,0,0:0:0:0:
193,109,82245,1,2,0:0:0:0:
188,107,82284,5,2,0:0:0:0:
281,133,82322,1,0,0:0:0:0:
276,127,82438,1,2,0:0:0:0:
237,106,82553,1,0,0:0:0:0:
271,121,82668,1,2,0:0:0:0:
237,106,82726,1,2,0:0:0:0:
237,106,82784,1,0,0:0:0:0:
270,119,82899,1,2,0:0:0:0:
237,106,82956,1,2,0:0:0:0:
263,109,83015,1,2,0:0:0:0:
311,155,83072,1,2,0:0:0:0:
236,180,83130,1,0,0:0:0:0:
321,153,83245,1,2,0:0:0:0:
321,153,83303,1,2,0:0:0:0:
321,153,83361,1,2,0:0:0:0:
328,145,83476,1,0,0:0:0:0:
321,153,83592,1,2,0:0:0:0:
321,153,83649,1,2,0:0:0:0:
321,153,83707,1,0,0:0:0:0:
328,145,83822,1,2,0:0:0:0:
326,153,83938,1,0,0:0:0:0:
326,153,83995,1,2,0:0:0:0:
326,153,84053,1,0,0:0:0:0:
222,106,84091,1,0,0:0:0:0:
222,106,84130,1,0,0:0:0:0:
328,145,84168,1,2,0:0:0:0:
230,102,84226,1,2,0:0:0:0:
281,133,84284,1,0,0:0:0:0:
326,153,84399,1,2,0:0:0:0:
326,153,84456,1,2,0:0:0:0:
281,133,84515,1,0,0:0:0:0:
326,153,84630,1,2,0:0:0:0:
281,133,84745,1,0,0:0:0:0:
230,102,84803,1,0,0:0:0:0:
281,133,84861,1,2,0:0:0:0:
230,102,84918,1,2,0:0:0:0:
281,133,84976,1,0,0:0:0:0:
230,102,85033,1,2,0:0:0:0:
230,102,85149,1,2,0:0:0:0:
230,102,85207,1,0,0:0:0:0:
281,133,85322,1,2,0:0:0:0:
237,106,85438,1,0,0:0:0:0:
237,106,85495,1,2,0:0:0:0:
237,106,85553,1,2,0:0:0:0:
281,133,85668,1,0,0:0:0:0:
237,106,85784,1,2,0:0:0:0:
237,106,85841,1,2,0:0:0:0:
237,106,85899,1,0,0:0:0:0:
193,109,85937,1,2,0:0:0:0:
188,107,85976,5,2,0:0:0:0:
281,133,86015,1,0,0:0:0:0:
276,127,86130,1,2,0:0:0:0:
237,106,86245,1,0,0:0:0:0:
271,121,86361,1,2,0:0:0:0:
237,106,86418,1,2,0:0:0:0:
237,106,86476,1,0,0:0:0:0:
91,119,86533,1,0,0:0:0:0:
270,119,86592,1,2,0:0:0:0:
346,143,86629,1,0,0:0:0:0:
346,143,86668,1,0,0:0:0:0:
263,109,86707,1,2,0:0:0:0:
236,180,86822,1,4,0:0:0:0:
321,153,86938,1,2,0:0:0:0:
321,153,86995,1,2,0:0:0:0:
321,153,87053,1,2,0:0:0:0:
328,145,87168,1,0,0:0:0:0:
321,153,87284,1,2,0:0:0:0:
321,153,87341,1,2,0:0:0:0:
321,153,87399,1,2,0:0:0:0:
328,145,87515,1,0,0:0:0:0:
326,153,87630,1,2,0:0:0:0:
326,153,87687,1,2,0:0:0:0:
326,153,87745,1,0,0:0:0:0:
222,106,87783,1,0,0:0:0:0:
222,106,87822,1,0,0:0:0:0:
328,145,87861,1,2,0:0:0:0:
230,102,87918,1,0,0:0:0:0:
281,133,87976,1,2,0:0:0:0:
326,153,88092,1,0,0:0:0:0:
326,153,88149,1,0,0:0:0:0:
281,133,88207,1,2,0:0:0:0:
326,153,88322,1,2,0:0:0:0:
281,133,88438,1,0,0:0:0:0:
230,102,88495,1,2,0:0:0:0:
281,133,88553,1,2,0:0:0:0:
230,102,88610,1,2,0:0:0:0:
281,133,88668,1,0,0:0:0:0:
230,102,88726,1,0,0:0:0:0:
230,102,88841,1,2,0:0:0:0:
230,102,88899,1,0,0:0:0:0:
281,133,89015,1,2,0:0:0:0:
237,106,89130,1,0,0:0:0:0:
237,106,89187,1,0,0:0:0:0:
237,106,89245,1,2,0:0:0:0:
281,133,89361,1,0,0:0:0:0:
237,106,89476,1,2,0:0:0:0:
237,106,89533,1,2,0:0:0:0:
237,106,89592,1,0,0:0:0:0:
193,109,89629,1,2,0:0:0:0:
188,107,89668,5,2,0:0:0:0:
281,133,89707,1,0,0:0:0:0:
276,127,89822,1,2,0:0:0:0:
237,106,89938,1,0,0:0:0:0:
271,121,90053,1,2,0:0:0:0:
237,106,90110,1,2,0:0:0:0:
237,106,90168,1,0,0:0:0:0:
270,119,90284,1,2,0:0:0:0:
237,106,90341,1,2,0:0:0:0:
263,109,90399,1,2,0:0:0:0:
311,155,90456,1,2,0:0:0:0:
236,180,90515,1,0,0:0:0:0:
321,153,90630,1,2,0:0:0:0:
321,153,90687,1,2,0:0:0:0:
321,153,90745,1,2,0:0:0:0:
328,145,90861,1,0,0:0:0:0:
321,153,90976,1,2,0:0:0:0:
321,153,91033,1,2,0:0:0:0:
321,153,91092,1,0,0:0:0:0:
328,145,91207,1,2,0:0:0:0:
326,153,91322,1,0,0:0:0:0:
326,153,91380,1,2,0:0:0:0:
326,153,91438,1,0,0:0:0:0:
222,106,91476,1,0,0:0:0:0:
222,106,91514,1,0,0:0:0:0:
328,145,91553,1,2,0:0:0:0:
230,102,91610,1,2,0:0:0:0:
281,133,91668,1,0,0:0:0:0:
326,153,91784,1,2,0:0:0:0:
326,153,91841,1,2,0:0:0:0:
281,133,91899,1,0,0:0:0:0:
326,153,92015,1,2,0:0:0:0:
281,133,92130,1,0,0:0:0:0:
230,102,92187,1,2,0:0:0:0:
281,133,92245,1,0,0:0:0:0:
230,102,92303,1,2,0:0:0:0:
281,133,92361,1,0,0:0:0:0:
256,192,93284,12,0,94092,0:0:0:0:
277,147,94207,5,2,0:0:0:0:
277,147,94264,1,2,0:0:0:0:
277,147,94322,1,0,0:0:0:0:
277,147,94380,1,0,0:0:0:0:
277,147,94438,1,2,0:0:0:0:
277,147,94495,1,0,0:0:0:0:
277,147,94553,1,0,0:0:0:0:
277,147,94610,1,0,0:0:0:0:
277,147,94668,1,2,0:0:0:0:
277,147,94726,1,2,0:0:0:0:
277,147,94784,1,2,0:0:0:0:
277,147,94841,1,0,0:0:0:0:
277,147,94899,1,2,0:0:0:0:
277,147,94956,1,2,0:0:0:0:
277,147,95015,1,0,0:0:0:0:
277,147,95072,1,0,0:0:0:0:
277,147,95130,5,2,0:0:0:0:
277,147,95187,1,2,0:0:0:0:
277,147,95245,1,0,0:0:0:0:
277,147,95303,1,0,0:0:0:0:
277,147,95361,1,2,0:0:0:0:
277,147,95418,1,0,0:0:0:0:
277,147,95476,1,2,0:0:0:0:
277,147,95533,1,2,0:0:0:0:
277,147,95592,1,0,0:0:0:0:
277,147,95649,1,0,0:0:0:0:
277,147,95707,1,2,0:0:0:0:
277,147,95764,1,0,0:0:0:0:
277,147,95822,1,2,0:0:0:0:
277,147,95880,1,2,0:0:0:0:
277,147,95938,1,0,0:0:0:0:
277,147,95995,1,0,0:0:0:0:
277,147,96053,5,2,0:0:0:0:
277,147,96110,1,2,0:0:0:0:
277,147,96168,1,0,0:0:0:0:
277,147,96226,1,0,0:0:0:0:
277,147,96284,1,2,0:0:0:0:
277,147,96341,1,0,0:0:0:0:
277,147,96399,1,0,0:0:0:0:
277,147,96456,1,0,0:0:0:0:
277,147,96515,1,2,0:0:0:0:
277,147,96572,1,2,0:0:0:0:
277,147,96630,1,2,0:0:0:0:
277,147,96687,1,0,0:0:0:0:
277,147,96745,1,2,0:0:0:0:
277,147,96803,1,2,0:0:0:0:
277,147,96861,1,0,0:0:0:0:
277,147,96918,1,0,0:0:0:0:
301,169,96976,1,2,0:0:0:0:
301,169,97092,1,0,0:0:0:0:
301,169,97149,1,0,0:0:0:0:
301,169,97207,1,2,0:0:0:0:
301,169,97322,1,2,0:0:0:0:
301,169,97380,1,0,0:0:0:0:
301,169,97438,1,2,0:0:0:0:
301,169,97553,1,2,0:0:0:0:
301,169,97668,1,0,0:0:0:0:
330,163,97784,1,0,0:0:0:0:
277,147,97899,5,2,0:0:0:0:
277,147,97956,1,2,0:0:0:0:
277,147,98015,1,0,0:0:0:0:
277,147,98072,1,0,0:0:0:0:
277,147,98130,1,2,0:0:0:0:
277,147,98187,1,0,0:0:0:0:
277,147,98245,1,0,0:0:0:0:
277,147,98303,1,0,0:0:0:0:
277,147,98361,1,2,0:0:0:0:
277,147,98476,1,0,0:0:0:0:
266,154,98533,1,0,0:0:0:0:
277,147,98592,1,0,0:0:0:0:
277,147,98707,1,0,0:0:0:0:
266,154,98822,1,2,0:0:0:0:
266,154,98938,1,0,0:0:0:0:
266,154,98995,1,0,0:0:0:0:
266,154,99053,1,0,0:0:0:0:
265,154,99168,1,0,0:0:0:0:
265,154,99284,1,2,0:0:0:0:
265,154,99399,1,0,0:0:0:0:
266,154,99456,1,0,0:0:0:0:
265,154,99515,1,2,0:0:0:0:
265,154,99630,1,2,0:0:0:0:
233,154,99745,1,0,0:0:0:0:
233,154,99918,1,2,0:0:0:0:
233,154,99976,1,0,0:0:0:0:
233,154,100092,1,2,0:0:0:0:
233,154,100149,1,2,0:0:0:0:
233,154,100207,1,0,0:0:0:0:
233,154,100322,1,2,0:0:0:0:
233,154,100438,1,0,0:0:0:0:
233,154,100495,1,0,0:0:0:0:
233,154,100553,1,2,0:0:0:0:
233,154,100610,1,2,0:0:0:0:
233,154,100668,1,0,0:0:0:0:
233,154,100726,1,2,0:0:0:0:
250,143,100841,1,2,0:0:0:0:
236,126,100899,1,0,0:0:0:0:
236,126,101015,1,2,0:0:0:0:
236,126,101072,1,2,0:0:0:0:
236,126,101130,1,0,0:0:0:0:
236,126,101245,1,2,0:0:0:0:
236,126,101361,1,0,0:0:0:0:
314,112,101399,1,0,0:0:0:0:
314,112,101437,1,0,0:0:0:0:
236,126,101476,1,2,0:0:0:0:
277,147,101592,5,2,0:0:0:0:
277,147,101649,1,2,0:0:0:0:
277,147,101707,1,0,0:0:0:0:
277,147,101764,1,0,0:0:0:0:
277,147,101822,1,2,0:0:0:0:
277,147,101880,1,0,0:0:0:0:
277,147,101938,1,0,0:0:0:0:
277,147,101995,1,0,0:0:0:0:
277,147,102053,1,2,0:0:0:0:
277,147,102110,1,2,0:0:0:0:
277,147,102168,1,2,0:0:0:0:
277,147,102226,1,0,0:0:0:0:
277,147,102284,1,2,0:0:0:0:
277,147,102341,1,2,0:0:0:0:
277,147,102399,1,0,0:0:0:0:
277,147,102456,1,0,0:0:0:0:
277,147,102515,5,2,0:0:0:0:
277,147,102572,1,2,0:0:0:0:
277,147,102630,1,0,0:0:0:0:
277,147,102687,1,0,0:0:0:0:
277,147,102745,1,2,0:0:0:0:
277,147,102803,1,0,0:0:0:0:
277,147,102861,1,2,0:0:0:0:
277,147,102918,1,2,0:0:0:0:
277,147,102976,1,0,0:0:0:0:
277,147,103033,1,0,0:0:0:0:
277,147,103092,1,2,0:0:0:0:
277,147,103149,1,0,0:0:0:0:
277,147,103207,1,2,0:0:0:0:
277,147,103264,1,2,0:0:0:0:
277,147,103322,1,0,0:0:0:0:
277,147,103380,1,0,0:0:0:0:
277,147,103438,5,2,0:0:0:0:
277,147,103495,1,2,0:0:0:0:
277,147,103553,1,0,0:0:0:0:
277,147,103610,1,0,0:0:0:0:
277,147,103668,1,2,0:0:0:0:
277,147,103726,1,0,0:0:0:0:
277,147,103784,1,0,0:0:0:0:
277,147,103841,1,0,0:0:0:0:
277,147,103899,1,2,0:0:0:0:
277,147,103956,1,2,0:0:0:0:
277,147,104015,1,2,0:0:0:0:
277,147,104072,1,0,0:0:0:0:
277,147,104130,1,2,0:0:0:0:
277,147,104187,1,2,0:0:0:0:
277,147,104245,1,0,0:0:0:0:
277,147,104303,1,0,0:0:0:0:
301,169,104361,1,2,0:0:0:0:
301,169,104476,1,0,0:0:0:0:
301,169,104533,1,0,0:0:0:0:
301,169,104592,1,2,0:0:0:0:
301,169,104707,1,2,0:0:0:0:
301,169,104764,1,0,0:0:0:0:
301,169,104822,1,2,0:0:0:0:
301,169,104938,1,2,0:0:0:0:
301,169,105053,1,0,0:0:0:0:
330,163,105168,1,0,0:0:0:0:
277,147,105284,5,2,0:0:0:0:
277,147,105341,1,2,0:0:0:0:
277,147,105399,1,0,0:0:0:0:
277,147,105456,1,0,0:0:0:0:
277,147,105515,1,2,0:0:0:0:
277,147,105572,1,0,0:0:0:0:
277,147,105630,1,0,0:0:0:0:
277,147,105687,1,0,0:0:0:0:
277,147,105745,1,2,0:0:0:0:
277,147,105861,1,0,0:0:0:0:
266,154,105918,1,0,0:0:0:0:
277,147,105976,1,0,0:0:0:0:
277,147,106092,1,0,0:0:0:0:
266,154,106207,1,2,0:0:0:0:
266,154,106322,1,0,0:0:0:0:
266,154,106380,1,0,0:0:0:0:
266,154,106438,1,0,0:0:0:0:
265,154,106553,1,0,0:0:0:0:
265,154,106668,1,2,0:0:0:0:
265,154,106784,1,0,0:0:0:0:
266,154,106841,1,0,0:0:0:0:
265,154,106899,1,2,0:0:0:0:
265,154,107015,1,2,0:0:0:0:
233,154,107130,1,0,0:0:0:0:
233,154,107303,1,2,0:0:0:0:
233,154,107361,1,0,0:0:0:0:
233,154,107476,1,2,0:0:0:0:
233,154,107533,1,2,0:0:0:0:
233,154,107592,1,0,0:0:0:0:
233,154,107707,1,2,0:0:0:0:
233,154,107822,1,0,0:0:0:0:
233,154,107880,1,2,0:0:0:0:
233,154,107938,1,0,0:0:0:0:
233,154,107995,1,2,0:0:0:0:
233,154,108053,1,0,0:0:0:0:
256,192,108515,12,0,108861,0:0:0:0:
232,201,108976,5,6,0:0:0:0:
232,201,109149,1,0,0:0:0:0:
232,201,109207,1,2,0:0:0:0:
232,201,109322,1,0,0:0:0:0:
232,201,109438,1,2,0:0:0:0:
232,201,109495,1,0,0:0:0:0:
232,201,109553,1,0,0:0:0:0:
232,201,109668,1,2,0:0:0:0:
232,201,109784,1,0,0:0:0:0:
232,201,109841,1,0,0:0:0:0:
232,201,109899,1,2,0:0:0:0:
232,201,110015,1,0,0:0:0:0:
232,201,110072,1,2,0:0:0:0:
232,201,110130,1,2,0:0:0:0:
232,201,110245,1,0,0:0:0:0:
232,201,110361,1,2,0:0:0:0:
232,201,110418,1,2,0:0:0:0:
232,201,110476,1,0,0:0:0:0:
232,201,110592,1,2,0:0:0:0:
232,201,110707,1,0,0:0:0:0:
232,201,110764,1,0,0:0:0:0:
232,201,110822,1,2,0:0:0:0:
232,201,110880,1,0,0:0:0:0:
232,201,110995,1,0,0:0:0:0:
232,201,111053,1,2,0:0:0:0:
232,201,111168,1,0,0:0:0:0:
232,201,111284,1,2,0:0:0:0:
232,201,111341,1,2,0:0:0:0:
232,201,111456,1,0,0:0:0:0:
232,201,111515,1,2,0:0:0:0:
232,201,111630,1,2,0:0:0:0:
232,201,111687,1,2,0:0:0:0:
232,201,111745,1,0,0:0:0:0:
232,201,111861,1,0,0:0:0:0:
232,201,111918,1,0,0:0:0:0:
232,201,111976,1,2,0:0:0:0:
232,201,112092,1,2,0:0:0:0:
232,201,112207,1,0,0:0:0:0:
232,201,112264,1,2,0:0:0:0:
232,201,112322,1,2,0:0:0:0:
232,201,112380,1,2,0:0:0:0:
232,201,112438,1,0,0:0:0:0:
232,201,112495,1,2,0:0:0:0:
232,201,112553,1,0,0:0:0:0:
232,201,112668,1,6,0:0:0:0:
232,201,112841,1,0,0:0:0:0:
232,201,112899,1,2,0:0:0:0:
232,201,113015,1,0,0:0:0:0:
202,13,113072,1,0,0:0:0:0:
232,201,113130,1,2,0:0:0:0:
203,61,113187,1,0,0:0:0:0:
232,201,113245,1,0,0:0:0:0:
203,61,113303,1,0,0:0:0:0:
232,201,113361,1,2,0:0:0:0:
232,201,113476,1,2,0:0:0:0:
232,201,113533,1,2,0:0:0:0:
232,201,113592,1,0,0:0:0:0:
232,201,113649,1,2,0:0:0:0:
232,201,113707,1,0,0:0:0:0:
232,201,113764,1,0,0:0:0:0:
232,201,113822,1,2,0:0:0:0:
232,201,113938,1,0,0:0:0:0:
232,201,114053,1,2,0:0:0:0:
232,201,114110,1,2,0:0:0:0:
232,201,114168,1,0,0:0:0:0:
129,117,114226,1,0,0:0:0:0:
232,201,114284,1,2,0:0:0:0:
232,201,114341,1,2,0:0:0:0:
232,201,114399,1,0,0:0:0:0:
232,201,114515,1,0,0:0:0:0:
232,201,114630,1,2,0:0:0:0:
232,201,114687,1,2,0:0:0:0:
232,201,114745,1,0,0:0:0:0:
232,201,114861,1,2,0:0:0:0:
232,201,114976,1,0,0:0:0:0:
215,109,115033,1,0,0:0:0:0:
196,52,115092,1,2,0:0:0:0:
196,52,115149,1,0,0:0:0:0:
196,52,115207,1,2,0:0:0:0:
232,201,115322,1,2,0:0:0:0:
232,201,115438,1,4,0:0:0:0:
232,201,115610,1,0,0:0:0:0:
232,201,115668,1,2,0:0:0:0:
232,201,115784,1,2,0:0:0:0:
221,151,115899,1,4,0:0:0:0:
221,151,116130,1,0,0:0:0:0:
221,151,116245,1,0,0:0:0:0:
232,201,116361,1,6,0:0:0:0:
232,201,116533,1,0,0:0:0:0:
232,201,116592,1,2,0:0:0:0:
232,201,116707,1,0,0:0:0:0:
232,201,116822,1,2,0:0:0:0:
232,201,116880,1,0,0:0:0:0:
232,201,116938,1,0,0:0:0:0:
232,201,117053,1,2,0:0:0:0:
232,201,117168,1,0,0:0:0:0:
232,201,117226,1,0,0:0:0:0:
232,201,117284,1,2,0:0:0:0:
232,201,117399,1,0,0:0:0:0:
232,201,117456,1,2,0:0:0:0:
232,201,117515,1,2,0:0:0:0:
232,201,117630,1,0,0:0:0:0:
232,201,117745,1,2,0:0:0:0:
232,201,117803,1,2,0:0:0:0:
232,201,117861,1,0,0:0:0:0:
232,201,117976,1,2,0:0:0:0:
232,201,118092,1,0,0:0:0:0:
232,201,118149,1,0,0:0:0:0:
232,201,118207,1,2,0:0:0:0:
232,201,118264,1,0,0:0:0:0:
232,201,118380,1,0,0:0:0:0:
232,201,118438,1,2,0:0:0:0:
232,201,118553,1,0,0:0:0:0:
232,201,118668,1,2,0:0:0:0:
232,201,118726,1,2,0:0:0:0:
232,201,118841,1,0,0:0:0:0:
232,201,118899,1,2,0:0:0:0:
232,201,119015,1,2,0:0:0:0:
232,201,119072,1,2,0:0:0:0:
232,201,119130,1,0,0:0:0:0:
232,201,119245,1,0,0:0:0:0:
232,201,119303,1,0,0:0:0:0:
232,201,119361,1,2,0:0:0:0:
232,201,119476,1,2,0:0:0:0:
232,201,119592,1,0,0:0:0:0:
232,201,119649,1,2,0:0:0:0:
232,201,119707,1,2,0:0:0:0:
232,201,119764,1,2,0:0:0:0:
232,201,119822,1,0,0:0:0:0:
232,201,119880,1,2,0:0:0:0:
232,201,119938,1,0,0:0:0:0:
232,201,120053,1,6,0:0:0:0:
232,201,120226,1,0,0:0:0:0:
232,201,120284,1,2,0:0:0:0:
232,201,120399,1,0,0:0:0:0:
202,13,120456,1,0,0:0:0:0:
232,201,120515,1,2,0:0:0:0:
203,61,120572,1,0,0:0:0:0:
232,201,120630,1,0,0:0:0:0:
203,61,120687,1,0,0:0:0:0:
232,201,120745,1,2,0:0:0:0:
232,201,120861,1,2,0:0:0:0:
232,201,120918,1,2,0:0:0:0:
232,201,120976,1,0,0:0:0:0:
232,201,121033,1,2,0:0:0:0:
232,201,121092,1,0,0:0:0:0:
232,201,121149,1,0,0:0:0:0:
232,201,121207,1,2,0:0:0:0:
232,201,121322,1,0,0:0:0:0:
232,201,121438,1,2,0:0:0:0:
232,201,121495,1,2,0:0:0:0:
232,201,121553,1,0,0:0:0:0:
129,117,121610,1,0,0:0:0:0:
232,201,121668,1,2,0:0:0:0:
232,201,121726,1,2,0:0:0:0:
232,201,121784,1,0,0:0:0:0:
245,115,121899,1,4,0:0:0:0:
245,115,122361,1,4,0:0:0:0:
245,115,122822,1,4,0:0:0:0:
