osu file format v14

[General]
AudioFilename: audio.mp3
AudioLeadIn: 0
PreviewTime: 38058
Countdown: 0
SampleSet: None
StackLeniency: 0.7
Mode: 1
LetterboxInBreaks: 0
WidescreenStoryboard: 0

[Editor]
DistanceSpacing: 1.6
BeatDivisor: 4
GridSize: 32
TimelineZoom: 2.999999

[Metadata]
Title:Hejterdisskor Jebana Dziewico
TitleUnicode:Hejterdisskor Jebana Dziewico
Artist:Loffciamcore
ArtistUnicode:Loffciamcore
Creator:7_7
Version:240
Source:
Tags:
BeatmapID:2446454
BeatmapSetID:1173017

[Difficulty]
HPDrainRate:5
CircleSize:5
OverallDifficulty:6
ApproachRate:5
SliderMultiplier:1.4
SliderTickRate:1

[Events]
//Background and Video events
0,0,"painting-GIMP-2011-ART-layers-modernart-572593-wallhere.com.jpg",0,0
//Break Periods
//Storyboard Layer 0 (Background)
//Storyboard Layer 1 (Fail)
//Storyboard Layer 2 (Pass)
//Storyboard Layer 3 (Foreground)
//Storyboard Layer 4 (Overlay)
//Storyboard Sound Samples

[TimingPoints]
6058,250,4,1,0,80,1,0
6058,-125,4,1,0,80,0,0
21995,-100,4,1,0,80,0,0
37995,-95.2380952380952,4,1,0,80,0,0
38058,-95.2380952380952,4,1,0,80,0,1
51995,-111.111111111111,4,1,0,80,0,1
52058,-111.111111111111,4,1,0,80,0,0
53995,-90.9090909090908,4,1,0,80,0,0
54058,-90.9090909090909,4,1,0,80,0,1
69495,-90.9090909090909,4,1,0,80,0,0
69558,-90.9090909090909,4,1,0,80,0,0
70058,-125,4,1,0,80,0,0
85995,-95.2380952380952,4,1,0,80,0,0
86058,-95.2380952380952,4,1,0,80,0,0
101995,-90.9090909090909,4,1,0,80,0,0
102058,-90.9090909090909,4,1,0,80,0,1
107995,-100,4,1,0,80,0,1
108058,-100,4,1,0,80,0,1
109995,-90.9090909090909,4,1,0,80,0,1
110058,-90.9090909090909,4,1,0,80,0,1
115995,-100,4,1,0,80,0,1
116058,-100,4,1,0,80,0,1
117558,-100,4,1,0,80,0,0
117995,-95.2380952380952,4,1,0,80,0,0
118058,-95.2380952380952,4,1,0,80,0,0

[HitObjects]
250,143,6058,5,0,0:0:0:0:
216,177,6433,1,0,0:0:0:0:
133,154,6558,1,2,0:0:0:0:
216,177,6808,1,0,0:0:0:0:
216,177,7183,1,0,0:0:0:0:
245,107,7308,1,0,0:0:0:0:
133,154,7558,1,2,0:0:0:0:
216,177,7808,1,0,0:0:0:0:
245,107,7933,1,0,0:0:0:0:
245,107,8058,1,0,0:0:0:0:
194,81,8433,1,0,0:0:0:0:
133,154,8558,1,2,0:0:0:0:
199,168,8808,1,0,0:0:0:0:
199,168,9183,1,0,0:0:0:0:
199,168,9308,1,0,0:0:0:0:
133,154,9558,1,2,0:0:0:0:
199,168,9808,1,0,0:0:0:0:
133,154,9933,1,2,0:0:0:0:
245,107,10058,1,0,0:0:0:0:
194,81,10433,1,0,0:0:0:0:
133,154,10558,1,2,0:0:0:0:
199,168,10808,1,0,0:0:0:0:
199,168,11183,1,0,0:0:0:0:
199,168,11308,1,0,0:0:0:0:
133,154,11558,1,2,0:0:0:0:
199,168,11808,1,0,0:0:0:0:
199,168,11933,1,0,0:0:0:0:
245,107,12058,1,0,0:0:0:0:
194,81,12433,1,0,0:0:0:0:
133,154,12558,1,2,0:0:0:0:
199,168,12808,1,0,0:0:0:0:
199,168,13183,1,0,0:0:0:0:
199,168,13308,1,0,0:0:0:0:
133,154,13558,1,2,0:0:0:0:
216,177,14058,1,0,0:0:0:0:
216,177,14433,1,0,0:0:0:0:
133,154,14558,1,2,0:0:0:0:
216,177,14808,1,0,0:0:0:0:
216,177,15183,1,0,0:0:0:0:
245,107,15308,1,0,0:0:0:0:
133,154,15558,1,2,0:0:0:0:
216,177,15808,1,0,0:0:0:0:
245,107,15933,1,0,0:0:0:0:
245,107,16058,1,0,0:0:0:0:
194,81,16433,1,0,0:0:0:0:
133,154,16558,1,2,0:0:0:0:
199,168,16808,1,0,0:0:0:0:
199,168,17183,1,0,0:0:0:0:
199,168,17308,1,0,0:0:0:0:
133,154,17558,1,2,0:0:0:0:
199,168,17808,1,0,0:0:0:0:
133,154,17933,1,2,0:0:0:0:
245,107,18058,1,0,0:0:0:0:
194,81,18433,1,0,0:0:0:0:
133,154,18558,1,2,0:0:0:0:
199,168,18808,1,0,0:0:0:0:
199,168,19183,1,0,0:0:0:0:
199,168,19308,1,0,0:0:0:0:
133,154,19558,1,2,0:0:0:0:
199,168,19808,1,0,0:0:0:0:
199,168,19933,1,0,0:0:0:0:
245,107,20058,1,0,0:0:0:0:
194,81,20433,1,0,0:0:0:0:
133,154,20558,1,2,0:0:0:0:
199,168,20808,1,0,0:0:0:0:
199,168,21183,1,0,0:0:0:0:
199,168,21308,1,0,0:0:0:0:
133,154,21558,1,2,0:0:0:0:
262,134,22058,1,4,0:0:0:0:
321,166,22183,1,0,0:0:0:0:
321,166,22245,1,0,0:0:0:0:
321,166,22308,1,2,0:0:0:0:
321,166,22433,1,0,0:0:0:0:
321,166,22558,1,2,0:0:0:0:
321,166,22620,1,2,0:0:0:0:
321,166,22683,1,0,0:0:0:0:
321,166,22808,1,2,0:0:0:0:
321,166,22933,1,0,0:0:0:0:
321,166,22995,1,0,0:0:0:0:
321,166,23058,1,2,0:0:0:0:
321,166,23120,1,2,0:0:0:0:
321,166,23183,1,0,0:0:0:0:
321,166,23245,1,2,0:0:0:0:
321,166,23308,1,0,0:0:0:0:
156,51,23433,1,2,0:0:0:0:
156,51,23558,1,0,0:0:0:0:
156,51,23683,1,0,0:0:0:0:
156,51,23745,1,0,0:0:0:0:
156,51,23808,1,2,0:0:0:0:
156,51,23933,1,2,0:0:0:0:
186,77,24058,1,0,0:0:0:0:
186,77,24183,1,0,0:0:0:0:
186,77,24245,1,0,0:0:0:0:
186,77,24308,1,2,0:0:0:0:
186,77,24433,1,0,0:0:0:0:
186,77,24558,1,2,0:0:0:0:
186,77,24620,1,2,0:0:0:0:
186,77,24683,1,0,0:0:0:0:
186,77,24808,1,2,0:0:0:0:
186,77,24933,1,0,0:0:0:0:
179,178,24995,1,0,0:0:0:0:
186,77,25058,1,2,0:0:0:0:
186,77,25120,1,0,0:0:0:0:
186,77,25183,1,2,0:0:0:0:
186,77,25245,1,2,0:0:0:0:
186,77,25308,1,0,0:0:0:0:
186,77,25433,1,2,0:0:0:0:
186,77,25495,1,2,0:0:0:0:
186,77,25558,1,0,0:0:0:0:
186,77,25683,1,2,0:0:0:0:
186,77,25808,1,0,0:0:0:0:
186,77,25870,1,2,0:0:0:0:
186,77,25933,1,2,0:0:0:0:
156,132,25995,1,2,0:0:0:0:
262,134,26058,1,0,0:0:0:0:
321,166,26183,1,0,0:0:0:0:
321,166,26245,1,0,0:0:0:0:
321,166,26308,1,2,0:0:0:0:
321,166,26433,1,0,0:0:0:0:
321,166,26558,1,2,0:0:0:0:
321,166,26620,1,2,0:0:0:0:
321,166,26683,1,0,0:0:0:0:
412,73,26745,1,0,0:0:0:0:
321,166,26808,1,2,0:0:0:0:
321,166,26933,1,0,0:0:0:0:
321,166,26995,1,0,0:0:0:0:
321,166,27058,1,2,0:0:0:0:
321,166,27120,1,2,0:0:0:0:
321,166,27183,1,0,0:0:0:0:
321,166,27245,1,2,0:0:0:0:
321,166,27308,1,0,0:0:0:0:
156,51,27433,1,2,0:0:0:0:
156,51,27558,1,0,0:0:0:0:
156,51,27683,1,0,0:0:0:0:
156,51,27745,1,0,0:0:0:0:
156,51,27808,1,2,0:0:0:0:
156,51,27933,1,2,0:0:0:0:
186,77,28058,1,0,0:0:0:0:
186,77,28183,1,0,0:0:0:0:
186,77,28245,1,0,0:0:0:0:
186,77,28308,1,2,0:0:0:0:
186,77,28433,1,0,0:0:0:0:
186,77,28558,1,2,0:0:0:0:
186,77,28620,1,2,0:0:0:0:
186,77,28683,1,0,0:0:0:0:
227,117,28745,1,0,0:0:0:0:
186,77,28808,1,2,0:0:0:0:
186,77,28933,1,0,0:0:0:0:
179,178,28995,1,0,0:0:0:0:
186,77,29058,1,2,0:0:0:0:
186,77,29120,1,0,0:0:0:0:
186,77,29183,1,2,0:0:0:0:
186,77,29245,1,2,0:0:0:0:
186,77,29308,1,0,0:0:0:0:
186,77,29433,1,2,0:0:0:0:
186,77,29495,1,2,0:0:0:0:
186,77,29558,1,0,0:0:0:0:
186,77,29683,1,2,0:0:0:0:
310,175,29808,1,0,0:0:0:0:
310,175,29849,1,0,0:0:0:0:
310,175,29891,1,0,0:0:0:0:
310,175,29933,1,2,0:0:0:0:
262,134,30058,1,4,0:0:0:0:
321,166,30183,1,0,0:0:0:0:
321,166,30245,1,0,0:0:0:0:
321,166,30308,1,2,0:0:0:0:
321,166,30433,1,0,0:0:0:0:
321,166,30558,1,2,0:0:0:0:
321,166,30620,1,2,0:0:0:0:
321,166,30683,1,0,0:0:0:0:
321,166,30808,1,2,0:0:0:0:
321,166,30933,1,0,0:0:0:0:
321,166,30995,1,0,0:0:0:0:
321,166,31058,1,2,0:0:0:0:
321,166,31120,1,2,0:0:0:0:
321,166,31183,1,0,0:0:0:0:
321,166,31245,1,2,0:0:0:0:
321,166,31308,1,0,0:0:0:0:
156,51,31433,1,2,0:0:0:0:
156,51,31558,1,0,0:0:0:0:
156,51,31683,1,0,0:0:0:0:
156,51,31745,1,0,0:0:0:0:
156,51,31808,1,2,0:0:0:0:
156,51,31933,1,2,0:0:0:0:
186,77,32058,1,0,0:0:0:0:
186,77,32183,1,0,0:0:0:0:
186,77,32245,1,0,0:0:0:0:
186,77,32308,1,2,0:0:0:0:
186,77,32433,1,0,0:0:0:0:
186,77,32558,1,2,0:0:0:0:
186,77,32620,1,2,0:0:0:0:
186,77,32683,1,0,0:0:0:0:
186,77,32808,1,2,0:0:0:0:
186,77,32933,1,0,0:0:0:0:
179,178,32995,1,0,0:0:0:0:
186,77,33058,1,2,0:0:0:0:
186,77,33120,1,0,0:0:0:0:
186,77,33183,1,2,0:0:0:0:
186,77,33245,1,2,0:0:0:0:
186,77,33308,1,0,0:0:0:0:
186,77,33433,1,2,0:0:0:0:
186,77,33495,1,2,0:0:0:0:
186,77,33558,1,0,0:0:0:0:
186,77,33683,1,2,0:0:0:0:
186,77,33808,1,0,0:0:0:0:
186,77,33870,1,2,0:0:0:0:
186,77,33933,1,0,0:0:0:0:
156,132,33995,1,2,0:0:0:0:
262,134,34058,1,0,0:0:0:0:
321,166,34183,1,0,0:0:0:0:
321,166,34245,1,0,0:0:0:0:
321,166,34308,1,2,0:0:0:0:
321,166,34433,1,0,0:0:0:0:
321,166,34558,1,2,0:0:0:0:
321,166,34620,1,2,0:0:0:0:
321,166,34683,1,0,0:0:0:0:
412,73,34745,1,0,0:0:0:0:
321,166,34808,1,2,0:0:0:0:
321,166,34933,1,0,0:0:0:0:
321,166,34995,1,0,0:0:0:0:
321,166,35058,1,2,0:0:0:0:
321,166,35120,1,2,0:0:0:0:
321,166,35183,1,0,0:0:0:0:
321,166,35245,1,2,0:0:0:0:
321,166,35308,1,0,0:0:0:0:
156,51,35433,1,2,0:0:0:0:
156,51,35558,1,0,0:0:0:0:
156,51,35683,1,0,0:0:0:0:
156,51,35745,1,0,0:0:0:0:
156,51,35808,1,2,0:0:0:0:
156,51,35933,1,2,0:0:0:0:
186,77,36058,1,4,0:0:0:0:
232,201,38058,1,6,0:0:0:0:
232,201,38245,1,0,0:0:0:0:
232,201,38308,1,2,0:0:0:0:
232,201,38433,1,0,0:0:0:0:
232,201,38558,1,2,0:0:0:0:
232,201,38620,1,0,0:0:0:0:
232,201,38683,1,0,0:0:0:0:
232,201,38808,1,2,0:0:0:0:
232,201,38933,1,0,0:0:0:0:
232,201,38995,1,0,0:0:0:0:
232,201,39058,1,2,0:0:0:0:
232,201,39183,1,0,0:0:0:0:
232,201,39245,1,2,0:0:0:0:
232,201,39308,1,2,0:0:0:0:
232,201,39433,1,0,0:0:0:0:
232,201,39558,1,2,0:0:0:0:
232,201,39620,1,2,0:0:0:0:
232,201,39683,1,0,0:0:0:0:
232,201,39808,1,2,0:0:0:0:
232,201,39933,1,0,0:0:0:0:
232,201,39995,1,0,0:0:0:0:
232,201,40058,1,2,0:0:0:0:
232,201,40120,1,0,0:0:0:0:
232,201,40245,1,0,0:0:0:0:
232,201,40308,1,2,0:0:0:0:
232,201,40433,1,0,0:0:0:0:
232,201,40558,1,2,0:0:0:0:
232,201,40620,1,2,0:0:0:0:
232,201,40745,1,0,0:0:0:0:
232,201,40808,1,2,0:0:0:0:
232,201,40933,1,2,0:0:0:0:
232,201,40995,1,2,0:0:0:0:
232,201,41058,1,0,0:0:0:0:
232,201,41183,1,0,0:0:0:0:
232,201,41245,1,0,0:0:0:0:
232,201,41308,1,2,0:0:0:0:
232,201,41433,1,2,0:0:0:0:
232,201,41558,1,0,0:0:0:0:
232,201,41620,1,2,0:0:0:0:
232,201,41683,1,2,0:0:0:0:
232,201,41745,1,2,0:0:0:0:
232,201,41808,1,0,0:0:0:0:
232,201,41870,1,2,0:0:0:0:
232,201,41933,1,0,0:0:0:0:
232,201,42058,1,6,0:0:0:0:
232,201,42245,1,0,0:0:0:0:
232,201,42308,1,2,0:0:0:0:
232,201,42433,1,0,0:0:0:0:
202,13,42495,1,0,0:0:0:0:
232,201,42558,1,2,0:0:0:0:
203,61,42620,1,0,0:0:0:0:
232,201,42683,1,0,0:0:0:0:
203,61,42745,1,0,0:0:0:0:
232,201,42808,1,2,0:0:0:0:
232,201,42933,1,2,0:0:0:0:
232,201,42995,1,2,0:0:0:0:
232,201,43058,1,0,0:0:0:0:
232,201,43120,1,2,0:0:0:0:
232,201,43183,1,0,0:0:0:0:
232,201,43245,1,0,0:0:0:0:
232,201,43308,1,2,0:0:0:0:
232,201,43433,1,0,0:0:0:0:
232,201,43558,1,2,0:0:0:0:
232,201,43620,1,2,0:0:0:0:
232,201,43683,1,0,0:0:0:0:
129,117,43745,1,0,0:0:0:0:
232,201,43808,1,2,0:0:0:0:
232,201,43870,1,2,0:0:0:0:
232,201,43933,1,0,0:0:0:0:
232,201,44058,1,0,0:0:0:0:
232,201,44183,1,2,0:0:0:0:
232,201,44245,1,2,0:0:0:0:
232,201,44308,1,0,0:0:0:0:
232,201,44433,1,2,0:0:0:0:
232,201,44558,1,0,0:0:0:0:
215,109,44620,1,0,0:0:0:0:
196,52,44683,1,2,0:0:0:0:
196,52,44745,1,0,0:0:0:0:
196,52,44808,1,2,0:0:0:0:
232,201,44933,1,2,0:0:0:0:
232,201,45058,1,4,0:0:0:0:
232,201,45245,1,0,0:0:0:0:
232,201,45308,1,2,0:0:0:0:
232,201,45433,1,2,0:0:0:0:
221,151,45558,1,4,0:0:0:0:
221,151,45808,1,0,0:0:0:0:
221,151,45933,1,0,0:0:0:0:
232,201,46058,1,6,0:0:0:0:
232,201,46245,1,0,0:0:0:0:
232,201,46308,1,2,0:0:0:0:
232,201,46433,1,0,0:0:0:0:
232,201,46558,1,2,0:0:0:0:
232,201,46620,1,0,0:0:0:0:
232,201,46683,1,0,0:0:0:0:
232,201,46808,1,2,0:0:0:0:
232,201,46933,1,0,0:0:0:0:
232,201,46995,1,0,0:0:0:0:
232,201,47058,1,2,0:0:0:0:
232,201,47183,1,0,0:0:0:0:
232,201,47245,1,2,0:0:0:0:
232,201,47308,1,2,0:0:0:0:
232,201,47433,1,0,0:0:0:0:
232,201,47558,1,2,0:0:0:0:
232,201,47620,1,2,0:0:0:0:
232,201,47683,1,0,0:0:0:0:
232,201,47808,1,2,0:0:0:0:
232,201,47933,1,0,0:0:0:0:
232,201,47995,1,0,0:0:0:0:
232,201,48058,1,2,0:0:0:0:
232,201,48120,1,0,0:0:0:0:
232,201,48245,1,0,0:0:0:0:
232,201,48308,1,2,0:0:0:0:
232,201,48433,1,0,0:0:0:0:
232,201,48558,1,2,0:0:0:0:
232,201,48620,1,2,0:0:0:0:
232,201,48745,1,0,0:0:0:0:
232,201,48808,1,2,0:0:0:0:
232,201,48933,1,2,0:0:0:0:
232,201,48995,1,2,0:0:0:0:
232,201,49058,1,0,0:0:0:0:
232,201,49183,1,0,0:0:0:0:
232,201,49245,1,0,0:0:0:0:
232,201,49308,1,2,0:0:0:0:
232,201,49433,1,2,0:0:0:0:
232,201,49558,1,0,0:0:0:0:
232,201,49620,1,2,0:0:0:0:
232,201,49683,1,2,0:0:0:0:
232,201,49745,1,2,0:0:0:0:
232,201,49808,1,0,0:0:0:0:
232,201,49870,1,2,0:0:0:0:
232,201,49933,1,0,0:0:0:0:
232,201,50058,1,6,0:0:0:0:
232,201,50245,1,0,0:0:0:0:
232,201,50308,1,2,0:0:0:0:
232,201,50433,1,0,0:0:0:0:
202,13,50495,1,0,0:0:0:0:
232,201,50558,1,2,0:0:0:0:
203,61,50620,1,0,0:0:0:0:
232,201,50683,1,0,0:0:0:0:
203,61,50745,1,0,0:0:0:0:
232,201,50808,1,2,0:0:0:0:
232,201,50933,1,2,0:0:0:0:
232,201,50995,1,2,0:0:0:0:
232,201,51058,1,0,0:0:0:0:
232,201,51120,1,2,0:0:0:0:
232,201,51183,1,0,0:0:0:0:
232,201,51245,1,0,0:0:0:0:
232,201,51308,1,2,0:0:0:0:
232,201,51433,1,0,0:0:0:0:
232,201,51558,1,2,0:0:0:0:
232,201,51620,1,2,0:0:0:0:
232,201,51683,1,0,0:0:0:0:
129,117,51745,1,0,0:0:0:0:
232,201,51808,1,2,0:0:0:0:
232,201,51870,1,2,0:0:0:0:
232,201,51933,1,0,0:0:0:0:
245,115,52058,1,0,0:0:0:0:
245,115,52558,1,0,0:0:0:0:
245,115,53058,1,0,0:0:0:0:
256,192,53558,12,0,53933,0:0:0:0:
296,213,54058,5,2,0:0:0:0:
296,213,54120,1,0,0:0:0:0:
296,213,54183,1,2,0:0:0:0:
296,213,54245,1,0,0:0:0:0:
296,213,54308,1,2,0:0:0:0:
296,213,54370,1,2,0:0:0:0:
296,213,54433,1,0,0:0:0:0:
296,213,54495,1,0,0:0:0:0:
296,213,54558,1,2,0:0:0:0:
296,213,54683,1,0,0:0:0:0:
258,178,54745,1,0,0:0:0:0:
296,213,54808,1,0,0:0:0:0:
296,213,54933,1,0,0:0:0:0:
302,193,55058,1,2,0:0:0:0:
302,193,55183,1,0,0:0:0:0:
302,193,55245,1,0,0:0:0:0:
302,193,55308,1,0,0:0:0:0:
302,193,55433,1,0,0:0:0:0:
302,193,55558,1,2,0:0:0:0:
302,193,55683,1,0,0:0:0:0:
302,193,55745,1,0,0:0:0:0:
302,193,55808,1,0,0:0:0:0:
302,193,55933,1,0,0:0:0:0:
302,193,56058,1,2,0:0:0:0:
302,193,56183,1,0,0:0:0:0:
302,193,56245,1,0,0:0:0:0:
302,193,56308,1,0,0:0:0:0:
302,193,56433,1,0,0:0:0:0:
302,193,56558,1,2,0:0:0:0:
302,193,56683,1,0,0:0:0:0:
302,193,56745,1,0,0:0:0:0:
302,193,56808,1,2,0:0:0:0:
302,193,56933,1,2,0:0:0:0:
255,178,57058,1,0,0:0:0:0:
255,178,57183,1,2,0:0:0:0:
255,178,57245,1,2,0:0:0:0:
255,178,57308,1,0,0:0:0:0:
255,178,57433,1,0,0:0:0:0:
255,178,57495,1,0,0:0:0:0:
255,178,57558,1,2,0:0:0:0:
255,178,57683,1,2,0:0:0:0:
264,179,57808,1,0,0:0:0:0:
264,179,57933,1,0,0:0:0:0:
296,213,58058,5,2,0:0:0:0:
296,213,58120,1,2,0:0:0:0:
296,213,58183,1,2,0:0:0:0:
296,213,58245,1,0,0:0:0:0:
296,213,58308,1,2,0:0:0:0:
296,213,58370,1,2,0:0:0:0:
296,213,58433,1,0,0:0:0:0:
296,213,58495,1,0,0:0:0:0:
296,213,58558,1,2,0:0:0:0:
296,213,58683,1,0,0:0:0:0:
258,178,58745,1,0,0:0:0:0:
296,213,58808,1,0,0:0:0:0:
296,213,58933,1,0,0:0:0:0:
302,193,59058,1,2,0:0:0:0:
302,193,59183,1,0,0:0:0:0:
302,193,59245,1,0,0:0:0:0:
302,193,59308,1,0,0:0:0:0:
302,193,59433,1,0,0:0:0:0:
302,193,59558,1,2,0:0:0:0:
302,193,59683,1,0,0:0:0:0:
302,193,59745,1,0,0:0:0:0:
302,193,59808,1,2,0:0:0:0:
302,193,59933,1,2,0:0:0:0:
196,150,60058,1,4,0:0:0:0:
196,150,60245,1,2,0:0:0:0:
196,150,60308,1,0,0:0:0:0:
196,150,60433,1,2,0:0:0:0:
196,150,60495,1,2,0:0:0:0:
196,150,60558,1,0,0:0:0:0:
174,87,60683,1,0,0:0:0:0:
186,108,60808,1,2,0:0:0:0:
174,87,60933,1,0,0:0:0:0:
174,87,60995,1,2,0:0:0:0:
176,96,61058,1,0,0:0:0:0:
176,96,61120,1,0,0:0:0:0:
176,96,61245,1,2,0:0:0:0:
176,96,61308,1,0,0:0:0:0:
176,96,61433,1,2,0:0:0:0:
176,96,61558,1,0,0:0:0:0:
176,96,61620,1,0,0:0:0:0:
176,96,61683,1,0,0:0:0:0:
176,96,61808,1,2,0:0:0:0:
296,213,62058,5,2,0:0:0:0:
296,213,62120,1,0,0:0:0:0:
296,213,62183,1,2,0:0:0:0:
296,213,62245,1,0,0:0:0:0:
296,213,62308,1,2,0:0:0:0:
296,213,62370,1,2,0:0:0:0:
296,213,62433,1,0,0:0:0:0:
296,213,62495,1,0,0:0:0:0:
296,213,62558,1,2,0:0:0:0:
296,213,62683,1,0,0:0:0:0:
258,178,62745,1,0,0:0:0:0:
296,213,62808,1,0,0:0:0:0:
296,213,62933,1,0,0:0:0:0:
302,193,63058,1,2,0:0:0:0:
302,193,63183,1,0,0:0:0:0:
302,193,63245,1,0,0:0:0:0:
302,193,63308,1,0,0:0:0:0:
302,193,63433,1,0,0:0:0:0:
302,193,63558,1,2,0:0:0:0:
302,193,63683,1,0,0:0:0:0:
302,193,63745,1,0,0:0:0:0:
302,193,63808,1,0,0:0:0:0:
302,193,63933,1,0,0:0:0:0:
302,193,64058,1,2,0:0:0:0:
302,193,64183,1,0,0:0:0:0:
302,193,64245,1,0,0:0:0:0:
302,193,64308,1,0,0:0:0:0:
302,193,64433,1,0,0:0:0:0:
302,193,64558,1,2,0:0:0:0:
302,193,64683,1,0,0:0:0:0:
302,193,64745,1,0,0:0:0:0:
302,193,64808,1,2,0:0:0:0:
302,193,64933,1,2,0:0:0:0:
255,178,65058,1,0,0:0:0:0:
255,178,65183,1,2,0:0:0:0:
255,178,65245,1,2,0:0:0:0:
255,178,65308,1,0,0:0:0:0:
255,178,65433,1,0,0:0:0:0:
255,178,65495,1,0,0:0:0:0:
255,178,65558,1,2,0:0:0:0:
255,178,65683,1,2,0:0:0:0:
264,179,65808,1,0,0:0:0:0:
264,179,65933,1,0,0:0:0:0:
296,213,66058,5,2,0:0:0:0:
296,213,66120,1,2,0:0:0:0:
296,213,66183,1,2,0:0:0:0:
296,213,66245,1,0,0:0:0:0:
296,213,66308,1,2,0:0:0:0:
296,213,66370,1,2,0:0:0:0:
296,213,66433,1,0,0:0:0:0:
296,213,66495,1,0,0:0:0:0:
296,213,66558,1,2,0:0:0:0:
296,213,66683,1,0,0:0:0:0:
258,178,66745,1,0,0:0:0:0:
296,213,66808,1,0,0:0:0:0:
296,213,66933,1,0,0:0:0:0:
302,193,67058,1,2,0:0:0:0:
302,193,67183,1,0,0:0:0:0:
302,193,67245,1,0,0:0:0:0:
302,193,67308,1,0,0:0:0:0:
302,193,67433,1,0,0:0:0:0:
302,193,67558,1,2,0:0:0:0:
302,193,67683,1,0,0:0:0:0:
302,193,67745,1,0,0:0:0:0:
302,193,67808,1,2,0:0:0:0:
302,193,67933,1,2,0:0:0:0:
196,150,68058,1,4,0:0:0:0:
196,150,68245,1,2,0:0:0:0:
196,150,68308,1,0,0:0:0:0:
196,150,68433,1,2,0:0:0:0:
196,150,68495,1,2,0:0:0:0:
196,150,68558,1,0,0:0:0:0:
174,87,68683,1,0,0:0:0:0:
186,108,68808,1,0,0:0:0:0:
174,87,68933,1,0,0:0:0:0:
174,87,68995,1,2,0:0:0:0:
176,96,69058,1,0,0:0:0:0:
256,192,69558,12,0,69808,0:0:0:0:
241,181,70058,5,0,0:0:0:0:
241,181,70433,1,0,0:0:0:0:
241,181,70808,1,0,0:0:0:0:
203,214,71183,1,0,0:0:0:0:
203,214,71308,1,0,0:0:0:0:
203,214,71558,1,2,0:0:0:0:
203,214,71808,1,0,0:0:0:0:
203,214,71933,1,2,0:0:0:0:
241,181,72058,5,0,0:0:0:0:
241,181,72433,1,0,0:0:0:0:
241,181,72808,1,0,0:0:0:0:
203,214,73183,1,0,0:0:0:0:
203,214,73308,1,0,0:0:0:0:
203,214,73558,1,2,0:0:0:0:
203,214,73808,1,0,0:0:0:0:
203,214,73933,1,0,0:0:0:0:
241,181,74058,5,0,0:0:0:0:
241,181,74433,1,0,0:0:0:0:
241,181,74808,1,0,0:0:0:0:
203,214,75183,1,0,0:0:0:0:
203,214,75308,1,0,0:0:0:0:
203,214,75558,1,2,0:0:0:0:
203,214,75808,1,0,0:0:0:0:
203,214,75933,1,2,0:0:0:0:
241,181,76058,5,0,0:0:0:0:
181,157,76183,1,2,0:0:0:0:
270,148,76245,1,2,0:0:0:0:
270,148,76308,1,2,0:0:0:0:
241,181,76433,1,2,0:0:0:0:
270,148,76558,1,0,0:0:0:0:
270,148,76620,1,0,0:0:0:0:
270,148,76683,1,2,0:0:0:0:
270,148,76745,1,2,0:0:0:0:
241,181,76808,1,0,0:0:0:0:
275,149,77058,1,0,0:0:0:0:
275,149,77120,1,0,0:0:0:0:
203,214,77183,1,2,0:0:0:0:
275,149,77245,1,0,0:0:0:0:
203,214,77308,1,2,0:0:0:0:
275,149,77433,1,2,0:0:0:0:
203,214,77558,1,0,0:0:0:0:
266,153,77620,1,0,0:0:0:0:
266,153,77683,1,2,0:0:0:0:
203,214,77808,1,0,0:0:0:0:
110,140,77849,1,0,0:0:0:0:
183,145,77891,1,0,0:0:0:0:
203,214,77933,1,2,0:0:0:0:
241,181,78058,5,0,0:0:0:0:
241,181,78433,1,0,0:0:0:0:
241,181,78808,1,0,0:0:0:0:
203,214,79183,1,0,0:0:0:0:
203,214,79308,1,0,0:0:0:0:
203,214,79558,1,2,0:0:0:0:
203,214,79808,1,0,0:0:0:0:
203,214,79933,1,2,0:0:0:0:
241,181,80058,5,0,0:0:0:0:
241,181,80433,1,0,0:0:0:0:
241,181,80808,1,0,0:0:0:0:
203,214,81183,1,0,0:0:0:0:
203,214,81308,1,0,0:0:0:0:
203,214,81558,1,2,0:0:0:0:
203,214,81808,1,0,0:0:0:0:
203,214,81933,1,0,0:0:0:0:
241,181,82058,5,0,0:0:0:0:
241,181,82433,1,0,0:0:0:0:
241,181,82808,1,0,0:0:0:0:
203,214,83183,1,0,0:0:0:0:
203,214,83308,1,0,0:0:0:0:
203,214,83558,1,2,0:0:0:0:
203,214,83808,1,0,0:0:0:0:
203,214,83933,1,2,0:0:0:0:
182,117,84058,1,0,0:0:0:0:
236,180,86058,1,4,0:0:0:0:
321,153,86183,1,2,0:0:0:0:
321,153,86245,1,2,0:0:0:0:
321,153,86308,1,2,0:0:0:0:
328,145,86433,1,0,0:0:0:0:
321,153,86558,1,2,0:0:0:0:
321,153,86620,1,2,0:0:0:0:
321,153,86683,1,2,0:0:0:0:
328,145,86808,1,0,0:0:0:0:
326,153,86933,1,2,0:0:0:0:
326,153,86995,1,2,0:0:0:0:
326,153,87058,1,0,0:0:0:0:
222,106,87099,1,0,0:0:0:0:
222,106,87141,1,0,0:0:0:0:
328,145,87183,1,2,0:0:0:0:
230,102,87245,1,0,0:0:0:0:
281,133,87308,1,2,0:0:0:0:
326,153,87433,1,0,0:0:0:0:
326,153,87495,1,0,0:0:0:0:
281,133,87558,1,2,0:0:0:0:
326,153,87683,1,2,0:0:0:0:
281,133,87808,1,0,0:0:0:0:
230,102,87870,1,2,0:0:0:0:
281,133,87933,1,2,0:0:0:0:
230,102,87995,1,2,0:0:0:0:
281,133,88058,1,0,0:0:0:0:
230,102,88120,1,0,0:0:0:0:
230,102,88245,1,2,0:0:0:0:
230,102,88308,1,0,0:0:0:0:
281,133,88433,1,2,0:0:0:0:
237,106,88558,1,0,0:0:0:0:
237,106,88620,1,0,0:0:0:0:
237,106,88683,1,2,0:0:0:0:
281,133,88808,1,0,0:0:0:0:
237,106,88933,1,2,0:0:0:0:
237,106,88995,1,2,0:0:0:0:
237,106,89058,1,0,0:0:0:0:
193,109,89099,1,2,0:0:0:0:
188,107,89141,5,2,0:0:0:0:
281,133,89183,1,0,0:0:0:0:
276,127,89308,1,2,0:0:0:0:
237,106,89433,1,0,0:0:0:0:
271,121,89558,1,2,0:0:0:0:
237,106,89620,1,2,0:0:0:0:
237,106,89683,1,0,0:0:0:0:
270,119,89808,1,2,0:0:0:0:
237,106,89870,1,2,0:0:0:0:
263,109,89933,1,2,0:0:0:0:
311,155,89995,1,2,0:0:0:0:
236,180,90058,1,0,0:0:0:0:
321,153,90183,1,2,0:0:0:0:
321,153,90245,1,2,0:0:0:0:
321,153,90308,1,2,0:0:0:0:
328,145,90433,1,0,0:0:0:0:
321,153,90558,1,2,0:0:0:0:
321,153,90620,1,2,0:0:0:0:
321,153,90683,1,0,0:0:0:0:
328,145,90808,1,2,0:0:0:0:
326,153,90933,1,0,0:0:0:0:
326,153,90995,1,2,0:0:0:0:
326,153,91058,1,0,0:0:0:0:
222,106,91099,1,0,0:0:0:0:
222,106,91141,1,0,0:0:0:0:
328,145,91183,1,2,0:0:0:0:
230,102,91245,1,2,0:0:0:0:
281,133,91308,1,0,0:0:0:0:
326,153,91433,1,2,0:0:0:0:
326,153,91495,1,2,0:0:0:0:
281,133,91558,1,0,0:0:0:0:
326,153,91683,1,2,0:0:0:0:
281,133,91808,1,0,0:0:0:0:
230,102,91870,1,0,0:0:0:0:
281,133,91933,1,2,0:0:0:0:
230,102,91995,1,2,0:0:0:0:
281,133,92058,1,0,0:0:0:0:
230,102,92120,1,2,0:0:0:0:
230,102,92245,1,2,0:0:0:0:
230,102,92308,1,0,0:0:0:0:
281,133,92433,1,2,0:0:0:0:
237,106,92558,1,0,0:0:0:0:
237,106,92620,1,2,0:0:0:0:
237,106,92683,1,2,0:0:0:0:
281,133,92808,1,0,0:0:0:0:
237,106,92933,1,2,0:0:0:0:
237,106,92995,1,2,0:0:0:0:
237,106,93058,1,0,0:0:0:0:
193,109,93099,1,2,0:0:0:0:
188,107,93141,5,2,0:0:0:0:
281,133,93183,1,0,0:0:0:0:
276,127,93308,1,2,0:0:0:0:
237,106,93433,1,0,0:0:0:0:
271,121,93558,1,2,0:0:0:0:
237,106,93620,1,2,0:0:0:0:
237,106,93683,1,0,0:0:0:0:
91,119,93745,1,0,0:0:0:0:
270,119,93808,1,2,0:0:0:0:
346,143,93849,1,0,0:0:0:0:
346,143,93891,1,0,0:0:0:0:
263,109,93933,1,2,0:0:0:0:
236,180,94058,1,4,0:0:0:0:
321,153,94183,1,2,0:0:0:0:
321,153,94245,1,2,0:0:0:0:
321,153,94308,1,2,0:0:0:0:
328,145,94433,1,0,0:0:0:0:
321,153,94558,1,2,0:0:0:0:
321,153,94620,1,2,0:0:0:0:
321,153,94683,1,2,0:0:0:0:
328,145,94808,1,0,0:0:0:0:
326,153,94933,1,2,0:0:0:0:
326,153,94995,1,2,0:0:0:0:
326,153,95058,1,0,0:0:0:0:
222,106,95099,1,0,0:0:0:0:
222,106,95141,1,0,0:0:0:0:
328,145,95183,1,2,0:0:0:0:
230,102,95245,1,0,0:0:0:0:
281,133,95308,1,2,0:0:0:0:
326,153,95433,1,0,0:0:0:0:
326,153,95495,1,0,0:0:0:0:
281,133,95558,1,2,0:0:0:0:
326,153,95683,1,2,0:0:0:0:
281,133,95808,1,0,0:0:0:0:
230,102,95870,1,2,0:0:0:0:
281,133,95933,1,2,0:0:0:0:
230,102,95995,1,2,0:0:0:0:
281,133,96058,1,0,0:0:0:0:
230,102,96120,1,0,0:0:0:0:
230,102,96245,1,2,0:0:0:0:
230,102,96308,1,0,0:0:0:0:
281,133,96433,1,2,0:0:0:0:
237,106,96558,1,0,0:0:0:0:
237,106,96620,1,0,0:0:0:0:
237,106,96683,1,2,0:0:0:0:
281,133,96808,1,0,0:0:0:0:
237,106,96933,1,2,0:0:0:0:
237,106,96995,1,2,0:0:0:0:
237,106,97058,1,0,0:0:0:0:
193,109,97099,1,2,0:0:0:0:
188,107,97141,5,2,0:0:0:0:
281,133,97183,1,0,0:0:0:0:
276,127,97308,1,2,0:0:0:0:
237,106,97433,1,0,0:0:0:0:
271,121,97558,1,2,0:0:0:0:
237,106,97620,1,2,0:0:0:0:
237,106,97683,1,0,0:0:0:0:
270,119,97808,1,2,0:0:0:0:
237,106,97870,1,2,0:0:0:0:
263,109,97933,1,2,0:0:0:0:
311,155,97995,1,2,0:0:0:0:
236,180,98058,1,0,0:0:0:0:
321,153,98183,1,2,0:0:0:0:
321,153,98245,1,2,0:0:0:0:
321,153,98308,1,2,0:0:0:0:
328,145,98433,1,0,0:0:0:0:
321,153,98558,1,2,0:0:0:0:
321,153,98620,1,2,0:0:0:0:
321,153,98683,1,0,0:0:0:0:
328,145,98808,1,2,0:0:0:0:
326,153,98933,1,0,0:0:0:0:
326,153,98995,1,2,0:0:0:0:
326,153,99058,1,0,0:0:0:0:
222,106,99099,1,0,0:0:0:0:
222,106,99141,1,0,0:0:0:0:
328,145,99183,1,2,0:0:0:0:
230,102,99245,1,2,0:0:0:0:
281,133,99308,1,0,0:0:0:0:
326,153,99433,1,2,0:0:0:0:
326,153,99495,1,2,0:0:0:0:
281,133,99558,1,0,0:0:0:0:
326,153,99683,1,2,0:0:0:0:
281,133,99808,1,0,0:0:0:0:
230,102,99870,1,2,0:0:0:0:
281,133,99933,1,0,0:0:0:0:
230,102,99995,1,2,0:0:0:0:
281,133,100058,1,0,0:0:0:0:
256,192,101058,12,0,101933,0:0:0:0:
277,147,102058,5,2,0:0:0:0:
277,147,102120,1,2,0:0:0:0:
277,147,102183,1,0,0:0:0:0:
277,147,102245,1,0,0:0:0:0:
277,147,102308,1,2,0:0:0:0:
277,147,102370,1,0,0:0:0:0:
277,147,102433,1,0,0:0:0:0:
277,147,102495,1,0,0:0:0:0:
277,147,102558,1,2,0:0:0:0:
277,147,102620,1,2,0:0:0:0:
277,147,102683,1,2,0:0:0:0:
277,147,102745,1,0,0:0:0:0:
277,147,102808,1,2,0:0:0:0:
277,147,102870,1,2,0:0:0:0:
277,147,102933,1,0,0:0:0:0:
277,147,102995,1,0,0:0:0:0:
277,147,103058,5,2,0:0:0:0:
277,147,103120,1,2,0:0:0:0:
277,147,103183,1,0,0:0:0:0:
277,147,103245,1,0,0:0:0:0:
277,147,103308,1,2,0:0:0:0:
277,147,103370,1,0,0:0:0:0:
277,147,103433,1,2,0:0:0:0:
277,147,103495,1,2,0:0:0:0:
277,147,103558,1,0,0:0:0:0:
277,147,103620,1,0,0:0:0:0:
277,147,103683,1,2,0:0:0:0:
277,147,103745,1,0,0:0:0:0:
277,147,103808,1,2,0:0:0:0:
277,147,103870,1,2,0:0:0:0:
277,147,103933,1,0,0:0:0:0:
277,147,103995,1,0,0:0:0:0:
277,147,104058,5,2,0:0:0:0:
277,147,104120,1,2,0:0:0:0:
277,147,104183,1,0,0:0:0:0:
277,147,104245,1,0,0:0:0:0:
277,147,104308,1,2,0:0:0:0:
277,147,104370,1,0,0:0:0:0:
277,147,104433,1,0,0:0:0:0:
277,147,104495,1,0,0:0:0:0:
277,147,104558,1,2,0:0:0:0:
277,147,104620,1,2,0:0:0:0:
277,147,104683,1,2,0:0:0:0:
277,147,104745,1,0,0:0:0:0:
277,147,104808,1,2,0:0:0:0:
277,147,104870,1,2,0:0:0:0:
277,147,104933,1,0,0:0:0:0:
277,147,104995,1,0,0:0:0:0:
301,169,105058,1,2,0:0:0:0:
301,169,105183,1,0,0:0:0:0:
301,169,105245,1,0,0:0:0:0:
301,169,105308,1,2,0:0:0:0:
301,169,105433,1,2,0:0:0:0:
301,169,105495,1,0,0:0:0:0:
301,169,105558,1,2,0:0:0:0:
301,169,105683,1,2,0:0:0:0:
301,169,105808,1,0,0:0:0:0:
330,163,105933,1,0,0:0:0:0:
277,147,106058,5,2,0:0:0:0:
277,147,106120,1,2,0:0:0:0:
277,147,106183,1,0,0:0:0:0:
277,147,106245,1,0,0:0:0:0:
277,147,106308,1,2,0:0:0:0:
277,147,106370,1,0,0:0:0:0:
277,147,106433,1,0,0:0:0:0:
277,147,106495,1,0,0:0:0:0:
277,147,106558,1,2,0:0:0:0:
277,147,106683,1,0,0:0:0:0:
266,154,106745,1,0,0:0:0:0:
277,147,106808,1,0,0:0:0:0:
277,147,106933,1,0,0:0:0:0:
266,154,107058,1,2,0:0:0:0:
266,154,107183,1,0,0:0:0:0:
266,154,107245,1,0,0:0:0:0:
266,154,107308,1,0,0:0:0:0:
265,154,107433,1,0,0:0:0:0:
265,154,107558,1,2,0:0:0:0:
265,154,107683,1,0,0:0:0:0:
266,154,107745,1,0,0:0:0:0:
265,154,107808,1,2,0:0:0:0:
265,154,107933,1,2,0:0:0:0:
233,154,108058,1,0,0:0:0:0:
233,154,108245,1,2,0:0:0:0:
233,154,108308,1,0,0:0:0:0:
233,154,108433,1,2,0:0:0:0:
233,154,108495,1,2,0:0:0:0:
233,154,108558,1,0,0:0:0:0:
233,154,108683,1,2,0:0:0:0:
233,154,108808,1,0,0:0:0:0:
233,154,108870,1,0,0:0:0:0:
233,154,108933,1,2,0:0:0:0:
233,154,108995,1,2,0:0:0:0:
233,154,109058,1,0,0:0:0:0:
233,154,109120,1,2,0:0:0:0:
250,143,109245,1,2,0:0:0:0:
236,126,109308,1,0,0:0:0:0:
236,126,109433,1,2,0:0:0:0:
236,126,109495,1,2,0:0:0:0:
236,126,109558,1,0,0:0:0:0:
236,126,109683,1,2,0:0:0:0:
236,126,109808,1,0,0:0:0:0:
314,112,109849,1,0,0:0:0:0:
314,112,109891,1,0,0:0:0:0:
236,126,109933,1,2,0:0:0:0:
277,147,110058,5,2,0:0:0:0:
277,147,110120,1,2,0:0:0:0:
277,147,110183,1,0,0:0:0:0:
277,147,110245,1,0,0:0:0:0:
277,147,110308,1,2,0:0:0:0:
277,147,110370,1,0,0:0:0:0:
277,147,110433,1,0,0:0:0:0:
277,147,110495,1,0,0:0:0:0:
277,147,110558,1,2,0:0:0:0:
277,147,110620,1,2,0:0:0:0:
277,147,110683,1,2,0:0:0:0:
277,147,110745,1,0,0:0:0:0:
277,147,110808,1,2,0:0:0:0:
277,147,110870,1,2,0:0:0:0:
277,147,110933,1,0,0:0:0:0:
277,147,110995,1,0,0:0:0:0:
277,147,111058,5,2,0:0:0:0:
277,147,111120,1,2,0:0:0:0:
277,147,111183,1,0,0:0:0:0:
277,147,111245,1,0,0:0:0:0:
277,147,111308,1,2,0:0:0:0:
277,147,111370,1,0,0:0:0:0:
277,147,111433,1,2,0:0:0:0:
277,147,111495,1,2,0:0:0:0:
277,147,111558,1,0,0:0:0:0:
277,147,111620,1,0,0:0:0:0:
277,147,111683,1,2,0:0:0:0:
277,147,111745,1,0,0:0:0:0:
277,147,111808,1,2,0:0:0:0:
277,147,111870,1,2,0:0:0:0:
277,147,111933,1,0,0:0:0:0:
277,147,111995,1,0,0:0:0:0:
277,147,112058,5,2,0:0:0:0:
277,147,112120,1,2,0:0:0:0:
277,147,112183,1,0,0:0:0:0:
277,147,112245,1,0,0:0:0:0:
277,147,112308,1,2,0:0:0:0:
277,147,112370,1,0,0:0:0:0:
277,147,112433,1,0,0:0:0:0:
277,147,112495,1,0,0:0:0:0:
277,147,112558,1,2,0:0:0:0:
277,147,112620,1,2,0:0:0:0:
277,147,112683,1,2,0:0:0:0:
277,147,112745,1,0,0:0:0:0:
277,147,112808,1,2,0:0:0:0:
277,147,112870,1,2,0:0:0:0:
277,147,112933,1,0,0:0:0:0:
277,147,112995,1,0,0:0:0:0:
301,169,113058,1,2,0:0:0:0:
301,169,113183,1,0,0:0:0:0:
301,169,113245,1,0,0:0:0:0:
301,169,113308,1,2,0:0:0:0:
301,169,113433,1,2,0:0:0:0:
301,169,113495,1,0,0:0:0:0:
301,169,113558,1,2,0:0:0:0:
301,169,113683,1,2,0:0:0:0:
301,169,113808,1,0,0:0:0:0:
330,163,113933,1,0,0:0:0:0:
277,147,114058,5,2,0:0:0:0:
277,147,114120,1,2,0:0:0:0:
277,147,114183,1,0,0:0:0:0:
277,147,114245,1,0,0:0:0:0:
277,147,114308,1,2,0:0:0:0:
277,147,114370,1,0,0:0:0:0:
277,147,114433,1,0,0:0:0:0:
277,147,114495,1,0,0:0:0:0:
277,147,114558,1,2,0:0:0:0:
277,147,114683,1,0,0:0:0:0:
266,154,114745,1,0,0:0:0:0:
277,147,114808,1,0,0:0:0:0:
277,147,114933,1,0,0:0:0:0:
266,154,115058,1,2,0:0:0:0:
266,154,115183,1,0,0:0:0:0:
266,154,115245,1,0,0:0:0:0:
266,154,115308,1,0,0:0:0:0:
265,154,115433,1,0,0:0:0:0:
265,154,115558,1,2,0:0:0:0:
265,154,115683,1,0,0:0:0:0:
266,154,115745,1,0,0:0:0:0:
265,154,115808,1,2,0:0:0:0:
265,154,115933,1,2,0:0:0:0:
233,154,116058,1,0,0:0:0:0:
233,154,116245,1,2,0:0:0:0:
233,154,116308,1,0,0:0:0:0:
233,154,116433,1,2,0:0:0:0:
233,154,116495,1,2,0:0:0:0:
233,154,116558,1,0,0:0:0:0:
233,154,116683,1,2,0:0:0:0:
233,154,116808,1,0,0:0:0:0:
233,154,116870,1,2,0:0:0:0:
233,154,116933,1,0,0:0:0:0:
233,154,116995,1,2,0:0:0:0:
233,154,117058,1,0,0:0:0:0:
256,192,117558,12,0,117933,0:0:0:0:
232,201,118058,5,6,0:0:0:0:
232,201,118245,1,0,0:0:0:0:
232,201,118308,1,2,0:0:0:0:
232,201,118433,1,0,0:0:0:0:
232,201,118558,1,2,0:0:0:0:
232,201,118620,1,0,0:0:0:0:
232,201,118683,1,0,0:0:0:0:
232,201,118808,1,2,0:0:0:0:
232,201,118933,1,0,0:0:0:0:
232,201,118995,1,0,0:0:0:0:
232,201,119058,1,2,0:0:0:0:
232,201,119183,1,0,0:0:0:0:
232,201,119245,1,2,0:0:0:0:
232,201,119308,1,2,0:0:0:0:
232,201,119433,1,0,0:0:0:0:
232,201,119558,1,2,0:0:0:0:
232,201,119620,1,2,0:0:0:0:
232,201,119683,1,0,0:0:0:0:
232,201,119808,1,2,0:0:0:0:
232,201,119933,1,0,0:0:0:0:
232,201,119995,1,0,0:0:0:0:
232,201,120058,1,2,0:0:0:0:
232,201,120120,1,0,0:0:0:0:
232,201,120245,1,0,0:0:0:0:
232,201,120308,1,2,0:0:0:0:
232,201,120433,1,0,0:0:0:0:
232,201,120558,1,2,0:0:0:0:
232,201,120620,1,2,0:0:0:0:
232,201,120745,1,0,0:0:0:0:
232,201,120808,1,2,0:0:0:0:
232,201,120933,1,2,0:0:0:0:
232,201,120995,1,2,0:0:0:0:
232,201,121058,1,0,0:0:0:0:
232,201,121183,1,0,0:0:0:0:
232,201,121245,1,0,0:0:0:0:
232,201,121308,1,2,0:0:0:0:
232,201,121433,1,2,0:0:0:0:
232,201,121558,1,0,0:0:0:0:
232,201,121620,1,2,0:0:0:0:
232,201,121683,1,2,0:0:0:0:
232,201,121745,1,2,0:0:0:0:
232,201,121808,1,0,0:0:0:0:
232,201,121870,1,2,0:0:0:0:
232,201,121933,1,0,0:0:0:0:
232,201,122058,1,6,0:0:0:0:
232,201,122245,1,0,0:0:0:0:
232,201,122308,1,2,0:0:0:0:
232,201,122433,1,0,0:0:0:0:
202,13,122495,1,0,0:0:0:0:
232,201,122558,1,2,0:0:0:0:
203,61,122620,1,0,0:0:0:0:
232,201,122683,1,0,0:0:0:0:
203,61,122745,1,0,0:0:0:0:
232,201,122808,1,2,0:0:0:0:
232,201,122933,1,2,0:0:0:0:
232,201,122995,1,2,0:0:0:0:
232,201,123058,1,0,0:0:0:0:
232,201,123120,1,2,0:0:0:0:
232,201,123183,1,0,0:0:0:0:
232,201,123245,1,0,0:0:0:0:
232,201,123308,1,2,0:0:0:0:
232,201,123433,1,0,0:0:0:0:
232,201,123558,1,2,0:0:0:0:
232,201,123620,1,2,0:0:0:0:
232,201,123683,1,0,0:0:0:0:
129,117,123745,1,0,0:0:0:0:
232,201,123808,1,2,0:0:0:0:
232,201,123870,1,2,0:0:0:0:
232,201,123933,1,0,0:0:0:0:
232,201,124058,1,0,0:0:0:0:
232,201,124183,1,2,0:0:0:0:
232,201,124245,1,2,0:0:0:0:
232,201,124308,1,0,0:0:0:0:
232,201,124433,1,2,0:0:0:0:
232,201,124558,1,0,0:0:0:0:
215,109,124620,1,0,0:0:0:0:
196,52,124683,1,2,0:0:0:0:
196,52,124745,1,0,0:0:0:0:
196,52,124808,1,2,0:0:0:0:
232,201,124933,1,2,0:0:0:0:
232,201,125058,1,4,0:0:0:0:
232,201,125245,1,0,0:0:0:0:
232,201,125308,1,2,0:0:0:0:
232,201,125433,1,2,0:0:0:0:
221,151,125558,1,4,0:0:0:0:
221,151,125808,1,0,0:0:0:0:
221,151,125933,1,0,0:0:0:0:
232,201,126058,1,6,0:0:0:0:
232,201,126245,1,0,0:0:0:0:
232,201,126308,1,2,0:0:0:0:
232,201,126433,1,0,0:0:0:0:
232,201,126558,1,2,0:0:0:0:
232,201,126620,1,0,0:0:0:0:
232,201,126683,1,0,0:0:0:0:
232,201,126808,1,2,0:0:0:0:
232,201,126933,1,0,0:0:0:0:
232,201,126995,1,0,0:0:0:0:
232,201,127058,1,2,0:0:0:0:
232,201,127183,1,0,0:0:0:0:
232,201,127245,1,2,0:0:0:0:
232,201,127308,1,2,0:0:0:0:
232,201,127433,1,0,0:0:0:0:
232,201,127558,1,2,0:0:0:0:
232,201,127620,1,2,0:0:0:0:
232,201,127683,1,0,0:0:0:0:
232,201,127808,1,2,0:0:0:0:
232,201,127933,1,0,0:0:0:0:
232,201,127995,1,0,0:0:0:0:
232,201,128058,1,2,0:0:0:0:
232,201,128120,1,0,0:0:0:0:
232,201,128245,1,0,0:0:0:0:
232,201,128308,1,2,0:0:0:0:
232,201,128433,1,0,0:0:0:0:
232,201,128558,1,2,0:0:0:0:
232,201,128620,1,2,0:0:0:0:
232,201,128745,1,0,0:0:0:0:
232,201,128808,1,2,0:0:0:0:
232,201,128933,1,2,0:0:0:0:
232,201,128995,1,2,0:0:0:0:
232,201,129058,1,0,0:0:0:0:
232,201,129183,1,0,0:0:0:0:
232,201,129245,1,0,0:0:0:0:
232,201,129308,1,2,0:0:0:0:
232,201,129433,1,2,0:0:0:0:
232,201,129558,1,0,0:0:0:0:
232,201,129620,1,2,0:0:0:0:
232,201,129683,1,2,0:0:0:0:
232,201,129745,1,2,0:0:0:0:
232,201,129808,1,0,0:0:0:0:
232,201,129870,1,2,0:0:0:0:
232,201,129933,1,0,0:0:0:0:
232,201,130058,1,6,0:0:0:0:
232,201,130245,1,0,0:0:0:0:
232,201,130308,1,2,0:0:0:0:
232,201,130433,1,0,0:0:0:0:
202,13,130495,1,0,0:0:0:0:
232,201,130558,1,2,0:0:0:0:
203,61,130620,1,0,0:0:0:0:
232,201,130683,1,0,0:0:0:0:
203,61,130745,1,0,0:0:0:0:
232,201,130808,1,2,0:0:0:0:
232,201,130933,1,2,0:0:0:0:
232,201,130995,1,2,0:0:0:0:
232,201,131058,1,0,0:0:0:0:
232,201,131120,1,2,0:0:0:0:
232,201,131183,1,0,0:0:0:0:
232,201,131245,1,0,0:0:0:0:
232,201,131308,1,2,0:0:0:0:
232,201,131433,1,0,0:0:0:0:
232,201,131558,1,2,0:0:0:0:
232,201,131620,1,2,0:0:0:0:
232,201,131683,1,0,0:0:0:0:
129,117,131745,1,0,0:0:0:0:
232,201,131808,1,2,0:0:0:0:
232,201,131870,1,2,0:0:0:0:
232,201,131933,1,0,0:0:0:0:
245,115,132058,1,4,0:0:0:0:
245,115,132558,1,4,0:0:0:0:
245,115,133058,1,4,0:0:0:0:
