osu file format v14

[General]
AudioFilename: audio.mp3
AudioLeadIn: 0
PreviewTime: 39636
Countdown: 0
SampleSet: Soft
StackLeniency: 0.7
Mode: 0
LetterboxInBreaks: 0
WidescreenStoryboard: 0

[Editor]
DistanceSpacing: 1
BeatDivisor: 4
GridSize: 8
TimelineZoom: 2.7

[Metadata]
Title:Romantyzm Mnie Napierdala
TitleUnicode:Romantyzm Mnie Napierdala
Artist:Loffciamcore & odaxelagnia
ArtistUnicode:Loffciamcore & odaxelagnia
Creator:XVoIR
Version:Neoromantyzm
Source:
Tags:
BeatmapID:1675876
BeatmapSetID:798028

[Difficulty]
HPDrainRate:4.5
CircleSize:5
OverallDifficulty:9.3
ApproachRate:9.7
SliderMultiplier:1.4
SliderTickRate:1

[Events]
//Background and Video events
0,0,"bg.png",0,0
//Break Periods
//Storyboard Layer 0 (Background)
//Storyboard Layer 1 (Fail)
//Storyboard Layer 2 (Pass)
//Storyboard Layer 3 (Foreground)
//Storyboard Sound Samples

[TimingPoints]
20437,300,4,2,0,75,1,0
29737,-50,4,2,0,75,0,0
30037,-80,4,1,0,75,0,0
31837,230.769230769231,4,2,0,75,1,0
31837,-50,4,2,0,75,0,0
32161,271.493212669683,4,2,0,75,1,0
32161,-33.3333333333333,4,2,0,75,0,0
32362,-33.3333333333333,4,2,0,5,0,0
32437,300,4,1,0,75,1,0
34237,263.157894736842,4,2,0,75,1,0
34237,-50,4,2,0,75,0,0
34434,200,4,2,0,75,1,0
34534,239.043824701195,4,2,0,75,1,0
34534,-33.3333333333333,4,2,0,75,0,0
34836,300,4,2,0,75,1,0
34836,-80,4,1,0,75,0,0
39036,244.897959183673,4,2,0,75,1,0
39036,-33.3333333333333,4,2,0,75,0,0
39097,-33.3333333333333,4,2,0,5,0,0
39158,244.897959183673,4,2,0,75,1,0
39158,-33.3333333333333,4,2,0,75,0,0
39219,-33.3333333333333,4,2,0,5,0,0
39280,297.029702970297,4,2,0,75,1,0
39280,-50,4,2,0,75,0,0
39428,-50,4,2,0,5,0,0
39502,270.27027027027,4,2,0,75,1,0
39636,300,4,2,0,75,1,1
39636,-66.6666666666667,4,2,0,75,0,1
40836,-50,4,1,0,75,0,1
42036,-66.6666666666667,4,2,0,75,0,1
44136,-33.3333333333333,4,2,0,75,0,1
44361,-33.3333333333333,4,2,0,5,0,1
44436,-66.6666666666667,4,2,0,75,0,1
45636,-50,4,1,0,75,0,1
46836,-50,4,2,0,75,0,1
48036,-25,4,2,0,75,0,1
48111,-25,4,2,0,5,0,1
48186,-25,4,2,0,75,0,1
48261,-25,4,2,0,5,0,1
48336,-66.6666666666667,4,1,0,75,0,1
48936,-33.3333333333333,4,2,0,75,0,1
49236,-100,4,2,0,75,0,0
51336,-40,4,2,0,75,0,0
51411,-40,4,2,0,5,0,0
51486,-40,4,2,0,75,0,0
51561,-40,4,2,0,5,0,0
51636,-100,4,2,0,75,0,0
53736,-33.3333333333333,4,2,0,75,0,0
53886,-33.3333333333333,4,2,0,5,0,0
54036,-100,4,2,0,75,0,0
58536,-50,4,2,0,75,0,0
58761,-50,4,2,0,5,0,0
58836,-80,4,1,0,75,0,0
60636,-50,4,2,0,75,0,0
60861,-50,4,2,0,5,0,0
60936,-33.3333333333333,4,2,0,75,0,0
61011,-33.3333333333333,4,2,0,5,0,0
61086,-33.3333333333333,4,2,0,75,0,0
61161,-33.3333333333333,4,2,0,5,0,0
61236,-80,4,1,0,75,0,0
63336,-33.3333333333333,4,2,0,75,0,0
63561,-33.3333333333333,4,2,0,5,0,0
63636,-80,4,1,0,75,0,0
68361,-80,4,2,0,5,0,0
68436,-66.6666666666667,4,2,0,75,0,1
69636,-66.6666666666667,4,1,0,75,0,1
70836,-66.6666666666667,4,2,0,75,0,1
72336,-33.3333333333333,4,2,0,75,0,1
72636,-66.6666666666667,4,2,0,75,0,1
72936,-50,4,2,0,75,0,1
73236,-66.6666666666667,4,2,0,75,0,1
74436,-50,4,1,0,75,0,1
75636,-66.6666666666667,4,2,0,75,0,1
76836,-50,4,1,0,75,0,1
77436,-66.6666666666667,4,2,0,75,0,1
77736,-33.3333333333333,4,2,0,75,0,1
78036,-100,4,2,0,75,0,0
78636,-66.6666666666667,4,2,0,75,0,0
78936,-50,4,2,0,75,0,0
79236,-100,4,2,0,75,0,0
79836,-66.6666666666667,4,2,0,75,0,0
80136,-50,4,2,0,75,0,0
80436,-100,4,2,0,75,0,0
81036,-66.6666666666667,4,2,0,75,0,0
81336,-50,4,2,0,75,0,0
81636,-80,4,2,0,75,0,0
82236,306,4,2,0,75,1,0
82236,-33.3333333333333,4,2,0,75,0,0
82465,-33.3333333333333,4,2,0,5,0,0
82542,291.26213592233,4,2,0,75,1,0
82542,-33.3333333333333,4,2,0,75,0,0
82760,-33.3333333333333,4,2,0,5,0,0
82836,300,4,2,0,75,1,0
83436,-66.6666666666667,4,2,0,75,0,0
83736,-50,4,2,0,75,0,0
84036,-100,4,2,0,75,0,0
84636,-66.6666666666667,4,2,0,75,0,0
84936,-50,4,2,0,75,0,0
85236,-100,4,2,0,75,0,0
85836,-66.6666666666667,4,2,0,75,0,0
86136,-50,4,2,0,75,0,0
86436,-80,4,2,0,75,0,0
87036,306,4,2,0,75,1,0
87036,-33.3333333333333,4,2,0,75,0,0
87269,-33.3333333333333,4,2,0,5,0,0
87342,291.26213592233,4,2,0,75,1,0
87342,-33.3333333333333,4,2,0,75,0,0
87558,-33.3333333333333,4,2,0,5,0,0
87633,300,4,2,0,75,1,0
88790,300,4,2,0,75,1,0
88790,-80,4,2,0,75,0,0
98090,-33.3333333333333,4,2,0,75,0,0
98390,-80,4,2,0,75,0,1
99590,-50,4,1,0,75,0,1
100790,-66.6666666666667,4,2,0,75,0,1
102890,-33.3333333333333,4,2,0,75,0,1
103115,-33.3333333333333,4,2,0,5,0,1
103190,-66.6666666666667,4,2,0,75,0,1
104390,-50,4,1,0,75,0,1
105590,-66.6666666666667,4,2,0,75,0,1
107690,-33.3333333333333,4,2,0,75,0,1
107915,-33.3333333333333,4,2,0,5,0,1
107990,-80,4,2,0,75,0,0
115190,-105.263157894737,4,2,0,75,0,0
116990,-28.5714285714286,4,2,0,75,0,0
118036,300,4,2,0,75,1,1
118036,-50,4,1,0,75,0,1
122836,-57.1428571428571,4,2,0,75,0,1
127336,-28.5714285714286,4,2,0,75,0,1
127636,-100,4,2,0,75,0,0
141512,300,4,2,0,75,1,0
141512,-50,4,2,0,75,0,0
141737,-50,4,2,0,5,0,0
141812,-50,4,2,0,75,0,0
142112,300,4,2,0,75,1,0
142112,-80,4,2,0,75,0,0
160712,-1000,4,2,0,75,0,0
162962,-1000,4,2,0,5,0,0
163136,352.941176470588,4,2,0,75,1,0
163841,348.837209302326,4,2,0,75,1,0
163841,-200,4,2,0,75,0,0
164538,-50,4,2,0,75,0,0
164713,-50,4,2,0,5,0,0
164887,-200,4,2,0,75,0,0
165934,-50,4,2,0,75,0,0
166108,-50,4,2,0,5,0,0
166282,-200,4,2,0,75,0,0
166595,275.229357798165,4,2,0,75,1,0
166595,-50,4,2,0,75,0,0
167076,-50,4,2,0,5,0,0
167145,238.095238095238,4,2,0,75,1,0
167145,-33.3333333333333,4,2,0,75,0,0
167264,-33.3333333333333,4,2,0,5,0,0
167383,355.029585798817,4,2,0,75,1,0
167383,-50,4,2,0,75,0,0
167649,-50,4,2,0,5,0,0
167738,-55.5555555555556,4,2,0,75,0,0
168004,-55.5555555555556,4,2,0,5,0,0
168093,444.444444444444,4,2,0,75,1,0
168093,-40,4,2,0,75,0,0
168426,-40,4,2,0,5,0,0
168537,375,4,2,0,75,1,0
168537,-33.3333333333333,4,2,0,75,0,0
168630,-33.3333333333333,4,2,0,5,0,0
168724,348.837209302326,4,2,0,75,1,0
168724,-50,4,2,0,75,0,0
169421,348.837209302326,4,2,0,75,1,0
169421,-133.333333333333,4,2,0,75,0,0
170118,-50,4,2,0,75,0,0
170293,-50,4,2,0,5,0,0
170467,-133.333333333333,4,2,0,75,0,0
171514,-33.3333333333333,4,2,0,75,0,0
171862,-133.333333333333,4,2,0,75,0,0
172909,-50,4,2,0,75,0,0
173258,-133.333333333333,4,2,0,75,0,0
174988,300,4,2,0,75,1,0
174988,-66.6666666666667,4,1,0,75,0,0
179488,-40,4,2,0,75,0,0
179788,-66.6666666666667,4,1,0,75,0,0
183388,-33.3333333333333,4,2,0,75,0,0
183463,-33.3333333333333,4,2,0,5,0,0
184438,-33.3333333333333,4,2,0,75,0,0
184588,-66.6666666666667,4,1,0,75,0,0
189088,-50,4,2,0,75,0,0
189388,-66.6666666666667,4,1,0,75,0,0
192988,-33.3333333333333,4,2,0,75,0,0
193588,-66.6666666666667,4,2,0,5,0,0
193774,508.474576271186,4,2,0,75,1,0
196088,3000,4,2,0,75,1,0

[HitObjects]
50,133,20437,6,0,P|84:135|124:113,1,70,4|0,0:0|0:0,0:0:0:0:
204,56,20737,2,0,P|248:45|289:57,1,70,8|0,0:0|0:0,0:0:0:0:
400,112,21037,1,2,0:0:0:0:
334,216,21187,1,2,0:0:0:0:
228,115,21337,2,0,L|247:111,1,17.5,8|0,0:0|0:0,0:0:0:0:
224,128,21412,2,0,L|205:124,1,17.5
227,141,21487,1,0,0:0:0:0:
244,288,21637,5,0,0:0:0:0:
89,236,21787,1,0,0:0:0:0:
80,236,21862,1,0,0:0:0:0:
71,236,21937,2,0,P|67:260|73:279,1,35,8|0,3:1|3:0,3:0:0:0:
139,356,22087,2,0,P|143:332|137:313,1,35,0|0,3:0|3:0,3:0:0:0:
3,346,22237,6,0,L|96:337,1,70,2|2,0:0|0:0,0:0:0:0:
261,324,22537,2,0,P|277:326|291:323,1,17.5,8|0,1:2|1:2,1:2:0:0:
286,319,22612,2,0,P|307:312|315:313,1,17.5,0|0,1:2|1:2,1:2:0:0:
310,308,22687,1,0,0:0:0:0:
329,290,22762,1,0,0:0:0:0:
342,268,22837,6,0,P|347:234|339:195,1,70,4|0,0:0|0:0,0:0:0:0:
225,127,23062,1,0,0:0:0:0:
212,117,23137,2,0,P|207:82|215:43,1,70,8|0,0:0|0:0,0:0:0:0:
399,84,23437,1,0,0:0:0:0:
372,83,23512,1,0,0:0:0:0:
346,82,23587,1,0,0:0:0:0:
320,81,23662,1,0,0:0:0:0:
292,105,23737,5,8,1:2:0:0:
257,105,23812,1,0,1:2:0:0:
223,95,23887,1,0,1:2:0:0:
193,77,23962,1,0,0:0:0:0:
170,51,24037,6,0,P|166:33|166:19,4,17.5,2|0|0|0|0,0:0|0:0|0:0|0:0|0:0,0:0:0:0:
87,81,24262,1,0,0:0:0:0:
77,101,24337,2,0,P|72:119|72:133,4,17.5,10|0|0|0|0,0:0|0:0|0:0|0:0|0:0,0:0:0:0:
174,224,24637,1,0,1:2:0:0:
177,251,24712,1,0,1:2:0:0:
174,279,24787,1,0,1:2:0:0:
163,304,24862,1,0,1:2:0:0:
145,326,24937,1,0,1:2:0:0:
177,313,25012,1,0,1:2:0:0:
212,311,25087,1,0,1:2:0:0:
245,322,25162,1,0,1:2:0:0:
272,344,25237,6,0,P|305:369|349:373,1,70,4|0,0:0|0:0,0:0:0:0:
408,216,25537,2,0,P|369:232|344:268,1,70,8|0,0:0|0:0,0:0:0:0:
452,336,25837,1,2,0:0:0:0:
481,196,25987,2,0,L|485:173,4,17.5,0|0|0|0|8,0:0|0:0|0:0|0:0|0:0,0:0:0:0:
398,91,26287,1,0,0:0:0:0:
286,44,26437,6,0,L|198:56,1,70,2|0,0:0|0:0,0:0:0:0:
148,134,26662,1,0,1:0:0:0:
182,130,26737,1,8,1:2:0:0:
217,126,26812,1,0,1:0:0:0:
249,137,26887,1,0,0:0:0:0:
184,332,27037,5,2,1:2:0:0:
190,297,27112,1,0,1:0:0:0:
197,263,27187,1,0,1:0:0:0:
204,229,27262,1,0,1:0:0:0:
211,194,27337,1,8,1:2:0:0:
240,58,27487,1,0,0:0:0:0:
457,111,27637,6,0,P|431:108|408:99,1,35,4|0,0:0|0:0,0:0:0:0:
371,27,27787,2,0,P|345:30|322:39,1,35
280,132,27937,2,0,P|284:160|285:163,7,17.5,0|0|0|0|0|0|0|0,3:0|3:0|3:0|3:0|3:0|3:0|3:0|3:0,3:0:0:0:
321,234,28237,6,0,P|300:248|277:252,1,35
166,279,28387,2,0,P|187:265|210:261,1,35
254,336,28537,2,0,L|253:349,13,8.75,0|0|0|0|0|0|0|0|0|0|0|0|0|0,3:0|3:0|3:0|3:0|3:0|3:0|3:0|3:0|3:0|3:0|3:0|3:0|3:0|3:0,3:0:0:0:
252,368,28837,5,4,1:2:0:0:
59,272,28987,1,0,1:2:0:0:
254,231,29137,5,8,0:0:0:0:
447,327,29287,1,0,0:0:0:0:
374,180,29437,1,0,0:0:0:0:
358,130,29512,1,0,0:0:0:0:
370,80,29587,1,0,0:0:0:0:
408,45,29662,1,0,0:0:0:0:
459,35,29737,6,0,P|462:80|410:44,1,140,4|0,0:1|0:0,0:0:0:0:
269,101,30037,6,0,P|244:62|241:40,1,43.75,4|0,0:0|0:0,0:0:0:0:
156,175,30187,2,0,P|181:136|184:114,1,43.75,0|0,0:0|0:0,0:0:0:0:
77,157,30337,1,8,0:0:0:0:
76,189,30412,1,0,0:0:0:0:
87,220,30487,1,0,0:0:0:0:
109,244,30562,1,0,0:0:0:0:
139,257,30637,2,0,P|165:262|190:255,1,43.75,0|0,0:0|0:0,0:0:0:0:
340,174,30787,2,0,P|314:169|289:176,1,43.75,0|0,0:0|0:0,0:0:0:0:
294,295,30937,2,0,L|313:313,7,21.875,8|0|0|0|0|0|0|0,0:0|0:0|0:0|0:0|0:0|0:0|0:0|0:0,0:0:0:0:
333,333,31237,6,0,P|365:332|401:313,1,43.75
498,247,31387,2,0,P|466:248|430:267,1,43.75
476,373,31537,2,0,L|488:301,1,43.75,8|0,0:0|0:0,0:0:0:0:
360,167,31687,2,0,L|348:95,1,43.75
418,22,31837,6,2,B|307:40|307:40|292:50|292:50|134:75,1,280
90,102,32161,2,0,P|124:131|85:59,1,315.000012016297,4|0,0:0|0:0,0:0:0:0:
17,143,32437,5,0,0:0:0:0:
21,177,32512,1,0,0:0:0:0:
40,206,32587,1,0,0:0:0:0:
69,226,32662,1,0,0:0:0:0:
103,232,32737,1,8,0:0:0:0:
136,243,32812,1,0,0:0:0:0:
162,265,32887,1,0,0:0:0:0:
178,296,32962,1,0,0:0:0:0:
182,331,33037,6,0,P|174:354|164:369,1,35
6,314,33187,2,0,P|14:291|24:276,1,35
212,203,33337,1,8,0:0:0:0:
246,203,33412,1,0,0:0:0:0:
281,203,33487,1,0,0:0:0:0:
316,204,33562,1,0,0:0:0:0:
351,204,33637,5,0,0:0:0:0:
415,66,33787,1,0,0:0:0:0:
414,330,33937,5,0,0:0:0:0:
328,100,34087,1,0,0:0:0:0:
225,168,34237,6,0,B|175:170|175:170|88:98|161:16,1,210,2|0,0:0|0:0,0:0:0:0:
275,109,34534,6,0,B|306:131|316:175|297:209|297:209|279:244|237:260|201:246|201:246|164:232|143:193|151:155|151:155|165:146|181:143|196:147|196:147|211:152|224:162|230:177|230:177,1,420.000016021729,2|2,0:0|0:0,0:0:0:0:
265,322,34836,5,0,0:0:0:0:
221,325,34911,1,0,0:0:0:0:
178,317,34986,1,0,0:0:0:0:
139,298,35061,1,0,0:0:0:0:
107,269,35136,2,0,P|79:257|46:255,1,43.75,8|0,0:0|0:0,0:0:0:0:
87,363,35286,2,0,P|115:375|148:377,1,43.75
265,322,35436,5,0,0:0:0:0:
309,325,35511,1,0,0:0:0:0:
352,317,35586,1,0,0:0:0:0:
391,298,35661,1,0,0:0:0:0:
423,269,35736,2,0,P|451:257|484:255,1,43.75,8|0,0:0|0:0,0:0:0:0:
425,363,35886,2,0,P|397:375|364:377,1,43.75
265,322,36036,5,0,0:0:0:0:
249,281,36111,1,0,0:0:0:0:
249,237,36186,1,0,0:0:0:0:
265,196,36261,1,0,0:0:0:0:
293,163,36336,2,0,P|309:137|315:103,1,43.75,8|0,0:0|0:0,0:0:0:0:
207,9,36486,2,0,P|191:35|185:69,1,43.75
303,44,36636,6,0,L|370:32,1,43.75
189,128,36786,2,0,L|122:116,1,43.75
66,192,36936,2,0,P|104:212|119:228,1,43.75,8|0,0:0|0:0,0:0:0:0:
206,305,37086,2,0,P|168:285|153:269,1,43.75
246,229,37236,5,0,0:0:0:0:
289,228,37311,1,0,0:0:0:0:
333,228,37386,1,0,0:0:0:0:
377,227,37461,1,0,0:0:0:0:
420,227,37536,2,8,L|436:286,1,43.75,8|0,0:0|0:0,0:0:0:0:
491,112,37686,2,0,L|475:170,1,43.75
418,332,37836,6,0,P|411:289|422:254,1,43.75
501,153,37986,2,0,P|508:196|497:231,1,43.75
366,145,38136,1,8,0:0:0:0:
334,115,38211,1,0,0:0:0:0:
327,73,38286,1,0,0:0:0:0:
346,34,38361,1,0,0:0:0:0:
384,14,38436,5,4,0:0:0:0:
350,57,38511,1,0,0:0:0:0:
299,73,38586,1,0,0:0:0:0:
247,58,38661,1,0,0:0:0:0:
213,17,38736,1,12,0:0:0:0:
160,5,38811,1,0,0:0:0:0:
109,23,38886,1,0,0:0:0:0:
76,65,38961,1,0,0:0:0:0:
69,118,39036,6,0,P|82:167|136:207,1,105.000004005432,2|0,0:0|0:0,0:0:0:0:
176,244,39158,2,0,P|163:195|109:155,1,105.000004005432,2|0,0:0|0:0,0:0:0:0:
66,309,39280,6,0,L|209:284,1,140,2|0,0:0|0:0,0:0:0:0:
306,267,39502,1,2,0:0:0:0:
436,147,39636,5,4,0:0:0:0:
430,130,39711,1,0,0:0:0:0:
424,113,39786,2,0,L|432:78,4,26.2500010013581,2|0|0|0|0,0:0|0:0|0:0|0:0|0:0,0:0:0:0:
299,85,40011,1,0,0:0:0:0:
305,67,40086,2,0,L|297:32,4,26.2500010013581,2|0|0|0|0,0:0|0:0|0:0|0:0|0:0,0:0:0:0:
188,119,40311,1,0,0:0:0:0:
185,100,40386,2,0,L|162:71,4,26.2500010013581,2|0|0|0|0,0:0|0:0|0:0|0:0|0:0,0:0:0:0:
82,172,40611,1,0,0:0:0:0:
71,156,40686,2,0,L|39:139,3,26.2500010013581,2|0|0|0,0:0|0:0|0:0|0:0,0:0:0:0:
32,248,40836,6,0,P|36:281|65:323,1,70
185,258,40986,2,0,P|202:228|207:194,1,70
38,316,41136,6,0,P|22:285|19:251,1,70,8|0,0:0|0:0,0:0:0:0:
219,190,41286,2,0,P|214:227|181:275,1,70
211,344,41436,1,0,0:0:0:0:
252,335,41511,1,0,0:0:0:0:
293,327,41586,1,0,0:0:0:0:
334,319,41661,1,0,0:0:0:0:
375,310,41736,2,0,P|388:268|378:222,1,70,8|0,0:0|0:0,0:0:0:0:
326,168,41886,2,0,P|313:125|323:79,1,70
435,110,42036,5,0,0:0:0:0:
450,112,42111,1,0,0:0:0:0:
465,114,42186,2,0,L|500:112,4,26.2500010013581,2|0|0|0|0,0:0|0:0|0:0|0:0|0:0,0:0:0:0:
367,168,42411,1,0,0:0:0:0:
352,166,42486,2,0,L|317:168,4,26.2500010013581,2|0|0|0|0,0:0|0:0|0:0|0:0|0:0,0:0:0:0:
225,68,42711,1,0,0:0:0:0:
240,70,42786,2,0,L|275:68,4,26.2500010013581,2|0|0|0|0,0:0|0:0|0:0|0:0|0:0,0:0:0:0:
142,124,43011,1,0,0:0:0:0:
127,122,43086,2,0,L|92:124,3,26.2500010013581,2|0|0|0,0:0|0:0|0:0|0:0,0:0:0:0:
75,122,43236,5,0,1:0:0:0:
129,307,43386,1,0,1:0:0:0:
305,166,43536,1,0,1:0:0:0:
56,232,43686,1,0,1:0:0:0:
350,324,43836,1,0,1:0:0:0:
36,224,43986,1,0,1:0:0:0:
254,134,44136,6,0,P|365:168|251:193,1,315.000012016297,4|0,0:2|0:0,0:0:0:0:
181,99,44436,5,4,0:0:0:0:
178,81,44511,1,0,0:0:0:0:
175,63,44586,2,0,L|171:36,4,26.2500010013581,2|0|0|0|0,0:0|0:0|0:0|0:0|0:0,0:0:0:0:
71,87,44811,1,0,0:0:0:0:
68,105,44886,2,0,L|64:132,4,26.2500010013581,2|0|0|0|0,0:0|0:0|0:0|0:0|0:0,0:0:0:0:
128,187,45111,1,0,0:0:0:0:
131,205,45186,2,0,L|135:232,4,26.2500010013581,2|0|0|0|0,0:0|0:0|0:0|0:0|0:0,0:0:0:0:
212,261,45411,1,0,0:0:0:0:
222,276,45486,2,0,L|237:298,3,26.2500010013581,2|0|0|0,0:0|0:0|0:0|0:0,0:0:0:0:
258,324,45636,6,0,L|345:317,1,70
436,255,45786,2,0,L|366:249,1,70
303,191,45936,1,8,0:0:0:0:
289,151,46011,1,0,0:0:0:0:
294,109,46086,1,0,0:0:0:0:
315,73,46161,1,0,0:0:0:0:
349,49,46236,6,0,P|381:45|442:62,1,70
226,152,46386,2,0,P|194:156|133:139,1,70
32,113,46536,1,8,0:0:0:0:
372,149,46686,1,0,0:0:0:0:
216,267,46836,5,4,0:0:0:0:
194,278,46911,1,0,0:0:0:0:
172,289,46986,2,0,L|171:248,4,35,2|0|0|0|0,0:0|0:0|0:0|0:0|0:0,0:0:0:0:
282,186,47211,1,0,0:0:0:0:
304,197,47286,2,0,L|305:156,4,35,2|0|0|0|0,0:0|0:0|0:0|0:0|0:0,0:0:0:0:
198,78,47511,1,0,0:0:0:0:
176,89,47586,2,0,L|175:48,4,35,2|0|0|0|0,0:0|0:0|0:0|0:0|0:0,0:0:0:0:
314,78,47811,1,0,0:0:0:0:
336,89,47886,2,0,L|337:48,3,35,2|0|0|0,0:0|0:0|0:0|0:0,0:0:0:0:
361,37,48036,6,0,B|386:126|386:126|370:183,1,140,2|0,0:0|0:0,0:0:0:0:
349,178,48186,2,0,B|324:267|324:267|340:324,1,140,2|0,0:0|0:0,0:0:0:0:
399,268,48336,5,0,0:0:0:0:
94,213,48486,1,0,0:0:0:0:
464,172,48636,2,0,B|390:180|390:180|373:171|373:171|356:183|356:183|306:189,1,157.500006008148
113,209,48936,6,0,B|224:196|224:196|250:210|250:210|276:192|276:192|352:183,1,210.000008010865,2|0,0:0|0:0,0:0:0:0:
162,56,49236,6,0,P|158:108|177:138,1,70,4|0,0:0|0:0,0:0:0:0:
235,273,49536,1,8,0:0:0:0:
312,173,49686,2,0,L|313:147,4,17.5,0|0|0|0|0,3:0|3:0|3:0|3:0|3:0,3:0:0:0:
391,328,49986,1,0,0:0:0:0:
201,354,50136,2,0,P|150:349|114:326,1,70,8|0,0:0|0:0,0:0:0:0:
99,137,50436,5,2,0:0:0:0:
125,159,50511,1,0,0:0:0:0:
139,190,50586,1,0,0:0:0:0:
138,225,50661,1,0,0:0:0:0:
122,256,50736,2,0,P|98:259|76:257,1,35,8|0,0:0|0:0,0:0:0:0:
263,177,50886,2,0,P|287:174|309:176,1,35
341,343,51036,2,0,L|358:247,1,70
436,62,51336,6,0,B|445:129|445:129|440:149,1,87.5,2|0,0:0|0:0,0:0:0:0:
376,277,51486,2,0,B|367:210|367:210|372:190,1,87.5,2|0,0:0|0:0,0:0:0:0:
461,228,51636,5,4,0:0:0:0:
290,75,51786,1,0,0:0:0:0:
290,75,51861,1,0,0:0:0:0:
290,75,51936,2,0,P|238:63|205:74,1,70,8|0,0:0|0:0,0:0:0:0:
145,194,52236,2,0,P|116:173|99:143,1,70,0|0,1:0|0:0,0:0:0:0:
270,225,52536,2,0,P|282:245|286:253,6,17.5,8|0|0|0|0|0|0,0:0|0:0|0:0|0:0|0:0|0:0|0:0,0:0:0:0:
240,295,52799,6,0,P|261:309|284:313,1,35
364,353,52949,2,0,P|388:348|407:334,1,35
485,300,53099,1,0,0:0:0:0:
494,275,53211,1,0,0:0:0:0:
496,249,53286,1,0,0:0:0:0:
493,223,53361,1,0,0:0:0:0:
484,199,53436,2,0,P|475:180|468:173,7,17.5,0|0|0|0|0|0|0|0,3:0|3:0|3:0|3:0|3:0|3:0|3:0|3:0,3:0:0:0:
459,164,53736,6,0,B|357:172|357:172|348:180|348:180|207:192,1,210.000008010865,2|0,0:0|0:0,0:0:0:0:
93,278,54036,6,0,P|79:228|85:203,1,70,4|0,0:0|0:0,0:0:0:0:
141,112,54261,1,0,0:0:0:0:
150,98,54336,2,0,P|164:48|158:23,1,70,8|0,0:0|0:0,0:0:0:0:
32,66,54636,1,2,0:0:0:0:
249,117,54786,1,0,0:0:0:0:
249,117,54861,1,0,0:0:0:0:
249,117,54936,1,8,0:0:0:0:
153,233,55086,1,0,0:0:0:0:
153,233,55161,1,0,0:0:0:0:
153,233,55236,6,0,P|171:252|194:259,1,35,2|0,0:0|0:0,0:0:0:0:
304,221,55386,2,0,P|286:202|263:195,1,35
141,112,55536,1,8,0:0:0:0:
246,263,55686,1,0,0:0:0:0:
355,128,55836,2,0,L|372:49,1,70
462,175,56136,1,8,0:0:0:0:
454,209,56211,1,0,0:0:0:0:
447,243,56286,1,0,0:0:0:0:
440,277,56361,1,0,0:0:0:0:
433,311,56436,5,4,0:0:0:0:
312,349,56586,1,0,0:0:0:0:
178,274,56736,2,0,P|169:230|176:209,1,35,8|0,0:0|0:0,0:0:0:0:
249,161,56886,2,0,P|258:205|251:226,1,35
99,147,57036,2,0,L|78:143,2,17.5,2|0|0,0:0|0:0|0:0,0:0:0:0:
176,45,57186,2,0,L|197:41,2,17.5,2|0|0,0:0|0:0|0:0,0:0:0:0:
280,95,57336,1,8,0:0:0:0:
313,106,57411,1,0,0:0:0:0:
347,107,57486,1,0,0:0:0:0:
381,98,57561,1,0,0:0:0:0:
411,79,57636,5,0,1:0:0:0:
422,47,57711,1,0,1:0:0:0:
410,15,57786,1,0,1:0:0:0:
380,0,57861,1,0,1:0:0:0:
347,7,57936,2,0,L|328:78,1,70,0|0,1:0|0:0,0:0:0:0:
258,196,58236,1,0,1:0:0:0:
268,229,58311,1,0,1:0:0:0:
279,262,58386,1,0,1:0:0:0:
290,295,58461,1,0,1:0:0:0:
301,329,58536,6,0,P|325:299|217:260,1,210,2|0,0:0|0:0,0:0:0:0:
171,310,58836,5,2,0:0:0:0:
128,319,58911,1,0,0:0:0:0:
88,304,58986,1,0,0:0:0:0:
62,270,59061,1,0,0:0:0:0:
59,227,59136,2,0,P|68:196|86:172,1,43.75,8|0,0:0|0:0,0:0:0:0:
180,113,59286,2,0,P|171:81|153:57,1,43.75
5,92,59436,5,0,0:0:0:0:
45,109,59511,1,0,0:0:0:0:
89,109,59586,1,0,0:0:0:0:
129,92,59661,1,0,0:0:0:0:
160,62,59736,2,0,P|181:49|194:47,7,21.875,8|0|0|0|0|0|0|0,0:0|0:0|0:0|0:0|0:0|0:0|0:0|0:0,0:0:0:0:
249,83,60036,6,0,P|260:34|252:9,1,43.75
182,139,60186,2,0,P|171:188|179:213,1,43.75
265,231,60336,1,8,0:0:0:0:
308,223,60411,1,0,0:0:0:0:
351,215,60486,1,0,0:0:0:0:
394,207,60561,1,0,0:0:0:0:
437,199,60636,6,0,B|418:189|418:189|190:232,1,210,2|0,0:0|0:0,0:0:0:0:
182,353,60936,6,0,B|189:287|189:287|206:338,1,105.000004005432,2|0,0:0|0:0,0:0:0:0:
252,253,61086,2,0,B|245:187|245:187|232:223,1,105.000004005432,2|0,0:0|0:0,0:0:0:0:
155,211,61236,5,0,0:0:0:0:
166,178,61311,1,0,0:0:0:0:
178,145,61386,1,0,0:0:0:0:
190,112,61461,1,0,0:0:0:0:
202,79,61536,1,0,0:0:0:0:
235,51,61611,1,0,0:0:0:0:
277,45,61686,1,0,0:0:0:0:
317,63,61761,1,0,0:0:0:0:
340,99,61836,6,0,P|339:132|316:160,1,43.75
249,256,61986,2,0,P|250:223|273:195,1,43.75
481,295,62136,1,0,0:0:0:0:
439,282,62211,1,0,0:0:0:0:
397,269,62286,1,0,0:0:0:0:
355,256,62361,1,0,0:0:0:0:
313,243,62436,5,0,0:0:0:0:
146,345,62586,1,0,0:0:0:0:
123,142,62736,1,0,0:0:0:0:
319,348,62886,1,0,0:0:0:0:
394,123,63036,5,0,0:0:0:0:
231,370,63186,1,0,0:0:0:0:
105,68,63336,6,0,P|175:87|47:153,1,315.000012016297,4|0,0:0|0:0,0:0:0:0:
24,104,63636,6,0,P|29:127|20:162,1,43.75
2,230,63786,2,0,P|-3:253|6:288,1,43.75
96,329,63936,1,8,0:0:0:0:
122,333,64011,1,0,0:0:0:0:
150,330,64086,1,0,0:0:0:0:
176,322,64161,1,0,0:0:0:0:
200,310,64236,5,0,0:0:0:0:
226,301,64311,1,0,0:0:0:0:
253,298,64386,1,0,0:0:0:0:
280,301,64461,1,0,0:0:0:0:
306,309,64536,2,0,P|311:331|311:347,7,21.875,8|0|0|0|0|0|0|0,0:0|0:0|0:0|0:0|0:0|0:0|0:0|0:0,0:0:0:0:
388,363,64836,6,0,P|382:327|386:308,1,43.75
451,245,64986,2,0,P|457:209|453:190,1,43.75
394,100,65136,1,8,0:0:0:0:
355,80,65211,1,0,0:0:0:0:
312,78,65286,1,0,0:0:0:0:
272,95,65361,1,0,0:0:0:0:
242,127,65436,5,0,0:0:0:0:
211,157,65511,1,0,0:0:0:0:
169,168,65586,1,0,0:0:0:0:
127,160,65661,1,0,0:0:0:0:
93,133,65736,2,0,P|86:118|86:105,7,21.875,8|0|0|0|0|0|0|0,0:0|0:0|0:0|0:0|0:0|0:0|0:0|0:0,0:0:0:0:
169,91,66036,5,0,0:0:0:0:
163,134,66111,1,0,0:0:0:0:
171,177,66186,1,0,0:0:0:0:
190,216,66261,1,0,0:0:0:0:
219,248,66336,2,0,P|243:256|273:250,1,43.75,8|0,0:0|0:0,0:0:0:0:
373,154,66486,2,0,P|349:146|319:152,1,43.75
409,307,66636,6,0,L|416:252,1,43.75
512,207,66786,2,0,L|505:152,1,43.75
472,89,66936,2,0,P|466:69|467:49,7,21.875,8|0|0|0|0|0|0|0,0:0|0:0|0:0|0:0|0:0|0:0|0:0|0:0,0:0:0:0:
484,42,67236,5,0,0:0:0:0:
440,40,67311,1,0,0:0:0:0:
396,39,67386,1,0,0:0:0:0:
352,38,67461,1,0,0:0:0:0:
309,37,67536,2,0,P|253:42|234:52,1,43.75,8|0,0:0|0:0,0:0:0:0:
209,131,67686,2,0,P|152:126|133:116,1,43.75
87,43,67836,5,8,0:3:0:0:
142,281,67986,1,8,0:3:0:0:
371,215,68136,2,0,P|314:193|214:233,1,131.25,4|0,0:0|0:0,0:0:0:0:
309,292,68436,5,4,0:0:0:0:
319,301,68511,1,0,0:0:0:0:
330,309,68586,2,0,L|342:345,4,26.2500010013581,2|0|0|0|0,0:0|0:0|0:0|0:0|0:0,0:0:0:0:
227,329,68811,1,0,0:0:0:0:
216,321,68886,2,0,L|204:285,4,26.2500010013581,2|0|0|0|0,0:0|0:0|0:0|0:0|0:0,0:0:0:0:
113,273,69111,1,0,0:0:0:0:
106,261,69186,2,0,L|110:223,4,26.2500010013581,2|0|0|0|0,0:0|0:0|0:0|0:0|0:0,0:0:0:0:
39,177,69411,1,0,0:0:0:0:
37,163,69486,2,0,L|56:130,3,26.2500010013581,2|0|0|0,0:0|0:0|0:0|0:0,0:0:0:0:
92,88,69636,6,0,P|128:84|154:75,1,52.5000020027161
323,91,69786,2,0,P|287:95|261:104,1,52.5000020027161
189,180,69936,6,0,P|195:205|197:231,1,52.5000020027161,8|0,0:0|0:0,0:0:0:0:
209,51,70086,2,0,P|202:25|200:0,1,52.5000020027161
308,166,70236,1,0,0:0:0:0:
348,174,70311,1,0,0:0:0:0:
389,165,70386,1,0,0:0:0:0:
422,139,70461,1,0,0:0:0:0:
441,102,70536,2,0,P|443:57|420:29,1,52.5000020027161,8|0,0:0|0:0,0:0:0:0:
308,166,70686,2,0,P|306:211|329:239,1,52.5000020027161
401,323,70836,5,4,0:0:0:0:
415,323,70911,1,0,0:0:0:0:
429,323,70986,2,0,L|461:323,4,26.2500010013581,2|0|0|0|0,0:0|0:0|0:0|0:0|0:0,0:0:0:0:
290,294,71211,1,0,0:0:0:0:
304,294,71286,2,0,L|336:294,4,26.2500010013581,2|0|0|0|0,0:0|0:0|0:0|0:0|0:0,0:0:0:0:
175,263,71511,1,0,0:0:0:0:
189,263,71586,2,0,L|221:263,4,26.2500010013581,2|0|0|0|0,0:0|0:0|0:0|0:0|0:0,0:0:0:0:
62,229,71811,1,0,0:0:0:0:
76,229,71886,2,0,L|108:229,3,26.2500010013581,2|0|0|0,0:0|0:0|0:0|0:0,0:0:0:0:
123,203,72036,6,0,P|133:145|121:99,1,105.000004005432,4|0,0:0|0:0,0:0:0:0:
16,157,72336,6,0,B|-10:186|-10:186|-21:223|-21:223|-15:259|-15:259|8:296|8:296|43:317|43:317|66:322,1,210.000008010865,2|2,0:0|0:0,0:0:0:0:
274,355,72636,5,0,1:0:0:0:
71,322,72786,1,0,1:0:0:0:
366,293,72936,2,0,L|373:142,1,140,4|0,0:0|0:0,0:0:0:0:
307,50,73236,5,4,0:0:0:0:
307,50,73311,1,0,0:0:0:0:
307,50,73386,2,0,L|272:48,4,26.2500010013581,2|0|0|0|0,0:0|0:0|0:0|0:0|0:0,0:0:0:0:
193,138,73611,1,0,0:0:0:0:
193,138,73686,2,0,L|228:136,4,26.2500010013581,2|0|0|0|0,0:0|0:0|0:0|0:0|0:0,0:0:0:0:
303,233,73911,1,0,0:0:0:0:
303,233,73986,2,0,L|268:231,4,26.2500010013581,2|0|0|0|0,0:0|0:0|0:0|0:0|0:0,0:0:0:0:
189,321,74211,1,0,0:0:0:0:
189,321,74286,2,0,L|224:319,3,26.2500010013581,2|0|0|0,0:0|0:0|0:0|0:0,0:0:0:0:
271,365,74436,6,0,P|304:349|328:317,1,70
410,299,74586,2,0,P|422:264|416:224,1,70
467,151,74736,1,8,0:0:0:0:
446,103,74811,1,0,0:0:0:0:
408,68,74886,1,0,0:0:0:0:
358,53,74961,1,0,0:0:0:0:
306,60,75036,6,0,P|252:68|210:55,1,70
92,23,75186,2,0,P|146:15|188:28,1,70
190,264,75336,1,8,0:0:0:0:
132,99,75486,1,0,0:0:0:0:
54,282,75636,5,4,0:0:0:0:
60,303,75711,1,0,0:0:0:0:
66,324,75786,2,0,L|103:324,4,26.2500010013581,2|0|0|0|0,0:0|0:0|0:0|0:0|0:0,0:0:0:0:
184,285,76011,1,0,0:0:0:0:
190,264,76086,2,0,L|226:264,4,26.2500010013581,2|0|0|0|0,0:0|0:0|0:0|0:0|0:0,0:0:0:0:
283,325,76311,1,0,0:0:0:0:
289,346,76386,2,0,L|325:346,4,26.2500010013581,2|0|0|0|0,0:0|0:0|0:0|0:0|0:0,0:0:0:0:
403,254,76611,1,0,0:0:0:0:
409,233,76686,2,0,L|445:233,3,26.2500010013581,2|0|0|0,0:0|0:0|0:0|0:0,0:0:0:0:
503,271,76836,6,0,L|515:179,1,70,4|0,0:0|0:0,0:0:0:0:
407,129,76986,2,0,L|395:37,1,70
481,14,77136,5,0,0:0:0:0:
200,58,77286,1,0,0:0:0:0:
444,233,77436,2,0,B|370:225|370:225|353:234|353:234|336:222|336:222|286:216,1,157.500006008148,0|0,1:0|0:0,0:0:0:0:
93,196,77736,6,0,B|204:209|204:209|230:195|230:195|256:213|256:213|332:222,1,210.000008010865,2|0,0:0|0:0,0:0:0:0:
228,356,78036,6,0,P|217:311|221:270,1,70,4|0,0:0|0:0,0:0:0:0:
292,217,78336,2,0,P|303:172|299:131,1,70,2|0,0:0|0:0,0:0:0:0:
196,50,78636,6,0,P|113:36|56:118,1,157.500006008148,0|0,1:0|0:0,0:0:0:0:
148,258,78936,2,0,L|142:96,1,140,2|0,0:0|0:0,0:0:0:0:
75,241,79236,5,2,0:0:0:0:
216,266,79386,1,0,0:0:0:0:
56,316,79536,1,2,0:0:0:0:
197,341,79686,1,0,0:0:0:0:
388,274,79836,6,0,P|403:237|310:137,1,157.500006008148,0|0,1:0|0:0,0:0:0:0:
185,151,80136,2,0,P|249:218|354:205,1,140,2|0,0:0|0:0,0:0:0:0:
295,61,80436,5,2,0:0:0:0:
292,225,80586,1,0,0:0:0:0:
401,94,80736,2,0,L|484:83,1,70,2|0,0:0|0:0,0:0:0:0:
275,43,81036,6,0,B|222:50|222:50|207:67|207:67|116:74,1,157.500006008148,0|0,1:0|0:0,0:0:0:0:
116,166,81336,2,0,B|47:115|47:115|39:30,1,140,2|0,0:0|0:0,0:0:0:0:
224,194,81637,6,0,P|238:245|230:283,1,87.5,2|0,0:0|0:0,0:0:0:0:
85,347,81937,2,0,P|71:296|79:258,1,87.5,2|0,0:0|0:0,0:0:0:0:
414,116,82236,6,0,P|319:41|254:195,1,315.000012016297,4|0,0:0|0:0,0:0:0:0:
323,133,82542,2,0,P|418:208|483:54,1,315.000012016297,4|0,0:0|0:0,0:0:0:0:
414,116,82836,6,0,P|405:163|416:195,1,70,4|0,0:0|0:0,0:0:0:0:
469,281,83136,2,0,P|478:328|467:360,1,70,2|0,0:0|0:0,0:0:0:0:
264,334,83436,6,0,P|341:361|410:282,1,157.500006008148,0|0,1:0|0:0,0:0:0:0:
313,147,83736,2,0,B|294:216|294:216|338:297,1,140,2|0,0:0|0:0,0:0:0:0:
400,135,84036,5,2,0:0:0:0:
367,25,84186,1,0,0:0:0:0:
278,168,84336,1,2,0:0:0:0:
245,58,84486,1,0,0:0:0:0:
63,137,84636,6,0,B|137:148|137:148|174:133|174:133|259:143,1,157.500006008148,0|0,1:0|0:0,1:0:0:0:
196,276,84936,2,0,L|223:88,1,140,2|0,0:0|0:0,0:0:0:0:
89,268,85236,5,2,0:0:0:0:
272,250,85386,1,0,0:0:0:0:
200,368,85536,2,0,P|145:351|126:326,1,70,2|0,0:0|0:0,0:0:0:0:
309,316,85836,6,0,P|366:326|400:220,1,157.500006008148,0|0,1:0|0:0,0:0:0:0:
413,148,86136,2,0,P|349:204|390:306,1,140,2|0,0:0|0:0,0:0:0:0:
493,160,86436,6,0,B|507:133|507:133|505:61,1,87.5,0|0,1:0|0:0,0:0:0:0:
387,0,86736,2,0,B|373:27|373:27|375:99,1,87.5,2|0,0:0|0:0,0:0:0:0:
410,192,87036,6,0,B|300:192|300:192|292:199|292:199|219:199|219:199|211:192|211:192|101:192,1,315.000012016297,4|0,0:0|0:0,0:0:0:0:
73,179,87342,2,0,B|183:179|183:179|190:171|190:171|263:171|263:171|271:179|271:179|381:179,1,315.000012016297,4|0,0:0|0:0,0:0:0:0:
482,177,87633,5,0,1:0:0:0:
410,333,87933,1,0,1:0:0:0:
486,166,88233,5,0,1:0:0:0:
405,343,88383,1,0,1:0:0:0:
243,103,88533,1,4,1:0:0:0:
150,256,88790,6,0,P|108:241|73:198,1,87.5,4|0,0:0|0:0,0:0:0:0:
111,59,89090,1,8,0:0:0:0:
111,59,89165,1,0,0:0:0:0:
111,59,89240,1,0,0:0:0:0:
235,208,89390,2,0,P|203:176|187:127,1,87.5
352,25,89690,2,0,P|340:68|305:107,1,87.5,8|0,0:0|0:0,0:0:0:0:
331,202,89990,5,2,0:0:0:0:
374,207,90065,1,0,0:0:0:0:
417,213,90140,1,0,0:0:0:0:
461,219,90215,1,0,0:0:0:0:
504,225,90290,1,8,0:0:0:0:
488,347,90440,1,0,0:0:0:0:
295,304,90590,6,0,P|282:272|290:228,1,43.75,0|0,3:0|3:0,3:0:0:0:
378,147,90740,2,0,P|391:115|428:89,1,43.75,0|0,3:0|3:0,3:0:0:0:
461,219,90890,1,8,0:0:0:0:
405,343,91040,2,0,L|377:344,3,21.875,0|0|0|0,3:0|3:0|3:0|3:0,3:0:0:0:
365,357,91190,6,0,P|311:362|276:343,1,87.5,4|0,0:0|0:0,0:0:0:0:
223,193,91490,2,0,P|169:188|134:207,1,87.5,8|0,0:0|0:0,0:0:0:0:
70,314,91790,1,2,0:0:0:0:
189,260,91940,1,2,0:0:0:0:
54,319,92090,1,2,0:0:0:0:
259,357,92240,1,2,0:0:0:0:
331,243,92390,6,0,L|339:126,1,87.5
222,87,92690,2,0,L|230:204,1,87.5,8|0,0:0|0:0,0:0:0:0:
388,89,92990,2,0,P|333:73|280:91,1,87.5
232,254,93290,1,8,0:0:0:0:
153,137,93440,1,0,0:0:0:0:
68,240,93590,5,0,3:0:0:0:
34,59,93740,2,0,L|10:52,4,21.875,0|0|0|0|0,3:0|3:0|3:0|3:0|3:0,3:0:0:0:
223,108,94040,1,0,3:0:0:0:
158,259,94190,6,0,P|146:234|142:198,1,43.75,2|0,0:0|0:0,0:0:0:0:
242,299,94340,2,0,P|254:274|258:238,1,43.75,2|0,0:0|0:0,0:0:0:0:
73,335,94490,6,0,P|61:310|57:274,1,43.75,2|0,0:0|0:0,0:0:0:0:
157,375,94640,2,0,P|169:350|173:314,1,43.75,2|0,0:0|0:0,0:0:0:0:
321,316,94790,5,0,0:0:0:0:
401,191,94940,2,0,L|400:165,4,21.875,0|0|0|0|0,3:0|3:0|3:0|3:0|3:0,3:0:0:0:
448,356,95240,1,0,3:0:0:0:
296,213,95390,5,0,0:0:0:0:
288,195,95465,1,0,0:0:0:0:
280,177,95540,2,0,L|280:146,2,21.875,0|0|0,3:0|3:0|3:0,3:0:0:0:
356,113,95690,1,0,0:0:0:0:
364,95,95765,1,0,0:0:0:0:
372,77,95840,2,0,L|372:46,2,21.875,0|0|0,3:0|3:0|3:0,3:0:0:0:
286,49,95990,5,2,0:0:0:0:
246,30,96065,1,2,0:0:0:0:
203,28,96140,1,2,0:0:0:0:
162,44,96215,1,2,0:0:0:0:
132,74,96290,1,2,0:0:0:0:
118,104,96365,1,2,0:0:0:0:
114,136,96440,1,2,0:0:0:0:
119,169,96515,1,2,0:0:0:0:
133,198,96590,6,0,P|147:237|143:293,1,87.5,2|0,0:0|0:0,0:0:0:0:
47,362,96890,2,0,P|33:323|37:267,1,87.5,8|0,0:0|0:0,0:0:0:0:
163,266,97190,2,0,L|256:275,1,87.5,2|0,0:0|0:0,0:0:0:0:
289,369,97490,2,0,L|382:360,1,87.5,8|0,0:0|0:0,0:0:0:0:
453,283,97715,1,0,0:0:0:0:
453,283,97790,5,0,0:0:0:0:
374,175,97940,2,0,L|365:136,3,21.875,0|0|0|0,3:0|3:0|3:0|3:0,3:0:0:0:
397,172,98090,6,0,B|367:10|367:10|331:-4|294:17|294:17|308:97,1,315.000012016297,4|0,0:0|0:0,0:0:0:0:
244,132,98390,5,4,0:0:0:0:
229,133,98465,1,0,0:0:0:0:
215,135,98540,2,0,L|189:113,4,21.875,2|0|0|0|0,0:0|0:0|0:0|0:0|0:0,0:0:0:0:
108,194,98765,1,0,0:0:0:0:
122,196,98840,2,0,L|148:174,4,21.875,2|0|0|0|0,0:0|0:0|0:0|0:0|0:0,0:0:0:0:
240,238,99065,1,0,0:0:0:0:
226,240,99140,2,0,L|200:218,4,21.875,2|0|0|0|0,0:0|0:0|0:0|0:0|0:0,0:0:0:0:
119,299,99365,1,0,0:0:0:0:
133,301,99440,2,0,L|159:279,3,21.875,2|0|0|0,0:0|0:0|0:0|0:0,0:0:0:0:
206,351,99590,6,0,P|236:354|290:329,1,70
408,249,99740,2,0,P|378:246|324:271,1,70
461,338,99890,1,8,0:0:0:0:
488,306,99965,1,0,0:0:0:0:
503,267,100040,1,0,0:0:0:0:
504,225,100115,1,0,0:0:0:0:
490,186,100190,5,0,0:0:0:0:
463,154,100265,1,0,0:0:0:0:
434,124,100340,1,0,0:0:0:0:
426,83,100415,1,0,0:0:0:0:
439,44,100490,2,0,P|466:31|520:41,1,70,8|0,0:0|0:0,0:0:0:0:
343,95,100640,2,0,P|316:108|262:98,1,70
180,65,100790,5,0,0:0:0:0:
162,57,100865,1,0,0:0:0:0:
144,49,100940,2,0,L|109:56,4,26.2500010013581,2|0|0|0|0,0:0|0:0|0:0|0:0|0:0,0:0:0:0:
199,170,101165,1,0,0:0:0:0:
217,178,101240,2,0,L|252:171,4,26.2500010013581,2|0|0|0|0,0:0|0:0|0:0|0:0|0:0,0:0:0:0:
343,95,101465,1,0,0:0:0:0:
361,87,101540,2,0,L|396:94,4,26.2500010013581,2|0|0|0|0,0:0|0:0|0:0|0:0|0:0,0:0:0:0:
456,206,101765,1,0,0:0:0:0:
438,214,101840,2,0,L|403:207,3,26.2500010013581,2|0|0|0,0:0|0:0|0:0|0:0,0:0:0:0:
386,203,101990,5,0,1:0:0:0:
181,296,102140,1,0,1:0:0:0:
378,342,102290,1,0,1:0:0:0:
102,276,102440,1,0,1:0:0:0:
226,65,102590,1,0,1:0:0:0:
260,313,102740,1,0,1:0:0:0:
47,196,102890,6,0,B|128:224|192:192|192:192|256:160|360:192,1,315.000012016297,4|0,0:0|0:0,0:0:0:0:
435,220,103190,5,4,0:0:0:0:
426,232,103265,1,0,0:0:0:0:
417,244,103340,2,0,L|415:277,4,26.2500010013581,2|0|0|0|0,0:0|0:0|0:0|0:0|0:0,0:0:0:0:
317,266,103565,1,0,0:0:0:0:
308,278,103640,2,0,L|306:311,4,26.2500010013581,2|0|0|0|0,0:0|0:0|0:0|0:0|0:0,0:0:0:0:
197,293,103865,1,0,0:0:0:0:
188,305,103940,2,0,L|186:338,4,26.2500010013581,2|0|0|0|0,0:0|0:0|0:0|0:0|0:0,0:0:0:0:
88,327,104165,1,0,0:0:0:0:
79,339,104240,2,0,L|77:372,3,26.2500010013581,2|0|0|0,0:0|0:0|0:0|0:0,0:0:0:0:
14,308,104390,6,0,P|9:257|29:206,1,70
105,154,104540,2,0,P|137:114|187:92,1,70
266,157,104690,1,8,0:0:0:0:
300,153,104765,1,0,0:0:0:0:
335,150,104840,1,0,0:0:0:0:
370,147,104915,1,0,0:0:0:0:
405,143,104990,6,0,P|432:103|432:65,1,70
266,157,105140,2,0,P|239:197|239:235,1,70
321,324,105290,1,8,0:0:0:0:
364,82,105440,1,0,0:0:0:0:
451,218,105590,5,4,0:0:0:0:
451,218,105665,1,0,0:0:0:0:
451,218,105740,2,0,L|496:215,4,26.2500010013581,2|0|0|0|0,0:0|0:0|0:0|0:0|0:0,0:0:0:0:
363,281,105965,1,0,0:0:0:0:
363,281,106040,2,0,L|408:278,4,26.2500010013581,2|0|0|0|0,0:0|0:0|0:0|0:0|0:0,0:0:0:0:
283,206,106265,1,0,0:0:0:0:
283,206,106340,2,0,L|328:203,4,26.2500010013581,2|0|0|0|0,0:0|0:0|0:0|0:0|0:0,0:0:0:0:
195,269,106565,1,0,0:0:0:0:
195,269,106640,2,0,L|240:266,3,26.2500010013581
246,281,106790,5,0,1:0:0:0:
177,49,106940,1,0,1:0:0:0:
49,153,107090,5,0,1:0:0:0:
360,72,107240,1,0,1:0:0:0:
3,29,107390,1,0,1:0:0:0:
341,344,107690,6,0,B|292:260|345:192|345:192|395:133|346:26,1,315.000012016297,4|0,0:0|0:0,0:0:0:0:
196,118,107990,6,0,L|310:109,1,87.5,4|0,0:0|0:0,0:0:0:0:
468,170,108290,2,0,L|354:161,1,87.5
256,228,108590,1,8,0:0:0:0:
261,246,108740,1,0,0:0:0:0:
366,362,108890,2,0,P|381:304|361:264,1,87.5
248,350,109190,6,0,L|129:323,1,87.5,8|0,0:0|0:0,0:0:0:0:
85,263,109490,1,0,0:0:0:0:
79,252,109565,1,0,0:0:0:0:
76,239,109640,1,0,0:0:0:0:
146,155,109790,5,8,0:0:0:0:
155,135,109865,1,0,0:0:0:0:
158,113,109940,1,0,0:0:0:0:
156,92,110015,1,0,0:0:0:0:
147,72,110090,2,0,P|97:57|72:57,1,43.75
19,114,110240,2,0,P|69:129|94:129,1,43.75
190,219,110390,6,0,L|300:195,1,87.5,8|0,0:0|0:0,0:0:0:0:
416,271,110690,2,0,L|306:247,1,87.5
260,293,110990,1,8,0:0:0:0:
317,357,111140,1,0,0:0:0:0:
430,249,111290,2,0,P|445:220|437:158,1,87.5
369,23,111590,6,0,P|354:52|362:114,1,87.5,8|0,0:0|0:0,0:0:0:0:
473,82,111890,1,0,0:0:0:0:
462,81,111965,1,0,0:0:0:0:
451,80,112040,1,0,0:0:0:0:
297,162,112190,5,8,0:0:0:0:
280,160,112265,1,0,0:0:0:0:
264,156,112340,1,0,0:0:0:0:
250,149,112415,1,0,0:0:0:0:
236,139,112490,1,0,0:0:0:0:
225,127,112565,1,0,0:0:0:0:
216,114,112640,1,0,0:0:0:0:
209,99,112715,1,0,0:0:0:0:
205,83,112790,6,0,P|211:144|186:186,1,87.5,4|0,0:0|0:0,0:0:0:0:
82,202,113090,2,0,P|76:263|101:305,1,87.5
206,329,113390,1,8,0:0:0:0:
121,360,113540,1,0,0:0:0:0:
270,380,113690,2,0,P|312:360|336:304,1,87.5
371,194,113990,6,0,P|329:214|305:270,1,87.5,8|0,0:0|0:0,0:0:0:0:
431,283,114290,1,0,0:0:0:0:
431,283,114365,1,0,0:0:0:0:
431,283,114440,1,0,0:0:0:0:
473,114,114590,5,8,0:0:0:0:
473,114,114665,1,0,0:0:0:0:
473,114,114740,1,0,0:0:0:0:
473,114,114815,1,0,0:0:0:0:
473,114,114890,2,0,P|430:109|406:100,1,43.75
354,49,115040,2,0,P|311:54|287:63,1,43.75
207,65,115190,6,0,B|207:106|192:145|166:176|166:176|176:153|200:140|224:146|224:146|248:152|264:174|261:199|261:199|250:221|252:247|263:268|263:268|274:289|296:303|320:307|320:307|311:337|283:356|252:353|252:353|221:350|197:325|192:295|192:295|186:279|169:270|152:271|152:271|134:271|118:281|110:297|110:297|102:313|104:332|114:346,1,731.499980466843,2|0,0:0|0:0,0:0:0:0:
3,313,116990,6,0,B|18:267|64:240|111:250|111:250|157:261|189:304|183:352|183:352|204:293|194:241|154:180|154:180|128:142|127:87|158:50|158:50|189:12|244:5|284:32|284:32|325:57|339:111|318:154|318:154|301:199|323:249|368:267|368:267|412:285|463:264|481:220|481:220|500:175|480:125|436:105,1,1225.00001168251,4|0,0:0|0:0,0:0:0:0:
402,129,117815,1,0,0:0:0:0:
419,92,117890,1,0,0:0:0:0:
452,69,117965,1,0,0:0:0:0:
492,67,118036,6,0,P|502:100|507:135,1,70,4|0,0:0|0:0,0:0:0:0:
433,313,118186,2,0,P|423:280|417:244,1,70
320,184,118336,2,0,L|278:182,7,35,8|0|0|0|0|0|0|0,0:0|0:0|0:0|0:0|0:0|0:0|0:0|0:0,0:0:0:0:
250,118,118636,6,2,P|185:154|156:202,1,70
94,292,118786,2,2,P|29:256|0:208,1,70
83,60,118936,1,10,0:0:0:0:
111,90,119011,1,0,0:0:0:0:
123,130,119086,1,2,0:0:0:0:
117,171,119161,1,0,0:0:0:0:
95,206,119236,6,0,B|77:177|77:177|74:130,1,70,6|0,0:0|0:0,0:0:0:0:
228,22,119386,2,0,B|246:51|246:51|249:98,1,70
206,238,119536,2,0,P|276:187|318:185,1,70,10|0,0:0|0:0,0:0:0:0:
436,236,119686,2,0,P|366:287|324:289,1,70
386,25,119836,5,0,0:0:0:0:
382,59,119911,1,0,0:0:0:0:
378,94,119986,1,2,0:0:0:0:
375,129,120061,1,0,0:0:0:0:
373,164,120136,2,0,L|370:206,7,35,8|0|2|0|0|0|0|0,0:0|0:0|0:0|0:0|0:0|0:0|0:0|0:0,0:0:0:0:
324,251,120436,6,0,P|324:292|339:329,1,70,6|0,0:0|0:0,0:0:0:0:
496,369,120586,2,0,P|496:328|481:291,1,70,2|0,0:0|0:0,0:0:0:0:
237,281,120736,1,8,0:0:0:0:
218,294,120811,1,0,0:0:0:0:
199,307,120886,2,0,P|149:314|108:306,1,70,2|0,0:0|0:0,0:0:0:0:
129,162,121036,6,0,P|160:201|173:241,1,70,2|0,0:0|0:0,0:0:0:0:
38,299,121186,2,0,P|56:252|84:220,1,70
203,124,121336,1,10,0:0:0:0:
230,102,121411,1,0,0:0:0:0:
250,74,121486,1,0,0:0:0:0:
260,40,121561,1,0,0:0:0:0:
259,5,121636,6,0,P|203:23|159:12,1,70
20,104,121786,2,0,P|76:86|120:97,1,70
171,216,121936,1,8,0:0:0:0:
207,235,122011,1,0,0:0:0:0:
249,240,122086,1,0,0:0:0:0:
289,230,122161,1,0,0:0:0:0:
324,207,122236,2,0,P|351:139|314:60,1,140,6|0,0:0|0:0,0:0:0:0:
109,151,122536,2,0,P|82:219|119:298,1,140,2|2,0:0|0:0,0:0:0:0:
234,348,122836,6,0,B|298:340|298:340|346:302,1,122.500001168251,4|0,0:0|0:0,0:0:0:0:
426,175,123136,1,0,0:0:0:0:
426,175,123211,1,0,0:0:0:0:
426,175,123286,2,0,B|362:183|362:183|314:221,1,122.500001168251,0|2,0:0|0:0,0:0:0:0:
348,326,123586,1,0,0:0:0:0:
196,189,123736,1,2,0:0:0:0:
237,292,123886,1,2,0:0:0:0:
114,336,124036,5,0,0:0:0:0:
203,172,124186,1,2,0:0:0:0:
249,303,124336,1,2,0:0:0:0:
371,105,124486,1,2,0:0:0:0:
230,29,124636,5,0,0:0:0:0:
186,15,124711,1,0,0:0:0:0:
141,21,124786,1,0,0:0:0:0:
102,45,124861,1,0,0:0:0:0:
76,83,124936,2,0,P|74:96|76:119,6,30.6250002920628,0|0|0|0|0|0|0,3:0|3:0|3:0|3:0|3:0|3:0|3:0,3:0:0:0:
133,243,125236,5,4,0:0:0:0:
130,253,125311,1,0,0:0:0:0:
127,263,125386,2,0,L|72:263,4,30.6250002920628,2|0|0|0|0,0:0|0:0|0:0|0:0|0:0,0:0:0:0:
211,307,125611,1,0,0:0:0:0:
214,297,125686,2,0,L|269:297,4,30.6250002920628,2|0|0|0|0,0:0|0:0|0:0|0:0|0:0,0:0:0:0:
326,252,125911,1,0,0:0:0:0:
329,262,125986,2,0,L|384:262,4,30.6250002920628,2|0|0|0|0,0:0|0:0|0:0|0:0|0:0,0:0:0:0:
443,216,126211,1,0,0:0:0:0:
446,206,126286,2,0,L|501:206,3,30.6250002920628,2|0|0|0,0:0|0:0|0:0|0:0,0:0:0:0:
504,205,126436,5,2,0:0:0:0:
401,30,126586,1,0,0:0:0:0:
364,264,126736,1,0,1:0:0:0:
192,151,126886,1,0,1:0:0:0:
481,73,127036,2,0,P|420:115|315:57,1,183.750001752377,4|0,0:0|0:0,0:0:0:0:
180,71,127336,6,0,B|222:126|222:126|277:152|277:152|330:161|330:161|397:147|397:147|452:115|452:115|480:75|480:75|493:35,1,367.500003504753,2|0,0:0|0:0,0:0:0:0:
325,76,127636,6,0,P|295:43|285:8,1,70,2|0,0:0|0:0,0:0:0:0:
180,71,127936,2,0,P|204:111|204:136,1,70,8|0,0:0|0:0,0:0:0:0:
94,271,128236,2,0,L|115:125,1,140,8|8,0:0|0:0,0:0:0:0:
62,47,128686,1,0,0:0:0:0:
1,222,128836,6,0,P|32:183|46:145,1,70,10|0,0:0|0:0,0:0:0:0:
119,241,129136,2,0,P|135:271|158:298,1,70,8|0,0:0|0:0,0:0:0:0:
255,347,129436,2,0,P|303:345|356:259,1,140,8|8,0:0|0:0,0:0:0:0:
323,178,129886,1,0,0:0:0:0:
273,261,130036,5,4,0:0:0:0:
230,186,130186,1,0,0:0:0:0:
342,160,130336,2,0,P|386:158|414:170,1,70,8|0,0:0|0:0,0:0:0:0:
405,358,130636,2,0,P|373:314|372:224,1,140,8|8,0:0|0:0,0:0:0:0:
460,230,131086,1,0,0:0:0:0:
437,77,131236,6,0,P|434:122|446:147,1,70,10|0,0:0|0:0,0:0:0:0:
329,111,131536,2,0,P|332:156|320:181,1,70,8|0,0:0|0:0,0:0:0:0:
235,218,131836,2,0,B|186:220|186:220|91:184,1,140,10|4,0:0|0:0,0:0:0:0:
0,141,132286,1,0,0:0:0:0:
240,53,132436,6,0,P|248:93|242:121,1,70,4|0,0:0|0:0,0:0:0:0:
141,82,132736,1,8,0:0:0:0:
141,82,132886,1,0,0:0:0:0:
31,213,133036,2,0,P|23:252|76:343,1,140,8|8,0:0|0:0,0:0:0:0:
157,295,133486,1,0,0:0:0:0:
250,340,133636,6,0,P|271:302|275:267,1,70,2|0,0:0|0:0,0:0:0:0:
195,218,133936,2,0,P|174:180|170:145,1,70,8|0,0:0|0:0,0:0:0:0:
262,86,134236,2,0,P|308:78|409:138,1,140,8|8,0:0|0:0,0:0:0:0:
458,201,134686,1,0,0:0:0:0:
323,228,134836,6,0,P|362:221|398:232,1,70,2|0,0:0|0:0,0:0:0:0:
360,310,135136,1,8,0:0:0:0:
258,262,135286,1,0,0:0:0:0:
180,341,135436,2,8,P|123:331|39:362,1,140,0|8,0:0|0:0,0:0:0:0:
18,262,135886,1,0,0:0:0:0:
111,208,136036,6,0,P|120:172|110:140,1,70
18,52,136336,2,0,P|9:88|19:120,1,70,8|0,0:0|0:0,0:0:0:0:
123,45,136636,2,8,L|284:37,1,140,0|8,0:0|0:0,0:0:0:0:
378,118,137236,5,4,0:0:0:0:
259,40,137386,1,0,0:0:0:0:
397,130,137536,5,0,0:0:0:0:
199,206,137686,1,0,0:0:0:0:
248,31,137836,5,0,1:0:0:0:
330,305,137986,1,0,1:0:0:0:
468,108,138136,1,4,0:0:0:0:
287,124,141512,6,0,B|237:140|187:107|187:107|137:140|87:124,1,210,0|0,1:0|0:0,0:0:0:0:
299,48,141812,2,0,P|357:90|319:195,1,140,0|0,1:0|0:0,0:0:0:0:
278,347,142112,6,0,P|253:279|312:191,1,175,0|0,1:0|0:0,0:0:0:0:
380,212,142562,1,0,0:0:0:0:
346,287,142712,1,8,0:0:0:0:
431,278,142862,1,0,0:0:0:0:
464,184,143012,2,0,P|467:158|434:100,1,87.5
265,96,143312,6,0,L|450:105,1,175,0|0,1:0|0:0,0:0:0:0:
494,46,143762,1,0,0:0:0:0:
339,74,143912,2,0,P|292:58|264:24,1,87.5,8|0,0:0|0:0,0:0:0:0:
158,25,144212,2,0,P|111:41|83:75,1,87.5,0|0,1:0|0:0,1:0:0:0:
128,272,144512,6,0,L|160:92,1,175,4|0,1:0|0:0,1:0:0:0:
67,155,144962,1,0,0:0:0:0:
165,214,145112,2,0,P|197:181|209:141,1,87.5,8|0,0:0|0:0,0:0:0:0:
87,250,145412,2,0,P|55:283|43:323,1,87.5
291,344,145712,6,0,P|243:320|92:334,1,175,0|0,1:0|0:0,0:0:0:0:
84,377,146162,1,0,0:0:0:0:
181,317,146312,2,0,P|201:279|204:226,1,87.5,8|0,0:0|0:0,0:0:0:0:
135,191,146612,2,0,P|115:153|112:100,1,87.5,2|0,0:0|0:0,0:0:0:0:
206,53,146912,6,0,B|247:30|296:53|296:53|350:75|401:45,1,175,4|0,0:0|0:0,0:0:0:0:
464,15,147362,1,0,0:0:0:0:
424,113,147512,2,0,L|408:215,1,87.5,8|0,0:0|0:0,0:0:0:0:
476,290,147812,1,0,0:0:0:0:
476,290,147962,1,0,0:0:0:0:
378,337,148112,6,0,P|329:323|281:211,1,175,0|0,1:0|0:0,0:0:0:0:
306,131,148562,1,0,0:0:0:0:
206,178,148712,1,8,0:0:0:0:
174,186,148787,1,8,0:0:0:0:
141,182,148862,1,8,0:0:0:0:
113,167,148937,1,8,0:0:0:0:
91,143,149012,2,0,P|68:100|68:51,1,87.5,0|0,1:0|0:0,0:0:0:0:
290,0,149312,6,0,P|232:8|137:96,1,175,0|0,1:0|0:0,0:0:0:0:
144,184,149762,1,0,0:0:0:0:
207,260,149912,2,0,P|251:251|279:217,1,87.5,8|0,0:0|0:0,0:0:0:0:
128,259,150212,2,0,P|84:268|56:302,1,87.5
138,363,150512,5,0,1:0:0:0:
202,247,150662,1,0,1:0:0:0:
295,362,150812,5,0,1:0:0:0:
303,229,150962,1,0,1:0:0:0:
434,320,151112,5,2,1:0:0:0:
374,167,151262,1,2,1:0:0:0:
512,194,151412,5,2,1:0:0:0:
392,80,151562,1,2,1:0:0:0:
268,109,151712,6,0,P|217:114|123:34,1,175,4|0,1:0|0:0,0:0:0:0:
29,74,152162,1,0,0:0:0:0:
95,182,152312,2,0,P|51:197|7:179,1,87.5,8|0,0:0|0:0,0:0:0:0:
167,171,152612,1,0,0:0:0:0:
136,263,152762,1,0,0:0:0:0:
196,342,152912,6,0,L|375:308,1,175,0|0,1:0|0:0,0:0:0:0:
427,225,153362,1,0,0:0:0:0:
343,160,153512,2,0,P|322:207|326:255,1,87.5,8|0,0:0|0:0,0:0:0:0:
446,210,153812,2,0,P|467:163|463:115,1,87.5,0|0,1:0|0:0,0:0:0:0:
396,46,154112,6,0,B|350:71|350:71|204:64,1,175,0|0,1:0|0:0,0:0:0:0:
123,31,154562,1,0,0:0:0:0:
97,113,154712,1,8,0:0:0:0:
118,197,154862,1,0,0:0:0:0:
183,254,155012,2,0,P|241:261|281:242,1,87.5,0|0,1:0|0:0,0:0:0:0:
124,35,155312,5,0,3:0:0:0:
103,73,155387,1,0,3:0:0:0:
96,116,155462,1,0,3:0:0:0:
101,159,155537,1,0,3:0:0:0:
120,199,155612,1,0,3:0:0:0:
149,231,155687,1,0,3:0:0:0:
187,252,155762,1,0,3:0:0:0:
230,261,155837,1,0,3:0:0:0:
273,257,155912,6,0,P|302:219|304:189,1,43.75,2|2,3:0|3:0,3:0:0:0:
282,110,156062,2,0,P|253:148|251:178,1,43.75,2|2,3:0|3:0,3:0:0:0:
355,157,156212,1,2,3:0:0:0:
376,155,156287,1,2,3:0:0:0:
398,153,156362,1,2,3:0:0:0:
420,151,156437,1,2,3:0:0:0:
442,149,156512,6,0,P|457:106|367:30,1,175,4|0,1:0|0:0,0:0:0:0:
289,53,156962,1,0,0:0:0:0:
202,66,157112,2,0,P|142:65|114:49,1,87.5,8|0,0:0|0:0,0:0:0:0:
3,132,157412,2,0,P|63:133|91:149,1,87.5
122,344,157712,6,0,P|59:305|37:204,1,175,0|0,1:0|0:0,0:0:0:0:
131,219,158162,1,0,0:0:0:0:
210,182,158312,2,0,P|237:137|244:93,1,87.5,8|0,0:0|0:0,0:0:0:0:
136,20,158612,2,0,P|109:65|102:109,1,87.5,0|0,1:0|0:0,0:0:0:0:
257,97,158912,6,0,B|308:77|308:77|369:91|369:91|451:65,1,175,0|0,1:0|0:0,0:0:0:0:
494,28,159362,1,0,0:0:0:0:
455,149,159512,2,0,P|455:189|479:254,1,87.5,8|0,0:0|0:0,0:0:0:0:
365,251,159812,2,0,P|365:291|341:356,1,87.5,0|0,1:0|0:0,0:0:0:0:
216,328,160112,5,2,3:0:0:0:
185,297,160187,1,2,3:0:0:0:
167,257,160262,1,2,3:0:0:0:
165,214,160337,1,2,3:0:0:0:
178,173,160412,2,0,P|190:150|194:120,1,43.75,2|2,3:0|3:0,3:0:0:0:
72,35,160562,2,0,P|60:58|56:88,1,43.75,2|2,3:0|3:0,3:0:0:0:
250,241,160712,6,0,L|356:233,1,105,4|0,1:0|0:0,0:0:0:0:
405,344,163136,5,0,0:0:0:0:
451,263,163488,1,0,0:0:0:0:
348,82,163841,6,0,P|313:72|270:78,1,70,4|0,0:0|0:0,0:0:0:0:
153,193,164538,6,0,P|106:122|141:42,1,140,0|0,1:0|0:0,0:0:0:0:
233,182,164887,6,0,P|227:218|222:230,1,35
153,302,165236,2,0,P|120:302|76:279,1,70,2|0,0:0|0:0,0:0:0:0:
253,340,165934,6,0,L|402:327,1,140,0|0,1:0|0:0,0:0:0:0:
448,252,166282,6,0,P|444:225|446:212,1,35,2|0,0:0|0:0,0:0:0:0:
466,64,166595,6,0,B|390:124|319:84|319:84|228:24|73:53|7:178,1,490,0|0,1:0|0:0,0:0:0:0:
49,326,167145,2,0,P|84:261|24:150,1,210,0|0,1:0|0:0,0:0:0:0:
14,242,167383,6,0,L|236:207,1,210,2|0,0:0|0:0,0:0:0:0:
401,169,167738,2,0,L|179:134,1,188.999994232178,2|0,0:0|0:0,0:0:0:0:
140,40,168093,6,0,B|152:93|152:93|78:358,1,262.5,2|0,0:0|0:0,0:0:0:0:
23,305,168537,2,0,L|65:164,1,105.000004005432,2|0,0:0|0:0,0:0:0:0:
193,212,168724,6,0,L|151:353,1,140,0|0,1:0|0:0,0:0:0:0:
299,298,169072,1,0,0:0:0:0:
266,202,169247,1,0,0:0:0:0:
356,135,169421,6,0,P|409:129|483:197,1,157.500006008148,4|0,0:0|0:0,0:0:0:0:
512,291,170118,6,0,P|459:297|385:229,1,140,0|0,1:0|0:0,0:0:0:0:
435,137,170467,6,0,P|447:108|449:81,1,52.5000020027161
245,63,170816,6,0,P|284:75|357:53,1,105.000004005432,2|0,0:0|0:0,0:0:0:0:
168,108,171514,6,0,B|128:81|55:84|21:123|21:123|66:122|88:109,1,210.000008010865,4|2,0:0|0:0,0:0:0:0:
224,187,171862,6,0,P|246:157|248:134,1,52.5000020027161
131,196,172211,6,0,P|144:236|203:281,1,105.000004005432,2|0,0:0|0:0,0:0:0:0:
284,311,172734,1,0,0:0:0:0:
143,351,172909,6,0,B|82:346|82:346|73:330|73:330|-8:323,1,140,0|0,1:0|0:0,0:0:0:0:
376,276,173258,6,0,P|408:266|436:274,1,52.5000020027161
407,337,173607,5,2,0:0:0:0:
336,92,173955,1,2,0:0:0:0:
31,132,174304,1,2,0:0:0:0:
87,319,174988,6,0,P|126:278|138:211,1,105.000004005432,4|8,0:0|0:0,0:0:0:0:
100,72,175288,1,0,0:0:0:0:
31,210,175438,1,8,0:0:0:0:
170,113,175588,2,0,L|284:93,1,105.000004005432,0|8,0:0|0:0,0:0:0:0:
103,46,175888,2,0,L|-11:26,1,105.000004005432,0|8,0:0|0:0,0:0:0:0:
223,241,176188,5,2,0:0:0:0:
172,32,176338,1,8,0:0:0:0:
50,211,176488,1,0,0:0:0:0:
337,99,176638,1,8,0:0:0:0:
34,130,176788,5,0,0:0:0:0:
327,179,176938,1,8,0:0:0:0:
220,349,177088,1,8,0:0:0:0:
175,57,177238,1,8,0:0:0:0:
394,88,177388,6,0,P|340:97|282:65,1,105.000004005432,4|8,0:0|0:0,0:0:0:0:
49,133,177688,2,0,P|103:124|161:156,1,105.000004005432,0|8,0:0|0:0,0:0:0:0:
100,321,177988,2,8,L|87:171,1,105.000004005432,0|8,0:0|0:0,0:0:0:0:
298,174,178288,2,0,L|285:324,1,105.000004005432,0|8,0:0|0:0,0:0:0:0:
201,248,178588,5,2,0:0:0:0:
426,196,178738,1,8,0:0:0:0:
364,336,178888,1,0,0:0:0:0:
296,150,179038,1,8,0:0:0:0:
464,113,179188,6,0,L|497:118,7,26.2500010013581,0|0|0|0|8|0|0|0,3:0|3:0|3:0|3:0|3:1|3:0|3:0|3:0,3:0:0:0:
418,170,179488,6,0,L|371:177,7,43.75,0|0|0|0|8|0|0|0,1:0|3:0|3:0|3:0|3:1|3:0|3:0|3:0,3:0:0:0:
326,243,179788,6,8,P|291:232|246:177,1,105.000004005432,4|8,0:0|0:0,0:0:0:0:
157,199,180088,2,0,P|140:166|147:95,1,105.000004005432,0|8,0:0|0:0,0:0:0:0:
212,22,180388,1,0,0:0:0:0:
243,161,180538,1,8,0:0:0:0:
88,50,180688,2,0,P|42:42|-9:87,1,105.000004005432,0|8,0:0|0:0,0:0:0:0:
39,283,180988,5,2,0:0:0:0:
54,106,181138,1,8,0:0:0:0:
211,226,181288,1,0,0:0:0:0:
21,288,181438,1,8,0:0:0:0:
296,357,181588,5,0,0:0:0:0:
9,292,181738,1,8,0:0:0:0:
217,69,181888,1,8,0:0:0:0:
298,370,182038,1,8,0:0:0:0:
385,286,182188,6,0,P|395:231|368:184,1,105.000004005432,4|8,0:0|0:0,0:0:0:0:
198,79,182488,2,0,P|188:134|215:181,1,105.000004005432,0|8,0:0|0:0,0:0:0:0:
263,120,182788,1,0,0:0:0:0:
113,51,182938,1,8,0:0:0:0:
298,28,183088,2,0,L|424:35,1,105.000004005432,0|8,0:0|0:0,0:0:0:0:
469,183,183388,6,0,B|393:234|262:218|206:173|206:173|171:145|121:146|86:175|86:175|51:204|42:254|65:294|65:294|87:333|134:351|177:337|177:337|221:322|247:279|241:234,2,735.000028038026,4|0|0,0:0|0:0|0:0,0:0:0:0:
489,117,184513,1,0,0:0:0:0:
489,117,184588,6,0,P|436:66|357:68,1,105.000004005432,0|8,0:0|0:0,0:0:0:0:
295,137,184888,2,0,P|246:119|213:79,1,105.000004005432,0|8,0:0|0:0,0:0:0:0:
99,30,185188,2,0,P|106:90|86:148,1,105.000004005432,0|8,0:0|0:0,0:0:0:0:
28,247,185488,1,0,0:0:0:0:
155,354,185638,1,8,0:0:0:0:
1,253,185788,5,2,0:0:0:0:
336,216,185938,1,8,0:0:0:0:
273,83,186088,1,0,0:0:0:0:
302,308,186238,1,8,0:0:0:0:
147,158,186388,5,0,0:0:0:0:
473,286,186538,1,8,0:0:0:0:
201,284,186688,1,8,0:0:0:0:
340,28,186838,1,8,0:0:0:0:
382,148,186988,6,0,B|423:161|423:161|491:142,1,105.000004005432,4|8,0:0|0:0,0:0:0:0:
331,33,187288,2,0,B|290:20|290:20|222:39,1,105.000004005432,0|8,0:0|0:0,0:0:0:0:
127,98,187588,1,0,0:0:0:0:
247,147,187738,1,8,0:0:0:0:
140,208,187888,2,0,P|82:202|39:162,1,105.000004005432,0|8,0:0|0:0,0:0:0:0:
51,282,188188,5,2,0:0:0:0:
135,81,188338,1,8,0:0:0:0:
255,212,188488,1,0,0:0:0:0:
121,66,188638,1,8,0:0:0:0:
316,137,188788,6,0,P|332:137|350:132,7,26.2500010013581,0|0|0|0|8|0|0|0,3:0|3:0|3:0|3:0|3:1|3:0|3:0|3:0,3:0:0:0:
399,76,189088,6,0,P|415:76|433:81,7,35,0|0|0|0|8|0|0|0,3:0|3:0|3:0|3:0|3:1|3:0|3:0|3:0,3:0:0:0:
471,168,189388,6,0,P|471:208|444:266,1,105.000004005432,4|8,0:0|0:0,0:0:0:0:
303,313,189688,2,0,P|303:273|330:215,1,105.000004005432,0|8,0:0|0:0,0:0:0:0:
382,331,189988,1,0,0:0:0:0:
210,244,190138,1,8,0:0:0:0:
186,256,190288,1,0,0:0:0:0:
50,183,190438,1,8,0:0:0:0:
93,44,190588,5,2,0:0:0:0:
127,290,190738,1,8,0:0:0:0:
218,107,190888,1,0,0:0:0:0:
31,17,191038,1,8,0:0:0:0:
138,156,191188,5,0,0:0:0:0:
356,68,191338,1,8,0:0:0:0:
288,312,191488,1,8,0:0:0:0:
240,27,191638,1,8,0:0:0:0:
470,133,191788,6,0,P|414:124|365:142,1,105.000004005432,4|8,0:0|0:0,0:0:0:0:
260,217,192088,2,0,P|204:226|155:208,1,105.000004005432,0|8,0:0|0:0,0:0:0:0:
43,162,192388,2,0,L|26:44,1,105.000004005432,0|8,0:0|0:0,0:0:0:0:
63,275,192688,1,0,0:0:0:0:
63,275,192838,1,8,0:0:0:0:
281,296,192988,6,0,B|182:234|61:276|61:276|205:226|191:72|191:72|332:232|530:104,1,840.000032043458,4|0,0:0|0:0,0:0:0:0:
281,296,195807,5,0,0:0:0:0:
187,47,196088,1,12,1:0:0:0:
