osu file format v14

[General]
AudioFilename: audio.mp3
AudioLeadIn: 0
PreviewTime: 145468
Countdown: 0
SampleSet: Soft
StackLeniency: 0.7
Mode: 2
LetterboxInBreaks: 0
WidescreenStoryboard: 1

[Editor]
Bookmarks: 174226
DistanceSpacing: 1
BeatDivisor: 4
GridSize: 4
TimelineZoom: 2.2

[Metadata]
Title:Summer CarnivaL
TitleUnicode:Summer CarnivaL
Artist:Loctek
ArtistUnicode:Loctek
Creator:Kukkai
Version:Kukkai & Jemzuu's OverdosE
Source:
Tags:Jemzuu AJamez LOLISTYLE GABBERS jungle breakbeat dnb d'n'b drum and bass Soutaisei Riron 相対性理論 Natsu no Ougonhi 夏の黄金比 Hardcore Hardtek Hardtech ジェイコア インベーション Jaycore J-core Jcore Invasion Japanese Electronic Instrumental female vocal vocals psytrance
BeatmapID:3781134
BeatmapSetID:963383

[Difficulty]
HPDrainRate:5.5
CircleSize:4.3
OverallDifficulty:9.4
ApproachRate:9.4
SliderMultiplier:2.2
SliderTickRate:2

[Events]
//Background and Video events
0,0,"lamunatttionss2.jpg",0,0
//Break Periods
//Storyboard Layer 0 (Background)
//Storyboard Layer 1 (Fail)
//Storyboard Layer 2 (Pass)
//Storyboard Layer 3 (Foreground)
//Storyboard Layer 4 (Overlay)
//Storyboard Sound Samples

[TimingPoints]
826,400,4,2,1,50,1,0
826,-90.9090909090909,4,2,1,50,0,0
13626,-83.3333333333333,4,2,1,70,0,0
20026,-80,4,2,1,70,0,0
26026,-80,4,2,2,70,0,0
26426,-80,4,2,2,70,0,0
48826,-80,4,2,1,70,0,0
52026,-80,4,2,2,70,0,0
64826,-80,4,2,2,70,0,0
66426,387.096774193548,4,2,2,70,1,0
66426,-80,4,2,2,70,0,0
69522,375,4,2,2,70,1,0
69522,-83.3333333333333,4,2,2,70,0,0
72522,363.636363636364,4,2,2,70,1,0
72522,-83.3333333333333,4,2,2,70,0,0
75431,352.941176470588,4,2,2,70,1,0
82313,-100,4,2,2,5,0,0
82489,-142.857142857143,4,2,3,50,0,0
82578,-142.857142857143,4,2,3,5,0,0
83901,-142.857142857143,4,2,3,50,0,0
83989,-142.857142857143,4,2,3,5,0,0
85313,-142.857142857143,4,2,3,50,0,0
85401,-142.857142857143,4,2,3,5,0,0
86725,-142.857142857143,4,2,3,50,0,0
86813,-142.857142857143,4,2,3,5,0,0
88136,-100,4,2,3,50,0,0
96607,-100,4,2,3,60,0,0
99430,-90.9090909090909,4,2,3,70,0,0
122019,-90.9090909090909,4,2,3,70,0,0
138960,-90.9090909090909,4,2,3,70,0,0
140372,375,4,2,3,50,1,0
140372,-86.9565217391304,4,2,3,50,0,0
141872,400,4,2,3,40,1,0
143472,428.571428571429,4,2,3,30,1,0
143900,461.538461538462,4,2,3,20,1,0
144360,500,4,2,3,20,1,0
144860,600,4,2,3,10,1,0
145468,300,4,2,4,70,1,0
146068,-100,4,2,4,70,0,1
153868,-100,4,2,4,70,0,0
155068,-100,4,2,4,70,0,1
162268,-100,4,2,4,70,0,0
164668,-100,4,2,4,70,0,1
164893,-100,4,2,4,5,0,1
164968,-100,4,2,4,70,0,1
165193,-100,4,2,4,5,0,1
165268,-100,4,2,4,70,0,1
165493,-100,4,2,4,5,0,1
165568,-100,4,2,4,70,0,1
165793,-100,4,2,4,5,0,1
165868,-100,4,2,4,70,0,1
166093,-100,4,2,4,5,0,1
166168,-100,4,2,4,70,0,1
166393,-100,4,2,4,5,0,1
166468,-100,4,2,4,70,0,1
167068,-100,4,2,4,70,0,1
167293,-100,4,2,4,5,0,1
167368,-100,4,2,4,70,0,1
167593,-100,4,2,4,5,0,1
167668,-100,4,2,4,70,0,1
167893,-100,4,2,4,5,0,1
167968,-100,4,2,4,70,0,1
168193,-100,4,2,4,5,0,1
168268,-100,4,2,4,70,0,1
168493,-100,4,2,4,5,0,1
168568,-100,4,2,4,70,0,1
168793,-100,4,2,4,5,0,1
168868,-100,4,2,4,70,0,1
169093,-100,4,2,4,5,0,1
169168,-100,4,2,4,70,0,1
171868,-100,4,2,4,70,0,0
174268,-100,4,2,4,70,0,1
183868,-100,4,2,5,40,0,0
187918,-76.9230769230769,4,2,5,40,0,0
188668,-100,4,2,0,50,0,0
192868,-100,4,2,5,50,0,0
193468,-100,4,2,5,40,0,0
200668,-100,4,2,5,50,0,0
201868,-100,4,2,6,60,0,0
203068,-100,4,2,6,70,0,0
217468,-100,4,2,6,60,0,0
219868,-100,4,2,6,50,0,0
221068,-100,4,2,6,40,0,0
221668,-83.3333333333333,4,2,6,40,0,0
222268,-100,4,2,6,40,0,0
223468,285.714285714286,4,2,6,40,1,0
225759,272.727272727273,4,2,6,50,1,0
228486,-100,4,2,6,60,0,0
231213,-100,4,2,4,70,0,1
247577,-40.8163265306122,4,2,4,70,0,0
248122,-100,4,2,4,70,0,0
248668,-100,4,2,4,70,0,1
265031,-40.8163265306122,4,2,4,70,0,1
265577,-100,4,2,4,70,0,1
266122,-100,4,2,4,50,0,0
283577,-111.111111111111,4,2,4,45,0,0
287940,-111.111111111111,4,2,4,40,0,0
290122,-111.111111111111,4,2,4,35,0,0
291213,-111.111111111111,4,2,4,30,0,0
292304,-111.111111111111,4,2,4,25,0,0
293395,-111.111111111111,4,2,4,20,0,0
294486,-111.111111111111,4,2,4,15,0,0
295577,-111.111111111111,4,2,4,10,0,0
296668,-111.111111111111,4,2,4,9,0,0
297759,-111.111111111111,4,2,4,7,0,0
298849,-111.111111111111,4,2,4,5,0,0

[Colours]
Combo1 : 255,125,129
Combo2 : 181,181,181
Combo3 : 127,127,127
Combo4 : 109,160,169

[HitObjects]
380,192,826,6,0,L|112:192,1,242.000007385254,4|8,1:2|0:2,0:0:0:0:
260,192,1426,2,0,L|260:64,1,121.000003692627,0|0,0:2|0:2,0:0:0:0:
80,72,1826,1,0,1:2:0:0:
260,192,2026,2,0,L|396:192,1,121.000003692627,8|0,0:2|0:2,0:0:0:0:
196,256,2426,6,0,P|128:224|208:112,1,242.000007385254,0|8,1:2|0:2,0:0:0:0:
316,112,3026,2,0,L|184:112,1,121.000003692627,0|0,0:2|0:2,0:0:0:0:
384,60,3426,1,0,1:2:0:0:
192,112,3626,2,0,L|192:248,1,121.000003692627,8|0,0:2|0:2,0:0:0:0:
376,352,4026,6,0,P|440:320|360:212,1,242.000007385254,0|8,1:2|0:2,0:0:0:0:
248,212,4626,2,0,L|392:212,1,121.000003692627,0|0,0:2|0:2,0:0:0:0:
184,160,5026,1,0,1:2:0:0:
364,180,5226,2,0,L|364:48,1,121.000003692627,8|0,0:2|0:2,0:0:0:0:
184,160,5626,6,0,L|440:160,1,242.000007385254,0|8,1:2|0:2,0:0:0:0:
304,160,6226,2,0,L|304:28,1,121.000003692627,0|0,0:2|0:2,0:0:0:0:
488,32,6626,1,0,1:2:0:0:
308,160,6826,2,0,L|160:160,1,121.000003692627,8|0,0:2|0:2,0:0:0:0:
456,360,7226,6,0,P|488:304|420:272,1,121.000003692627,2|0,1:2|0:2,0:0:0:0:
368,268,7526,2,0,L|228:268,1,121.000003692627,2|0,0:2|0:2,0:0:0:0:
160,272,7826,2,0,L|320:272,1,121.000003692627,2|0,0:2|0:2,0:0:0:0:
196,276,8126,2,0,P|164:216|216:176,1,121.000003692627,2|0,0:2|0:2,0:0:0:0:
276,176,8426,2,0,L|408:176,1,121.000003692627,10|0,0:2|0:2,0:0:0:0:
204,184,8826,6,0,L|204:52,1,121.000003692627,0|0,1:2|0:2,0:0:0:0:
388,52,9226,2,0,L|516:52,2,121.000003692627,8|0|0,0:2|0:2|0:2,0:0:0:0:
204,56,9826,1,0,1:2:0:0:
388,52,10026,2,0,L|388:200,1,121.000003692627,8|0,0:2|0:2,0:0:0:0:
88,240,10426,6,0,L|216:240,1,121.000003692627,2|0,1:2|0:2,0:0:0:0:
296,236,10726,2,0,L|148:236,1,121.000003692627,2|0,0:2|0:2,0:0:0:0:
88,236,11026,2,0,P|64:176|128:128,1,121.000003692627,2|0,0:2|0:2,0:0:0:0:
180,128,11326,2,0,L|312:128,1,121.000003692627,2|0,0:2|0:2,0:0:0:0:
216,128,11626,2,0,L|72:128,1,121.000003692627,10|0,0:2|0:2,0:0:0:0:
276,356,12026,6,0,L|276:224,1,121.000003692627,0|0,1:2|0:2,0:0:0:0:
92,236,12426,2,0,L|92:108,1,121.000003692627,8|0,0:2|0:2,0:0:0:0:
212,116,12826,1,0,0:2:0:0:
392,48,13026,2,0,L|268:48,1,121.000003692627,2|0,1:2|0:2,0:0:0:0:
360,48,13326,2,0,L|488:48,1,121.000003692627,2|0,0:2|0:2,0:0:0:0:
284,272,13626,5,6,1:2:0:0:
218,272,13726,1,0,0:2:0:0:
152,272,13826,1,0,0:2:0:0:
332,200,13926,2,0,L|420:200,2,65.9999979858399,2|8|0,0:2|0:2|0:2,0:0:0:0:
144,208,14226,1,2,0:2:0:0:
80,208,14326,1,0,0:2:0:0:
144,208,14426,5,0,0:2:0:0:
320,64,14526,1,2,0:2:0:0:
254,64,14626,1,0,1:2:0:0:
188,64,14726,1,0,0:2:0:0:
368,172,14826,1,10,0:2:0:0:
432,172,14926,1,0,0:2:0:0:
432,172,15026,1,0,0:2:0:0:
368,172,15126,1,0,0:2:0:0:
184,356,15226,6,0,L|184:268,1,65.9999979858399,0|0,1:2|0:2,0:0:0:0:
248,292,15426,2,0,L|332:292,1,65.9999979858399,0|0,0:2|0:2,0:0:0:0:
144,224,15626,2,0,L|68:224,1,65.9999979858399,8|0,0:2|0:2,0:0:0:0:
144,224,15826,2,0,L|232:224,1,65.9999979858399,0|0,0:2|0:2,0:0:0:0:
144,224,16026,6,0,L|144:136,1,65.9999979858399,0|0,0:2|0:2,0:0:0:0:
328,152,16226,2,0,L|412:152,1,65.9999979858399,0|0,1:2|0:2,0:0:0:0:
212,100,16426,2,0,L|116:100,1,65.9999979858399,8|0,0:2|0:2,0:0:0:0:
80,100,16626,2,0,L|176:100,1,65.9999979858399,0|0,0:2|0:2,0:0:0:0:
332,344,16826,6,0,L|428:344,2,65.9999979858399,2|0|0,1:2|0:2|0:2,0:0:0:0:
152,280,17126,2,0,L|72:280,1,65.9999979858399,2|8,0:2|0:2,0:0:0:0:
86,280,17326,1,0,0:2:0:0:
272,196,17426,1,2,0:2:0:0:
206,196,17526,1,0,0:2:0:0:
140,196,17626,5,0,0:2:0:0:
324,144,17726,2,0,L|404:144,1,65.9999979858399,2|0,0:2|1:2,0:0:0:0:
390,144,17926,1,0,0:2:0:0:
208,360,18026,2,0,L|208:276,1,65.9999979858399,10|0,0:2|0:2,0:0:0:0:
272,296,18226,2,0,L|372:296,1,65.9999979858399,0|0,0:2|0:2,0:0:0:0:
160,224,18426,6,0,L|72:224,1,65.9999979858399,0|0,1:2|0:2,0:0:0:0:
28,224,18626,2,0,L|128:224,1,65.9999979858399,0|0,0:2|0:2,0:0:0:0:
276,224,18826,2,0,L|364:224,1,65.9999979858399,8|0,0:2|0:2,0:0:0:0:
276,224,19026,2,0,L|276:136,1,65.9999979858399,0|0,0:2|0:2,0:0:0:0:
340,152,19226,6,0,L|340:72,1,65.9999979858399,0|0,0:2|0:2,0:0:0:0:
160,84,19426,2,0,L|88:84,2,65.9999979858399,2|0|8,1:2|0:2|0:2,0:0:0:0:
340,32,19726,1,2,0:2:0:0:
274,32,19826,1,0,0:2:0:0:
208,32,19926,1,0,0:2:0:0:
408,272,20026,6,0,L|408:196,1,68.75,2|0,1:2|0:2,0:0:0:0:
340,204,20226,1,0,0:2:0:0:
148,152,20326,1,2,0:2:0:0:
216,152,20426,1,8,0:2:0:0:
285,152,20526,1,0,0:2:0:0:
96,84,20626,2,0,L|0:84,2,68.75,2|0|0,1:2|0:2|0:2,0:0:0:0:
288,272,20926,6,0,L|392:272,2,68.75,2|0|0,0:2|1:2|0:2,0:0:0:0:
96,208,21226,2,0,L|184:208,1,68.75,10|0,0:2|0:2,0:0:0:0:
232,208,21426,2,0,L|232:116,1,68.75,0|0,0:2|0:2,0:0:0:0:
44,144,21626,6,0,L|44:64,1,68.75,0|0,1:2|0:2,0:0:0:0:
112,76,21826,2,0,L|192:76,1,68.75,0|0,0:2|0:2,0:0:0:0:
372,328,22026,2,0,L|296:328,1,68.75,8|0,0:2|0:2,0:0:0:0:
236,328,22226,2,0,L|236:236,1,68.75,0|0,1:2|0:2,0:0:0:0:
304,260,22426,6,0,L|304:172,1,68.75,0|0,0:2|0:2,0:0:0:0:
112,192,22626,2,0,L|32:192,1,68.75,0|0,1:2|0:2,0:0:0:0:
228,128,22826,2,0,L|312:128,1,68.75,8|0,0:2|0:2,0:0:0:0:
228,128,23026,2,0,L|120:128,1,68.75,0|0,0:2|0:2,0:0:0:0:
364,56,23226,6,0,L|448:56,2,68.75,2|0|0,1:2|0:2|0:2,0:0:0:0:
176,248,23526,2,0,L|88:248,2,68.75,2|8|0,0:2|0:2|0:2,0:0:0:0:
364,188,23826,1,2,1:2:0:0:
295,188,23926,1,0,0:2:0:0:
226,188,24026,5,0,0:2:0:0:
416,144,24126,2,0,L|416:72,1,68.75,2|0,0:2|1:2,0:0:0:0:
348,76,24326,1,0,0:2:0:0:
160,352,24426,2,0,L|160:272,1,68.75,10|0,0:2|0:2,0:0:0:0:
228,288,24626,2,0,L|320:288,1,68.75,0|0,0:2|0:2,0:0:0:0:
112,224,24826,6,0,L|112:144,1,68.75,2|2,0:1|0:1,0:0:0:0:
180,156,25026,1,2,0:1:0:0:
76,160,25126,2,0,L|76:80,1,68.75,2|2,0:1|0:1,0:0:0:0:
144,92,25326,1,2,0:1:0:0:
36,100,25426,2,0,L|36:20,1,68.75,2|2,0:1|0:1,0:0:0:0:
240,224,25626,6,0,L|312:224,1,68.75,0|0,3:2|3:2,0:0:0:0:
112,224,25826,2,0,L|28:224,1,68.75,0|0,3:2|3:2,0:0:0:0:
232,156,26026,2,0,L|152:156,1,68.75,0|0,1:2|1:2,0:0:0:0:
352,96,26226,2,0,L|432:96,1,68.75,0|0,1:2|1:2,0:0:0:0:
232,48,26426,6,0,L|72:48,1,137.5,4|0,1:2|0:2,0:0:0:0:
164,48,26726,1,0,0:2:0:0:
360,240,26826,2,0,L|508:240,1,137.5,0|0,1:2|0:2,0:0:0:0:
428,240,27126,1,0,0:2:0:0:
228,176,27226,6,0,L|416:176,1,137.5,0|0,1:2|0:2,0:0:0:0:
436,172,27526,1,0,0:2:0:0:
236,352,27626,2,0,P|192:296|248:256,1,137.5,0|0,1:2|0:2,0:0:0:0:
300,256,27926,1,0,0:2:0:0:
488,264,28026,6,0,P|488:188|408:168,1,137.5,0|0,1:2|0:2,0:0:0:0:
372,160,28326,1,0,0:2:0:0:
176,160,28426,2,0,L|24:160,1,137.5,0|0,1:2|0:2,0:0:0:0:
108,160,28726,1,0,0:2:0:0:
296,156,28826,6,0,P|344:104|288:48,1,137.5,0|0,1:2|0:2,0:0:0:0:
244,56,29126,1,0,0:2:0:0:
48,60,29226,2,0,L|128:60,1,68.75,0|0,1:2|1:2,0:0:0:0:
308,256,29426,2,0,L|216:256,1,68.75,0|0,1:2|1:2,0:0:0:0:
436,208,29626,6,0,P|468:144|408:104,1,137.5,0|0,1:2|0:2,0:0:0:0:
356,104,29926,1,0,0:2:0:0:
164,104,30026,2,0,L|20:104,1,137.5,0|0,1:2|0:2,0:0:0:0:
96,104,30326,1,0,0:2:0:0:
288,280,30426,6,0,L|460:280,1,137.5,0|0,1:2|0:2,0:0:0:0:
356,280,30726,1,0,0:2:0:0:
164,280,30826,2,0,P|136:208|188:160,1,137.5,0|0,1:2|0:2,0:0:0:0:
240,168,31126,1,0,0:2:0:0:
504,172,31226,6,0,L|504:356,1,137.5,0|0,1:2|0:2,0:0:0:0:
436,312,31526,1,0,0:2:0:0:
256,316,31626,2,0,L|424:316,1,137.5,0|0,1:2|0:2,0:0:0:0:
324,316,31926,1,0,0:2:0:0:
136,256,32026,5,0,1:2:0:0:
68,256,32126,1,0,0:0:0:0:
136,256,32226,1,0,0:0:0:0:
324,264,32326,1,0,0:2:0:0:
136,192,32426,2,0,L|56:192,1,68.75,0|0,1:2|1:2,0:0:0:0:
256,224,32626,2,0,L|344:224,1,68.75,0|0,1:2|1:2,0:0:0:0:
136,192,32826,6,0,P|100:120|148:96,1,137.5,0|0,1:2|0:2,0:0:0:0:
204,216,33126,1,0,0:2:0:0:
392,216,33226,2,0,P|424:152|364:104,1,137.5,0|0,1:2|0:2,0:0:0:0:
316,108,33526,1,0,0:2:0:0:
128,56,33626,6,0,L|288:56,1,137.5,0|0,1:2|0:2,0:0:0:0:
336,52,33926,1,0,0:2:0:0:
148,336,34026,2,0,P|96:280|156:228,1,137.5,0|0,1:2|0:2,0:0:0:0:
192,236,34326,1,0,0:2:0:0:
384,160,34426,6,0,L|216:160,1,137.5,0|0,1:2|0:2,0:0:0:0:
176,160,34726,1,0,0:2:0:0:
364,104,34826,2,0,L|512:104,1,137.5,0|0,1:2|0:2,0:0:0:0:
432,104,35126,1,0,0:2:0:0:
244,360,35226,6,0,L|92:360,1,137.5,0|0,1:2|0:2,0:0:0:0:
176,364,35526,1,0,0:2:0:0:
364,256,35626,2,0,L|448:256,1,68.75,0|0,1:2|1:2,0:0:0:0:
236,184,35826,2,0,L|332:184,1,68.75,0|0,1:2|1:2,0:0:0:0:
108,52,36026,6,0,L|24:52,1,68.75,0|0,1:2|0:2,0:0:0:0:
39,52,36226,2,0,L|124:52,1,68.75,0|0,0:2|0:2,0:0:0:0:
304,268,36426,2,0,L|304:192,1,68.75,0|0,1:2|0:2,0:0:0:0:
236,204,36626,2,0,L|236:108,1,68.75,0|0,0:2|0:2,0:0:0:0:
424,132,36826,6,0,L|336:132,1,68.75,0|0,1:2|0:2,0:0:0:0:
288,132,37026,2,0,L|392:132,1,68.75,0|0,0:2|0:2,0:0:0:0:
168,352,37226,2,0,L|168:276,1,68.75,0|0,1:2|0:2,0:0:0:0:
236,284,37426,2,0,L|348:284,1,68.75,0|0,0:2|0:2,0:0:0:0:
116,228,37626,6,0,L|40:228,1,68.75,0|0,1:2|1:2,0:0:0:0:
304,168,37926,2,0,L|404:168,1,68.75,0|0,1:2|1:2,0:0:0:0:
236,364,38226,2,0,L|236:280,1,68.75,0|0,0:2|0:2,0:0:0:0:
304,296,38426,6,0,L|208:296,1,68.75,0|0,0:2|0:2,0:0:0:0:
304,296,38626,2,0,L|392:296,1,68.75,0|0,0:2|0:2,0:0:0:0:
176,208,38826,2,0,L|96:208,1,68.75,0|0,1:2|1:2,0:0:0:0:
300,140,39026,2,0,L|392:140,1,68.75,0|0,1:2|1:2,0:0:0:0:
176,208,39226,6,0,L|8:208,1,137.5,4|0,1:2|0:2,0:0:0:0:
108,208,39526,1,0,0:2:0:0:
280,356,39626,2,0,P|328:308|264:260,1,137.5,0|0,1:2|0:2,0:0:0:0:
224,260,39926,1,0,0:2:0:0:
40,260,40026,6,0,P|56:184|148:160,1,137.5,0|0,1:2|0:2,0:0:0:0:
172,156,40326,1,0,0:2:0:0:
360,80,40426,2,0,L|180:80,1,137.5,0|0,1:2|0:2,0:0:0:0:
292,80,40726,1,0,0:2:0:0:
112,356,40826,6,0,P|72:292|120:252,1,137.5,0|0,1:2|0:2,0:0:0:0:
176,252,41126,1,0,0:2:0:0:
364,180,41226,2,0,L|176:180,1,137.5,0|0,1:2|0:2,0:0:0:0:
156,180,41526,1,0,0:2:0:0:
340,120,41626,6,0,L|500:120,1,137.5,0|0,1:2|0:2,0:0:0:0:
408,120,41926,1,0,0:2:0:0:
224,116,42026,2,0,L|148:116,1,68.75,0|0,1:2|1:2,0:0:0:0:
340,44,42226,2,0,L|256:44,1,68.75,0|0,1:2|1:2,0:0:0:0:
456,360,42426,6,0,P|484:288|436:256,1,137.5,0|0,1:2|0:2,0:0:0:0:
376,260,42726,1,0,0:2:0:0:
200,260,42826,2,0,L|52:260,1,137.5,0|0,1:2|0:2,0:0:0:0:
132,260,43126,1,0,0:2:0:0:
320,176,43226,6,0,P|352:100|300:76,1,137.5,0|0,1:2|0:2,0:0:0:0:
252,80,43526,1,0,0:2:0:0:
64,144,43626,2,0,L|240:144,1,137.5,0|0,1:2|0:2,0:0:0:0:
132,144,43926,1,0,0:2:0:0:
320,340,44026,6,0,P|352:276|280:232,1,137.5,0|0,1:2|0:2,0:0:0:0:
244,236,44326,1,0,0:2:0:0:
52,236,44426,2,0,P|16:176|76:136,1,137.5,0|0,1:2|0:2,0:0:0:0:
128,136,44726,1,0,0:2:0:0:
308,132,44826,6,0,L|384:132,2,68.75,0|0|0,1:2|0:2|0:2,0:0:0:0:
128,76,45126,1,0,1:2:0:0:
308,68,45226,2,0,L|408:68,1,68.75,0|0,1:2|1:2,0:0:0:0:
184,32,45426,2,0,L|96:32,1,68.75,0|0,1:2|1:2,0:0:0:0:
308,132,45626,6,0,L|480:132,1,137.5,0|0,1:2|0:2,0:0:0:0:
376,132,45926,1,0,0:2:0:0:
184,132,46026,2,0,L|24:132,1,137.5,0|0,1:2|0:2,0:0:0:0:
116,132,46326,1,0,0:2:0:0:
304,272,46426,6,0,L|132:272,1,137.5,0|0,1:2|0:2,0:0:0:0:
96,272,46726,1,0,0:2:0:0:
284,212,46826,2,0,L|428:212,1,137.5,0|0,1:2|0:2,0:0:0:0:
352,212,47126,1,0,0:2:0:0:
160,216,47226,6,0,P|132:148|172:104,1,137.5,0|0,1:2|0:2,0:0:0:0:
236,108,47526,1,0,0:2:0:0:
428,168,47626,2,0,P|456:96|392:60,1,137.5,0|0,1:2|0:2,0:0:0:0:
348,60,47926,1,0,0:2:0:0:
160,344,48026,6,0,L|360:344,1,137.5,0|0,1:2|0:2,0:0:0:0:
368,340,48326,1,0,0:2:0:0:
176,264,48426,2,0,L|64:264,1,68.75,0|0,1:2|1:2,0:0:0:0:
292,200,48626,2,0,L|388:200,1,68.75,0|0,1:2|1:2,0:0:0:0:
176,152,48826,5,0,1:2:0:0:
312,148,49026,2,0,L|156:148,1,137.5,2|2,0:2|0:2,0:0:0:0:
372,364,49426,6,0,P|408:296|344:256,1,137.5,2|0,0:2|0:2,0:0:0:0:
304,256,49726,1,2,0:2:0:0:
128,256,49826,2,0,L|128:172,1,68.75,2|2,0:2|0:2,0:0:0:0:
304,180,50026,2,0,L|376:180,1,68.75,10|0,0:2|0:2,0:0:0:0:
196,124,50226,2,0,L|120:124,1,68.75,2|0,0:2|0:2,0:0:0:0:
304,60,50426,6,0,L|408:60,3,68.75,2|0|2|2,1:2|0:2|0:2|0:2,0:0:0:0:
188,364,50826,2,0,L|188:276,1,68.75,8|0,0:2|0:2,0:0:0:0:
256,296,51026,2,0,L|256:200,1,68.75,0|0,0:2|0:2,0:0:0:0:
72,232,51226,6,0,L|4:232,3,68.75,0|0|0|0,1:2|0:2|0:2|0:2,0:0:0:0:
184,176,51626,2,0,L|332:176,1,137.5,2|2,0:2|0:2,0:0:0:0:
24,120,52026,6,0,L|92:120,1,68.75,4|2,1:2|0:1,0:0:0:0:
284,116,52226,2,0,L|380:116,1,68.75,2|2,0:1|0:1,0:0:0:0:
168,260,52426,2,0,L|80:260,1,68.75,10|2,0:1|0:1,0:0:0:0:
296,204,52626,2,0,L|376:204,1,68.75,2|2,0:1|0:1,0:0:0:0:
176,144,52826,6,0,L|104:144,1,68.75,2|2,1:2|0:2,0:0:0:0:
107,144,53026,2,0,L|216:144,1,68.75,2|2,0:2|0:2,0:0:0:0:
360,140,53226,2,0,L|360:48,1,68.75,8|2,0:1|0:2,0:0:0:0:
292,72,53426,2,0,L|208:72,1,68.75,2|2,0:2|0:2,0:0:0:0:
412,344,53626,6,0,L|412:256,1,68.75,0|2,1:2|0:2,0:0:0:0:
224,268,53826,2,0,L|140:268,1,68.75,2|2,0:2|0:2,0:0:0:0:
344,212,54026,2,0,L|344:128,1,68.75,8|2,0:1|0:2,0:0:0:0:
156,136,54226,2,0,L|72:136,1,68.75,2|2,0:2|0:2,0:0:0:0:
272,132,54426,6,0,L|272:52,1,68.75,2|0,1:2|0:2,0:0:0:0:
204,56,54626,2,0,L|204:136,1,68.75,2|0,0:2|0:2,0:0:0:0:
392,288,54826,2,0,L|484:288,1,68.75,8|0,1:1|1:2,0:0:0:0:
272,220,55026,2,0,L|184:220,1,68.75,2|0,1:2|1:2,0:0:0:0:
408,148,55226,6,0,L|500:148,1,68.75,2|2,1:1|0:1,0:0:0:0:
284,88,55426,2,0,L|208:88,1,68.75,2|2,0:1|0:1,0:0:0:0:
408,36,55626,2,0,L|320:36,1,68.75,10|2,0:1|0:1,0:0:0:0:
152,40,55826,2,0,L|72:40,1,68.75,2|2,0:1|0:1,0:0:0:0:
268,268,56026,6,0,L|368:268,1,68.75,2|2,1:2|0:2,0:0:0:0:
404,268,56226,2,0,L|312:268,1,68.75,2|2,0:2|0:2,0:0:0:0:
144,208,56426,2,0,L|60:208,1,68.75,8|2,0:1|0:2,0:0:0:0:
75,208,56626,2,0,L|172:208,1,68.75,2|2,0:2|0:2,0:0:0:0:
328,204,56826,6,0,L|328:104,1,68.75,2|0,1:2|0:2,0:0:0:0:
260,136,57026,2,0,L|172:136,1,68.75,0|2,0:2|0:2,0:0:0:0:
376,80,57226,2,0,L|456:80,3,68.75,8|0|0|2,0:1|0:2|0:2|0:2,0:0:0:0:
256,236,57626,6,0,L|176:236,2,68.75,0|2|0,1:2|0:2|0:0,0:0:0:0:
436,232,57926,1,2,0:2:0:0:
256,236,58026,2,0,L|152:236,1,68.75,8|2,1:1|1:2,0:0:0:0:
372,168,58226,2,0,L|464:168,1,68.75,2|2,1:2|1:2,0:0:0:0:
252,172,58426,6,0,P|180:120|260:76,1,206.25,6|0,1:2|0:2,0:0:0:0:
448,292,58826,2,0,L|364:292,1,68.75,10|2,0:1|0:1,0:0:0:0:
192,284,59026,2,0,L|100:284,1,68.75,2|2,0:1|0:1,0:0:0:0:
308,192,59226,6,0,L|380:192,1,68.75,2|2,1:2|0:2,0:0:0:0:
376,192,59426,2,0,L|288:192,1,68.75,2|2,0:2|0:2,0:0:0:0:
124,200,59626,2,0,L|124:128,1,68.75,8|2,0:1|0:2,0:0:0:0:
192,132,59826,2,0,L|292:132,1,68.75,2|2,0:2|0:2,0:0:0:0:
72,68,60026,6,0,L|176:68,1,68.75,2|0,1:2|0:2,0:0:0:0:
328,68,60226,2,0,L|408:68,1,68.75,2|0,0:2|0:2,0:0:0:0:
208,352,60426,2,0,L|208:264,1,68.75,8|0,0:1|0:2,0:0:0:0:
276,284,60626,2,0,L|276:200,1,68.75,2|0,0:2|0:2,0:0:0:0:
88,208,60826,6,0,L|12:208,3,68.75,2|2|2|2,1:1|0:1|0:1|0:1,0:0:0:0:
208,144,61226,2,0,L|312:144,1,68.75,10|2,1:1|1:1,0:0:0:0:
88,80,61426,2,0,L|184:80,1,68.75,2|2,1:1|1:1,0:0:0:0:
344,352,61626,6,0,L|344:260,1,68.75,2|2,1:2|0:2,0:0:0:0:
276,280,61826,2,0,L|276:184,1,68.75,2|2,0:2|0:2,0:0:0:0:
460,144,62026,2,0,L|348:144,1,68.75,10|2,0:1|0:2,0:0:0:0:
324,144,62226,2,0,L|420:144,1,68.75,2|2,0:2|0:2,0:0:0:0:
204,148,62426,6,0,L|204:52,1,68.75,0|2,1:2|0:2,0:0:0:0:
272,76,62626,2,0,L|376:76,1,68.75,2|2,0:2|0:2,0:0:0:0:
156,48,62826,2,0,L|72:48,3,68.75,8|2|2|2,0:1|0:2|0:2|0:2,0:0:0:0:
276,312,63226,6,0,L|360:312,1,68.75,0|0,1:2|1:2,0:0:0:0:
88,256,63526,2,0,L|88:176,1,68.75,0|0,1:0|1:2,0:0:0:0:
156,188,63726,1,0,0:2:0:0:
88,187,63826,2,0,L|8:188,1,68.75,0|0,0:2|0:2,0:0:0:0:
208,128,64026,5,0,1:2:0:0:
276,128,64126,2,0,L|276:44,1,68.75,0|0,0:2|0:2,0:0:0:0:
88,64,64326,1,0,0:2:0:0:
276,128,64426,2,0,L|384:128,1,68.75,0|0,1:2|1:2,0:0:0:0:
156,308,64626,2,0,L|76:308,1,68.75,0|0,1:2|1:2,0:0:0:0:
280,216,64826,6,0,L|424:216,1,137.5,4|0,1:2|0:2,0:0:0:0:
348,216,65126,1,0,0:2:0:0:
160,208,65226,2,0,P|136:136|176:80,1,137.5,8|0,0:1|0:2,0:0:0:0:
236,84,65526,1,0,0:2:0:0:
304,84,65626,2,0,L|132:84,1,137.5,0|0,1:2|0:2,0:0:0:0:
96,84,65926,1,0,0:2:0:0:
284,356,66026,2,0,P|320:288|256:236,1,137.5,8|0,0:1|0:2,0:0:0:0:
220,240,66326,1,0,0:2:0:0:
148,240,66426,6,0,P|124:168|172:120,1,137.5,0|0,1:2|0:2,0:0:0:0:
228,128,66716,1,0,0:2:0:0:
412,180,66813,2,0,P|440:100|380:64,1,137.5,8|0,0:1|0:2,0:0:0:0:
340,68,67103,1,0,0:2:0:0:
272,68,67200,6,0,L|432:68,1,137.5,0|0,1:2|0:2,0:0:0:0:
340,72,67490,1,0,0:2:0:0:
156,244,67587,2,0,L|76:244,1,68.75,10|0,1:1|1:2,0:0:0:0:
264,184,67780,2,0,L|368:184,1,68.75,0|2,1:2|1:1,0:0:0:0:
152,176,67974,6,0,L|8:176,1,137.5,0|0,1:2|0:2,0:0:0:0:
84,176,68264,1,0,0:2:0:0:
264,352,68361,2,0,P|296:284|232:244,1,137.5,8|0,0:1|0:2,0:0:0:0:
188,248,68651,1,0,0:2:0:0:
256,244,68748,6,0,L|432:244,1,137.5,0|0,1:2|0:2,0:0:0:0:
324,244,69038,1,0,0:2:0:0:
136,192,69135,2,0,P|104:120|160:80,1,137.5,8|0,0:1|0:2,0:0:0:0:
208,84,69426,1,0,0:2:0:0:
276,84,69522,6,0,L|420:84,1,131.99999597168,0|0,1:2|0:2,0:0:0:0:
340,84,69803,1,0,0:2:0:0:
168,352,69897,2,0,P|136:284|184:248,1,131.99999597168,8|0,0:1|0:2,0:0:0:0:
236,252,70178,1,0,0:2:0:0:
168,252,70272,6,0,L|28:252,1,131.99999597168,0|0,1:2|0:2,0:0:0:0:
104,252,70553,1,0,0:2:0:0:
284,192,70647,2,0,L|364:192,1,65.9999979858399,10|0,1:1|1:2,0:0:0:0:
168,128,70834,2,0,L|64:128,1,65.9999979858399,0|2,1:2|1:1,0:0:0:0:
284,344,71022,6,0,P|312:264|248:232,1,131.99999597168,4|0,1:2|0:2,0:0:0:0:
220,236,71303,1,0,0:2:0:0:
40,148,71397,2,0,L|208:148,1,131.99999597168,8|0,0:1|0:2,0:0:0:0:
240,148,71678,1,0,0:2:0:0:
172,148,71772,6,0,P|136:88|192:40,1,131.99999597168,0|0,1:2|0:2,0:0:0:0:
236,48,72053,1,0,0:2:0:0:
416,332,72147,2,0,P|448:264|384:224,1,131.99999597168,8|0,0:1|0:2,0:0:0:0:
348,228,72428,1,0,0:2:0:0:
280,228,72522,6,0,L|456:228,1,131.99999597168,0|0,1:2|0:2,0:0:0:0:
348,224,72794,1,0,0:2:0:0:
176,228,72885,2,0,P|144:152|200:116,1,131.99999597168,8|0,0:1|0:2,0:0:0:0:
236,120,73158,1,0,0:2:0:0:
304,120,73249,6,0,P|332:56|280:24,1,131.99999597168,0|0,1:2|0:2,0:0:0:0:
224,24,73522,1,0,0:2:0:0:
48,288,73612,2,0,L|144:288,1,65.9999979858399,10|0,1:1|1:2,0:0:0:0:
288,288,73794,2,0,L|388:288,1,65.9999979858399,0|2,1:2|1:1,0:0:0:0:
180,236,73976,6,0,L|48:236,1,131.99999597168,0|0,1:2|0:2,0:0:0:0:
116,236,74249,1,0,0:2:0:0:
292,240,74340,2,0,P|316:172|248:132,1,131.99999597168,8|0,0:1|0:2,0:0:0:0:
212,136,74612,1,0,0:2:0:0:
144,136,74703,6,0,P|120:60|176:12,1,131.99999597168,0|0,1:2|0:2,0:0:0:0:
216,24,74976,1,0,0:2:0:0:
392,264,75067,2,0,L|228:264,1,131.99999597168,8|0,0:1|0:2,0:0:0:0:
192,264,75340,1,0,0:2:0:0:
376,204,75431,5,0,1:2:0:0:
432,204,75519,1,0,1:2:0:0:
432,148,75607,1,0,1:2:0:0:
376,148,75695,1,0,1:2:0:0:
224,352,75783,2,0,L|224:208,1,110,0|0,1:2|1:2,0:0:0:0:
336,240,76136,6,0,L|336:124,1,110,0|0,1:2|1:2,0:0:0:0:
172,132,76489,2,8,L|108:132,1,55,8|8,1:2|0:2,0:0:0:0:
60,132,76666,2,8,L|128:132,1,55,8|8,0:2|0:2,0:0:0:0:
312,84,76842,5,4,1:2:0:0:
256,192,77019,12,0,82313,0:2:0:0:
200,360,82489,6,0,P|92:328|244:40,1,577.499982376099,6|0,0:2|0:2,0:0:0:0:
280,40,83901,6,0,P|336:108|208:32,1,577.499982376099,2|0,0:2|0:2,0:0:0:0:
228,36,85313,6,0,P|432:100|320:372,1,577.499982376099,2|0,0:2|0:2,0:0:0:0:
284,372,86725,6,0,P|388:184|364:376,1,577.499982376099,2|0,0:2|0:2,0:0:0:0:
164,280,88136,6,0,L|44:280,2,110,6|0|0,0:2|0:2|0:2,0:0:0:0:
276,280,88666,2,0,L|276:196,1,55,0|0,0:2|0:2,0:0:0:0:
168,176,88842,2,0,L|92:176,2,55,0|0|0,0:2|0:2|0:2,0:0:0:0:
324,156,89195,1,0,0:2:0:0:
164,172,89372,1,0,0:2:0:0:
324,156,89548,6,0,L|452:156,2,110,2|0|0,0:2|0:2|0:2,0:0:0:0:
212,160,90078,2,0,L|212:92,1,55,0|0,0:2|0:2,0:0:0:0:
324,96,90254,2,0,L|392:96,2,55,0|0|0,0:2|0:2|0:2,0:0:0:0:
168,56,90607,1,0,0:2:0:0:
320,96,90783,1,0,0:2:0:0:
168,56,90960,6,0,L|168:168,1,110,2|0,0:2|0:2,0:0:0:0:
280,168,91313,1,0,0:2:0:0:
168,56,91489,2,0,L|88:56,1,55,0|0,0:2|0:2,0:0:0:0:
224,52,91666,2,0,L|300:52,2,55,0|0|0,0:2|0:2|0:2,0:0:0:0:
68,244,92019,2,0,L|68:124,1,110,0|0,0:2|0:2,0:0:0:0:
228,104,92372,6,0,L|344:104,2,110,2|0|0,0:2|0:2|0:2,0:0:0:0:
338,104,92901,2,0,L|416:104,1,55,0|0,0:2|0:2,0:0:0:0:
280,40,93078,2,0,L|184:40,2,55,0|0|0,0:2|0:2|0:2,0:0:0:0:
436,36,93430,2,0,L|436:184,1,110,0|0,0:2|0:2,0:0:0:0:
136,272,93783,6,0,L|72:272,2,55,2|2|2,0:2|0:2|0:2,0:0:0:0:
292,272,94136,2,0,L|292:128,1,110,2|0,0:2|0:2,0:0:0:0:
232,164,94401,1,0,0:2:0:0:
344,112,94489,2,0,L|404:112,2,55,0|0|0,0:2|0:2|0:2,0:0:0:0:
232,64,94842,2,0,L|368:64,1,110,0|0,0:2|0:2,0:0:0:0:
288,64,95107,1,0,0:2:0:0:
120,348,95195,6,0,L|120:224,1,110,2|0,0:2|0:2,0:0:0:0:
276,224,95548,2,0,L|152:224,1,110,0|0,0:2|0:2,0:0:0:0:
220,224,95813,1,0,0:2:0:0:
332,168,95901,2,0,L|400:168,2,55,8|0|0,0:2|0:2|0:2,0:0:0:0:
176,164,96254,2,0,L|52:164,1,110,0|0,0:2|0:2,0:0:0:0:
120,164,96519,1,0,0:2:0:0:
284,340,96607,6,0,L|284:216,1,110,2|0,0:2|0:2,0:0:0:0:
128,220,96960,2,0,L|264:220,1,110,0|0,0:2|0:2,0:0:0:0:
292,220,97225,1,0,0:2:0:0:
180,160,97313,2,0,L|112:160,2,55,8|0|0,0:2|0:2|0:2,0:0:0:0:
348,160,97666,2,0,L|348:24,1,110,0|0,0:2|0:2,0:0:0:0:
80,304,98019,6,0,L|212:304,1,110,2|0,0:2|0:2,0:0:0:0:
32,236,98372,2,0,L|32:116,1,110,0|0,0:0|0:2,0:0:0:0:
88,124,98636,1,0,0:0:0:0:
200,120,98725,2,0,L|200:44,1,55,8|0,0:2|0:0,0:0:0:0:
144,68,98901,1,0,0:2:0:0:
396,68,99078,2,0,L|472:68,1,55,0|0,1:2|1:2,0:0:0:0:
288,256,99254,2,0,L|216:256,1,55,0|0,1:2|1:2,0:0:0:0:
404,260,99430,6,0,L|476:260,2,60.5000018463135,6|0|0,1:2|0:2|0:2,0:0:0:0:
240,260,99695,2,0,L|164:260,2,60.5000018463135,2|8|0,0:2|0:2|0:2,0:0:0:0:
404,260,99960,5,2,0:2:0:0:
343,260,100048,1,0,0:2:0:0:
283,260,100136,1,0,0:2:0:0:
448,256,100225,2,0,L|512:256,2,60.5000018463135,2|0|0,0:2|1:2|0:2,0:0:0:0:
268,104,100489,2,0,L|404:104,1,121.000003692627,10|2,0:2|0:2,0:0:0:0:
116,192,100842,5,2,1:2:0:0:
56,192,100930,2,0,L|56:104,1,60.5000018463135,0|0,0:2|0:2,0:0:0:0:
220,132,101107,2,0,L|304:132,2,60.5000018463135,2|8|0,0:2|0:2|0:2,0:0:0:0:
56,132,101372,5,2,0:2:0:0:
116,132,101460,1,0,0:2:0:0:
177,132,101548,1,0,0:2:0:0:
28,132,101636,2,0,L|28:56,1,60.5000018463135,2|0,0:2|1:2,0:0:0:0:
88,72,101813,1,0,0:2:0:0:
252,72,101901,2,0,L|128:72,1,121.000003692627,10|2,0:2|1:2,0:0:0:0:
392,268,102254,6,0,L|392:188,1,60.5000018463135,2|0,1:2|0:2,0:0:0:0:
332,204,102430,1,0,0:2:0:0:
168,204,102519,2,0,L|80:204,2,60.5000018463135,2|8|0,0:2|0:2|0:2,0:0:0:0:
332,204,102783,6,0,L|436:204,2,60.5000018463135,2|0|0,0:2|0:2|0:2,0:0:0:0:
168,208,103048,1,2,0:2:0:0:
228,208,103136,1,0,1:2:0:0:
289,208,103224,1,0,0:2:0:0:
124,212,103313,2,0,L|124:68,1,121.000003692627,10|2,0:2|0:2,0:0:0:0:
380,92,103666,6,0,L|448:92,2,60.5000018463135,2|0|0,1:2|0:2|0:2,0:0:0:0:
216,92,103930,2,0,L|144:92,2,60.5000018463135,2|8|0,0:2|0:2|0:2,0:0:0:0:
380,92,104195,6,0,L|380:172,1,60.5000018463135,2|0,0:2|0:2,0:0:0:0:
320,156,104372,1,0,0:2:0:0:
156,160,104460,2,0,L|156:80,1,60.5000018463135,2|0,0:2|1:2,0:0:0:0:
216,100,104636,1,0,0:2:0:0:
380,96,104725,2,0,L|248:96,1,121.000003692627,10|2,0:2|1:2,0:0:0:0:
200,92,104989,1,0,1:2:0:0:
388,36,105078,6,0,L|472:36,2,60.5000018463135,2|0|0,1:2|0:2|0:2,0:0:0:0:
224,32,105342,1,2,0:2:0:0:
284,32,105430,1,8,0:2:0:0:
345,32,105518,1,0,0:2:0:0:
180,32,105607,6,0,L|104:32,2,60.5000018463135,2|0|0,0:2|0:2|0:2,0:0:0:0:
344,36,105872,2,0,L|420:36,2,60.5000018463135,2|0|0,0:2|1:2|0:2,0:0:0:0:
180,32,106136,2,0,L|308:32,1,121.000003692627,10|2,0:2|0:2,0:0:0:0:
28,328,106489,6,0,L|28:244,1,60.5000018463135,2|0,1:2|0:2,0:0:0:0:
92,276,106666,1,0,0:2:0:0:
256,272,106754,1,2,0:2:0:0:
195,272,106842,1,8,0:2:0:0:
135,272,106930,5,0,0:2:0:0:
300,272,107019,2,0,L|364:272,1,60.5000018463135,2|0,0:2|0:2,0:0:0:0:
360,272,107195,1,0,0:2:0:0:
196,272,107283,2,0,L|128:272,1,60.5000018463135,2|0,0:2|1:2,0:0:0:0:
135,272,107460,1,0,0:2:0:0:
300,272,107548,2,0,L|176:272,1,121.000003692627,10|2,0:2|0:2,0:0:0:0:
432,200,107901,6,0,L|504:200,2,60.5000018463135,2|0|0,1:2|0:2|0:2,0:0:0:0:
268,204,108166,2,0,L|192:204,2,60.5000018463135,2|8|0,0:2|0:2|0:2,0:0:0:0:
432,204,108430,5,2,0:2:0:0:
371,204,108518,1,0,0:2:0:0:
311,204,108606,1,0,0:2:0:0:
476,204,108695,2,0,L|476:120,1,60.5000018463135,2|0,0:2|1:2,0:0:0:0:
416,148,108872,1,0,0:2:0:0:
252,148,108960,2,0,L|380:148,1,121.000003692627,10|2,0:2|0:2,0:0:0:0:
120,96,109313,6,0,L|28:96,2,60.5000018463135,2|0|0,1:2|0:2|0:2,0:0:0:0:
284,96,109578,1,2,0:2:0:0:
223,96,109666,1,8,0:2:0:0:
163,96,109754,1,0,0:2:0:0:
324,92,109842,6,0,L|400:92,2,60.5000018463135,2|8|0,0:2|0:2|0:2,0:0:0:0:
160,100,110107,2,0,L|88:100,2,60.5000018463135,2|0|0,0:2|1:2|0:2,0:0:0:0:
328,44,110372,2,0,L|400:44,1,60.5000018463135,2|0,1:2|1:2,0:0:0:0:
224,44,110548,2,0,L|148:44,1,60.5000018463135,2|0,1:2|1:2,0:0:0:0:
352,248,110725,5,6,1:2:0:0:
412,248,110813,1,0,0:2:0:0:
473,248,110901,1,0,0:2:0:0:
312,248,110989,1,2,0:2:0:0:
372,248,111077,1,8,0:2:0:0:
433,248,111165,1,0,0:2:0:0:
268,252,111254,6,0,L|176:252,2,60.5000018463135,2|0|0,0:2|0:2|0:2,0:0:0:0:
432,252,111519,2,0,L|496:252,2,60.5000018463135,2|0|0,0:2|1:2|0:2,0:0:0:0:
268,256,111783,2,0,L|400:256,1,121.000003692627,10|2,0:2|0:2,0:0:0:0:
140,168,112136,5,2,1:2:0:0:
79,168,112224,1,0,0:2:0:0:
19,168,112312,1,0,0:2:0:0:
180,168,112400,1,2,0:2:0:0:
119,168,112488,1,8,0:2:0:0:
59,168,112578,1,0,0:2:0:0:
224,172,112665,6,0,L|316:172,2,60.5000018463135,2|0|0,0:2|0:2|0:2,0:0:0:0:
60,172,112930,2,0,L|-4:172,2,60.5000018463135,2|0|0,0:2|1:2|0:2,0:0:0:0:
224,176,113194,2,0,L|92:176,1,121.000003692627,10|2,0:2|0:2,0:0:0:0:
348,328,113548,6,0,L|348:256,1,60.5000018463135,2|0,1:2|0:2,0:0:0:0:
280,268,113725,1,0,0:2:0:0:
116,272,113813,1,2,0:2:0:0:
176,272,113901,1,8,0:2:0:0:
237,272,113989,1,0,0:2:0:0:
72,276,114078,6,0,L|72:192,1,60.5000018463135,2|0,0:2|0:2,0:0:0:0:
136,212,114254,1,0,0:2:0:0:
300,212,114342,1,2,0:2:0:0:
239,212,114430,1,0,1:2:0:0:
179,212,114518,1,0,0:2:0:0:
344,212,114607,2,0,L|484:212,1,121.000003692627,10|2,0:2|0:2,0:0:0:0:
191,328,114960,6,0,L|191:256,1,60.5000018463135,2|0,1:2|0:2,0:0:0:0:
259,268,115137,1,0,0:2:0:0:
423,272,115225,1,2,0:2:0:0:
362,272,115313,1,8,0:2:0:0:
302,272,115401,1,0,0:2:0:0:
467,276,115490,6,0,L|467:192,1,60.5000018463135,2|0,1:2|0:2,0:0:0:0:
403,212,115666,1,0,0:2:0:0:
239,212,115754,1,2,0:2:0:0:
299,212,115842,1,8,0:2:0:0:
360,212,115930,1,8,0:2:0:0:
195,212,116019,2,0,L|55:212,1,121.000003692627,10|2,0:2|0:2,0:0:0:0:
320,136,116372,5,2,1:2:0:0:
380,136,116460,1,0,0:2:0:0:
441,136,116548,1,0,0:2:0:0:
280,136,116636,1,2,0:2:0:0:
219,136,116724,1,8,0:2:0:0:
159,136,116812,1,0,0:2:0:0:
324,136,116901,6,0,L|324:56,1,60.5000018463135,2|0,0:2|0:2,0:0:0:0:
260,80,117078,1,0,0:2:0:0:
96,84,117166,2,0,L|96:12,1,60.5000018463135,2|0,0:2|1:2,0:0:0:0:
156,20,117342,1,0,0:2:0:0:
320,20,117430,2,0,L|448:20,1,121.000003692627,10|2,0:2|0:2,0:0:0:0:
180,280,117783,5,2,1:2:0:0:
119,280,117871,1,0,0:2:0:0:
59,280,117959,1,0,0:2:0:0:
220,280,118047,1,2,0:2:0:0:
280,280,118135,1,8,0:2:0:0:
341,280,118225,1,0,0:2:0:0:
176,280,118312,6,0,L|176:200,1,60.5000018463135,2|0,0:2|0:2,0:0:0:0:
240,224,118489,1,0,0:2:0:0:
404,228,118577,2,0,L|404:156,1,60.5000018463135,2|0,0:2|1:2,0:0:0:0:
344,164,118753,1,0,0:2:0:0:
180,164,118841,2,0,L|52:164,1,121.000003692627,8|2,0:2|0:2,0:0:0:0:
304,92,119195,5,2,1:2:0:0:
243,92,119283,1,0,0:2:0:0:
183,92,119371,1,0,0:2:0:0:
348,92,119460,1,2,0:2:0:0:
287,92,119548,1,8,0:2:0:0:
227,92,119636,1,0,0:2:0:0:
392,92,119725,6,0,L|464:92,2,60.5000018463135,2|0|0,0:2|0:2|0:2,0:0:0:0:
228,92,119989,1,2,0:2:0:0:
288,92,120077,1,0,1:2:0:0:
349,92,120165,1,0,0:2:0:0:
184,92,120254,2,0,L|52:92,1,121.000003692627,10|2,0:2|0:2,0:0:0:0:
312,352,120607,6,0,L|312:260,1,60.5000018463135,6|0,1:2|0:2,0:0:0:0:
252,288,120783,2,0,L|168:288,1,60.5000018463135,0|2,0:2|0:2,0:0:0:0:
356,228,120960,2,0,L|424:228,1,60.5000018463135,12|0,0:2|0:2,0:0:0:0:
248,196,121136,2,0,L|248:108,1,60.5000018463135,10|0,0:2|0:2,0:0:0:0:
436,80,121313,6,0,L|336:80,1,60.5000018463135,4|2,0:2|0:2,0:0:0:0:
315,80,121489,2,0,L|407:80,1,60.5000018463135,0|0,1:2|0:2,0:0:0:0:
200,44,121666,2,0,L|96:44,1,60.5000018463135,14|8,0:2|0:2,0:0:0:0:
316,32,121842,2,0,L|408:32,1,60.5000018463135,10|8,0:2|0:2,0:0:0:0:
200,368,122019,6,0,P|152:296|224:244,1,181.500005538941,6|0,1:1|0:1,0:0:0:0:
392,180,122372,2,0,L|296:180,1,60.5000018463135,10|8,0:1|0:1,0:0:0:0:
160,180,122548,2,0,L|80:180,1,60.5000018463135,8|8,0:1|0:1,0:0:0:0:
280,344,122725,6,0,P|304:280|256:252,1,121.000003692627,2|0,1:1|0:2,0:0:0:0:
116,216,122989,2,0,L|256:216,1,121.000003692627,2|0,1:1|0:1,0:0:0:0:
76,172,123254,2,0,P|48:108|100:68,1,121.000003692627,2|0,1:1|0:1,0:0:0:0:
136,72,123519,2,0,L|-4:76,1,121.000003692627,2|0,1:1|0:1,0:0:0:0:
172,284,123783,6,0,B|304:284|304:284|240:284,1,181.500005538941,2|0,1:1|0:1,0:0:0:0:
88,280,124136,2,0,P|64:208|108:176,1,121.000003692627,2|0,1:1|0:1,0:0:0:0:
248,180,124401,2,0,L|100:180,1,121.000003692627,2|0,1:1|0:1,0:0:0:0:
296,320,124666,6,0,P|372:244|276:184,1,242.000007385254,2|0,1:1|0:1,0:0:0:0:
164,188,125195,1,2,0:1:0:0:
104,188,125283,1,0,0:1:0:0:
104,128,125372,1,0,0:1:0:0:
164,128,125460,1,0,0:1:0:0:
332,344,125548,6,0,L|480:344,1,121.000003692627,2|0,1:1|0:1,0:0:0:0:
288,344,125813,2,0,L|288:208,1,121.000003692627,2|0,1:1|0:1,0:0:0:0:
124,224,126078,2,0,L|124:96,1,121.000003692627,2|0,1:1|0:1,0:0:0:0:
288,224,126342,2,0,L|288:96,1,121.000003692627,2|0,1:1|0:1,0:0:0:0:
456,224,126607,6,0,P|476:152|424:112,1,121.000003692627,2|0,1:1|0:1,0:0:0:0:
388,120,126872,1,0,0:1:0:0:
220,284,126960,2,0,L|368:284,1,121.000003692627,2|0,1:1|0:1,0:0:0:0:
180,232,127225,2,0,P|152:168|200:136,1,121.000003692627,2|0,1:1|0:1,0:0:0:0:
348,132,127489,2,0,L|348:52,1,60.5000018463135,2|0,1:1|0:1,0:0:0:0:
184,304,127666,6,0,L|392:304,1,181.500005538941,6|0,1:1|0:1,0:0:0:0:
196,236,128019,2,0,L|108:236,1,60.5000018463135,8|8,0:2|0:2,0:0:0:0:
304,184,128195,2,0,L|392:184,1,60.5000018463135,2|2,0:1|0:1,0:0:0:0:
192,180,128372,6,0,P|160:120|208:80,1,121.000003692627,2|0,1:1|0:1,0:0:0:0:
356,356,128636,2,0,P|384:296|320:260,1,121.000003692627,2|0,1:1|0:1,0:0:0:0:
180,240,128901,2,0,L|312:240,1,121.000003692627,2|2,1:1|0:1,0:0:0:0:
136,192,129166,6,0,P|112:132|156:92,1,121.000003692627,2|0,1:1|0:1,0:0:0:0:
304,316,129430,2,0,L|96:316,1,181.500005538941,2|0,1:1|0:1,0:0:0:0:
288,256,129783,6,0,P|312:196|252:160,1,121.000003692627,2|0,1:1|0:1,0:0:0:0:
108,160,130048,2,0,L|264:160,1,121.000003692627,2|0,1:1|0:1,0:0:0:0:
64,132,130313,2,0,L|64:56,1,60.5000018463135,2|0,1:1|0:1,0:0:0:0:
252,348,130489,6,0,B|380:348|380:348|272:348,1,181.500005538941,2|0,1:1|0:1,0:0:0:0:
160,344,130842,2,0,L|80:344,1,60.5000018463135,8|8,0:1|0:1,0:0:0:0:
268,280,131019,2,0,L|352:280,1,60.5000018463135,8|8,0:1|0:1,0:0:0:0:
176,280,131195,5,2,1:1:0:0:
24,284,131283,2,0,L|24:196,1,60.5000018463135,2|0,1:1|0:1,0:0:0:0:
176,216,131460,2,0,L|48:216,1,121.000003692627,2|0,1:1|0:1,0:0:0:0:
232,140,131725,2,0,L|296:140,1,60.5000018463135,2|0,1:1|0:1,0:0:0:0:
120,340,131901,6,0,P|56:288|124:232,1,181.500005538941,2|0,1:1|0:1,0:0:0:0:
284,228,132254,2,0,P|344:188|268:132,1,181.500005538941,2|0,1:1|0:1,0:0:0:0:
116,92,132607,2,0,L|248:92,1,121.000003692627,2|0,1:1|0:1,0:0:0:0:
68,276,132872,6,0,P|36:216|96:180,1,121.000003692627,2|0,1:1|0:1,0:0:0:0:
232,176,133136,2,0,L|324:176,1,60.5000018463135,2|0,1:1|0:1,0:0:0:0:
128,336,133313,6,0,P|68:308|148:248,1,181.500005538941,6|0,1:1|0:1,0:0:0:0:
288,232,133666,2,0,B|412:232|412:232|336:232,1,181.500005538941,2|0,1:1|0:1,0:0:0:0:
168,232,134019,6,0,L|168:92,1,121.000003692627,2|0,1:1|0:1,0:0:0:0:
332,112,134283,2,0,L|332:248,1,121.000003692627,2|0,1:1|0:1,0:0:0:0:
496,240,134548,2,0,L|496:168,1,60.5000018463135,2|0,1:1|0:1,0:0:0:0:
332,176,134725,6,0,L|140:176,1,181.500005538941,2|0,1:1|0:1,0:0:0:0:
320,348,135078,2,0,P|376:300|296:240,1,181.500005538941,2|0,1:1|0:1,0:0:0:0:
152,232,135430,6,0,L|288:232,1,121.000003692627,2|0,1:1|0:1,0:0:0:0:
108,232,135695,2,0,P|76:176|140:140,1,121.000003692627,2|0,1:1|0:1,0:0:0:0:
272,140,135960,2,0,L|348:140,1,60.5000018463135,2|0,1:1|0:1,0:0:0:0:
164,336,136136,6,0,L|360:336,1,181.500005538941,2|0,1:1|0:1,0:0:0:0:
180,336,136489,2,0,P|112:288|184:240,1,181.500005538941,2|0,1:1|0:1,0:0:0:0:
352,224,136842,6,0,L|352:88,1,121.000003692627,2|0,1:1|0:1,0:0:0:0:
188,108,137107,2,0,L|188:240,1,121.000003692627,2|0,1:1|0:1,0:0:0:0:
24,232,137372,2,0,L|24:144,1,60.5000018463135,2|0,1:1|0:1,0:0:0:0:
192,108,137548,6,0,B|320:108|320:108|240:108,1,181.500005538941,2|0,1:1|0:1,0:0:0:0:
96,352,137901,2,0,P|40:324|136:272,1,181.500005538941,2|0,1:1|0:1,0:0:0:0:
256,240,138254,6,0,P|288:176|232:156,1,121.000003692627,2|0,1:1|0:1,0:0:0:0:
96,160,138519,2,0,L|244:160,1,121.000003692627,2|0,1:1|0:1,0:0:0:0:
56,160,138783,2,0,L|56:84,1,60.5000018463135,2|0,1:1|0:1,0:0:0:0:
248,320,138960,6,0,L|436:320,1,181.500005538941,2|0,1:1|0:1,0:0:0:0:
264,316,139313,2,0,P|196:268|268:224,1,181.500005538941,2|0,1:1|0:1,0:0:0:0:
416,216,139666,6,0,P|448:148|400:120,1,121.000003692627,2|0,1:1|0:1,0:0:0:0:
260,128,139930,2,0,L|120:128,1,121.000003692627,2|0,1:1|0:1,0:0:0:0:
304,128,140195,2,0,L|404:128,1,60.5000018463135,2|0,1:1|0:1,0:0:0:0:
184,328,140372,6,0,P|128:288|216:224,1,189.750003619194,2|0,1:1|0:1,0:0:0:0:
364,212,140747,2,0,P|416:160|344:88,1,189.750003619194,2|0,1:1|0:1,0:0:0:0:
180,88,141122,6,0,P|152:148|196:184,1,126.500002412796,2|0,1:1|0:1,0:0:0:0:
360,184,141403,2,0,L|208:184,1,126.500002412796,2|0,1:1|0:1,0:0:0:0:
404,184,141684,2,0,L|404:108,1,63.250001206398,2|0,1:1|0:1,0:0:0:0:
180,356,141872,6,0,L|180:236,1,110,2|0,1:1|1:1,0:0:0:0:
288,248,142272,2,0,L|412:248,1,110,2|0,1:1|1:1,0:0:0:0:
232,176,142672,2,0,L|84:176,1,110,2|0,1:1|1:1,0:0:0:0:
68,176,142972,2,0,L|188:176,1,110,2|0,1:1|0:0,0:0:0:0:
232,176,143272,1,2,1:1:0:0:
416,352,143472,6,0,L|416:212,1,110,2|0,0:1|0:1,0:0:0:0:
316,248,143900,2,0,L|316:104,1,110,2|0,0:1|0:1,0:0:0:0:
216,144,144360,2,0,L|216:16,1,110,2|0,0:1|0:1,0:0:0:0:
308,36,144860,2,0,L|436:36,1,110,2|0,0:1|0:1,0:0:0:0:
48,348,145468,6,0,L|48:220,1,110,6|2,1:1|0:1,0:0:0:0:
141,296,145768,2,0,L|25:224,1,110,2|0,0:1|0:0,0:0:0:0:
280,168,146068,6,0,L|344:168,1,55,2|0,1:1|0:1,0:0:0:0:
184,112,146218,2,0,L|112:112,1,55,2|0,0:1|0:1,0:0:0:0:
280,112,146368,2,0,L|348:112,1,55,10|0,0:1|0:1,0:0:0:0:
388,112,146518,2,0,L|388:36,1,55,0|0,0:1|0:1,0:0:0:0:
248,308,146668,6,0,L|184:308,1,55,2|0,1:1|0:1,0:0:0:0:
136,308,146818,2,0,L|208:308,1,55,0|0,0:1|0:1,0:0:0:0:
340,272,146968,2,0,L|340:184,1,55,8|0,0:1|0:1,0:0:0:0:
284,216,147118,2,0,L|284:128,1,55,0|0,0:1|0:1,0:0:0:0:
432,156,147268,6,0,L|496:156,1,55,2|0,1:1|0:1,0:0:0:0:
487,156,147418,2,0,L|418:156,1,55,0|0,0:1|0:1,0:0:0:0:
276,96,147568,2,0,L|192:96,1,55,8|0,0:1|0:1,0:0:0:0:
368,48,147718,2,0,L|428:48,1,55,2|0,0:1|0:1,0:0:0:0:
264,328,147868,6,0,L|264:248,1,55,2|0,1:1|0:1,0:0:0:0:
320,268,148018,2,0,L|320:192,1,55,0|0,0:1|0:1,0:0:0:0:
172,208,148168,2,0,L|96:208,1,55,10|0,0:1|0:1,0:0:0:0:
64,208,148318,2,0,L|139:208,1,55,0|0,0:1|0:1,0:0:0:0:
260,164,148468,6,0,L|336:164,1,55,2|0,1:1|0:1,0:0:0:0:
368,164,148618,2,0,L|296:164,1,55,0|0,0:1|0:1,0:0:0:0:
176,144,148768,2,0,L|176:76,1,55,8|0,0:1|0:1,0:0:0:0:
324,76,148918,2,0,L|392:76,1,55,2|0,0:1|0:1,0:0:0:0:
228,264,149068,6,0,L|160:264,1,55,2|0,1:1|0:1,0:0:0:0:
173,264,149218,2,0,L|251:264,1,55,0|0,0:1|0:1,0:0:0:0:
372,212,149368,2,0,L|372:128,1,55,8|0,0:1|0:1,0:0:0:0:
316,156,149518,2,0,L|220:156,1,55,0|0,0:1|0:1,0:0:0:0:
402,76,149668,6,0,L|464:76,2,55,2|0|0,1:1|0:1|0:1,0:0:0:0:
266,76,149893,1,0,1:1:0:0:
128,84,149968,2,0,L|128:140,1,55,8|0,0:1|0:1,0:0:0:0:
266,76,150118,2,0,L|340:76,1,55,0|0,1:1|1:1,0:0:0:0:
144,272,150268,6,0,L|68:272,1,55,2|0,1:1|0:1,0:0:0:0:
32,272,150418,2,0,L|104:272,1,55,0|0,0:1|0:1,0:0:0:0:
232,268,150568,2,0,L|232:188,1,55,8|0,0:1|0:1,0:0:0:0:
176,216,150718,2,0,L|176:148,1,55,0|0,0:1|0:1,0:0:0:0:
328,148,150868,6,0,L|400:148,1,55,2|0,1:1|0:1,0:0:0:0:
236,96,151018,2,0,L|172:96,1,55,2|0,0:1|0:1,0:0:0:0:
328,88,151168,2,0,L|416:88,1,55,10|0,0:1|0:1,0:0:0:0:
440,88,151318,2,0,L|364:88,1,55,0|0,0:1|0:1,0:0:0:0:
236,240,151468,6,0,L|168:240,1,55,2|0,1:1|0:1,0:0:0:0:
128,240,151618,2,0,L|200:240,1,55,0|0,0:1|0:1,0:0:0:0:
324,240,151768,2,0,L|324:172,1,55,8|0,0:1|0:1,0:0:0:0:
268,188,151918,2,0,L|184:188,1,55,0|0,0:1|0:1,0:0:0:0:
360,128,152068,6,0,L|432:128,1,55,2|0,1:1|0:1,0:0:0:0:
468,128,152218,2,0,L|384:128,1,55,0|0,0:1|0:1,0:0:0:0:
260,96,152368,2,0,L|200:96,1,55,8|0,0:1|0:1,0:0:0:0:
360,48,152518,2,0,L|288:48,1,55,2|0,0:1|0:1,0:0:0:0:
140,360,152668,6,0,L|140:296,1,55,2|0,1:1|0:1,0:0:0:0:
196,308,152818,2,0,L|272:308,1,55,0|0,0:1|0:1,0:0:0:0:
104,248,152968,2,0,L|40:248,1,55,10|0,0:1|0:1,0:0:0:0:
49,248,153118,2,0,L|128:248,1,55,0|0,0:1|0:1,0:0:0:0:
252,244,153268,6,0,L|312:244,1,55,2|0,1:1|0:1,0:0:0:0:
156,184,153418,2,0,L|156:124,1,55,2|0,0:1|0:1,0:0:0:0:
304,120,153568,2,0,L|384:120,1,55,8|0,0:1|0:1,0:0:0:0:
304,120,153718,2,0,L|220:120,1,55,0|0,0:1|0:1,0:0:0:0:
396,60,153868,6,0,L|456:60,2,55,2|0|0,1:1|1:1|0:1,0:0:0:0:
168,360,154168,2,0,L|168:236,1,110,2|0,1:1|0:0,0:0:0:0:
320,216,154468,6,0,L|192:216,1,110,0|2,1:1|0:1,0:0:0:0:
156,216,154693,1,0,1:1:0:0:
296,148,154768,2,0,L|368:148,1,55,8|0,1:1|1:1,0:0:0:0:
200,108,154918,2,0,L|132:108,1,55,0|0,1:1|1:1,0:0:0:0:
320,64,155068,6,0,L|404:64,1,55,6|0,1:1|0:1,0:0:0:0:
428,64,155218,2,0,L|360:64,1,55,0|0,0:1|0:1,0:0:0:0:
204,356,155368,2,0,L|204:284,1,55,8|0,0:1|0:1,0:0:0:0:
260,296,155518,2,0,L|260:224,1,55,0|0,0:1|0:1,0:0:0:0:
204,240,155668,6,0,L|112:240,1,55,0|0,1:1|0:1,0:0:0:0:
296,180,155818,2,0,L|396:180,1,55,2|0,0:1|0:1,0:0:0:0:
204,124,155968,2,0,L|132:124,1,55,10|0,0:1|0:1,0:0:0:0:
204,124,156118,2,0,L|296:124,1,55,0|0,0:1|0:1,0:0:0:0:
112,72,156268,6,0,L|48:72,1,55,2|0,1:1|0:1,0:0:0:0:
200,32,156418,2,0,L|292:32,1,55,0|0,1:1|0:1,0:0:0:0:
400,28,156568,2,0,L|400:92,1,55,8|0,0:1|0:1,0:0:0:0:
344,84,156718,2,0,L|284:84,1,55,0|0,0:1|0:1,0:0:0:0:
440,252,156868,6,0,L|440:188,1,55,2|0,1:1|0:1,0:0:0:0:
284,192,157018,2,0,L|212:192,1,55,2|0,0:1|0:1,0:0:0:0:
388,140,157168,2,0,L|456:140,1,55,8|0,1:1|1:1,0:0:0:0:
296,140,157318,2,0,L|224:140,1,55,0|0,1:1|1:1,0:0:0:0:
96,352,157468,6,0,L|96:288,1,55,2|0,1:1|0:1,0:0:0:0:
152,300,157618,2,0,L|224:300,1,55,0|0,0:1|0:1,0:0:0:0:
44,260,157768,2,0,L|44:184,1,55,8|0,0:1|0:1,0:0:0:0:
100,200,157918,2,0,L|176:200,1,55,0|0,0:1|0:1,0:0:0:0:
100,200,158068,6,0,L|36:200,1,55,0|0,1:1|0:1,0:0:0:0:
192,140,158218,2,0,L|284:140,1,55,2|0,0:1|0:1,0:0:0:0:
87,296,158368,2,0,L|7:296,1,55,10|0,0:1|0:1,0:0:0:0:
32,296,158518,2,0,L|104:296,1,55,0|0,0:1|0:1,0:0:0:0:
244,292,158668,6,0,L|316:292,1,55,2|0,1:1|0:1,0:0:0:0:
148,232,158818,2,0,L|84:232,1,55,0|0,1:1|0:1,0:0:0:0:
248,224,158968,2,0,L|248:148,1,55,8|0,1:1|0:1,0:0:0:0:
192,176,159118,2,0,L|192:92,1,55,0|0,0:1|0:1,0:0:0:0:
344,104,159268,6,0,L|344:36,1,55,2|0,1:1|0:1,0:0:0:0:
192,44,159418,2,0,L|128:44,1,55,2|0,0:1|0:1,0:0:0:0:
320,148,159568,2,0,L|412:148,1,55,8|0,1:1|1:1,0:0:0:0:
232,152,159718,2,0,L|156:152,1,55,0|0,1:1|1:1,0:0:0:0:
32,96,159868,6,0,L|32:152,1,55,2|0,1:1|0:1,0:0:0:0:
88,152,160018,2,0,L|148:152,1,55,0|0,0:1|0:1,0:0:0:0:
284,352,160168,2,0,L|284:276,1,55,8|0,0:1|0:1,0:0:0:0:
228,296,160318,2,0,L|152:296,1,55,0|0,0:1|0:1,0:0:0:0:
316,236,160468,6,0,L|392:236,1,55,2|0,1:1|0:1,0:0:0:0:
224,224,160618,2,0,L|144:224,1,55,2|0,0:1|0:1,0:0:0:0:
320,176,160768,2,0,L|320:108,1,55,8|0,0:1|0:1,0:0:0:0:
264,124,160918,2,0,L|264:44,1,55,0|0,0:1|0:1,0:0:0:0:
424,56,161068,6,0,L|480:56,1,55,2|0,1:1|0:1,0:0:0:0:
479,56,161218,2,0,L|418:56,1,55,0|0,0:1|0:1,0:0:0:0:
264,360,161368,2,0,L|264:296,1,55,8|0,0:1|0:1,0:0:0:0:
320,304,161518,2,0,L|384:304,1,55,0|0,0:1|0:1,0:0:0:0:
224,244,161668,6,0,L|148:244,1,55,2|0,1:1|0:1,0:0:0:0:
316,192,161818,2,0,L|396:192,1,55,2|0,0:1|0:1,0:0:0:0:
220,180,161968,2,0,P|168:136|228:80,1,165,10|0,0:1|0:1,0:0:0:0:
384,360,162268,6,0,L|384:240,1,110,6|0,1:1|0:1,0:0:0:0:
244,184,162568,1,2,0:1:0:0:
299,184,162643,1,2,0:1:0:0:
354,184,162718,1,2,0:1:0:0:
212,132,162868,6,0,L|132:132,2,55,0|0|2,0:1|0:1|0:1,0:0:0:0:
352,124,163168,2,0,L|352:48,1,55,0|0,0:1|0:1,0:0:0:0:
296,68,163318,2,0,L|212:68,1,55,0|0,0:1|0:1,0:0:0:0:
396,264,163468,6,0,L|328:264,1,55,2|2,1:1|1:1,0:0:0:0:
192,260,163618,2,0,L|116:260,1,55,2|2,1:1|1:1,0:0:0:0:
292,204,163768,2,0,L|416:204,1,110,2|2,1:1|1:1,0:0:0:0:
176,160,164068,6,0,L|304:160,1,110,2|2,1:1|0:1,0:0:0:0:
68,116,164368,2,0,L|68:264,1,110,0|2,1:1|1:1,0:0:0:0:
304,296,164668,6,0,B|416:296|416:296|348:296,1,165,6|0,1:2|0:2,0:0:0:0:
208,296,164968,2,0,P|156:256|224:200,1,165,10|0,0:2|0:2,0:0:0:0:
368,196,165268,6,0,P|416:144|336:100,1,165,2|0,1:2|0:2,0:0:0:0:
204,100,165568,2,0,L|380:100,1,165,10|0,0:2|0:2,0:0:0:0:
216,100,165868,6,0,B|96:100|96:100|184:100,1,165,2|0,1:2|0:2,0:0:0:0:
296,104,166168,2,0,P|352:160|276:200,1,165,10|0,0:2|0:2,0:0:0:0:
128,356,166468,6,0,L|8:356,1,110,2|2,1:2|0:2,0:0:0:0:
256,284,166768,2,0,L|128:284,1,110,10|2,0:2|0:2,0:0:0:0:
376,280,167068,6,0,B|488:280|488:280|416:280,1,165,2|0,1:2|0:2,0:0:0:0:
280,280,167368,2,0,B|168:280|168:280|228:280,1,165,10|0,0:2|0:2,0:0:0:0:
376,280,167668,6,0,P|424:236|356:176,1,165,2|0,1:2|0:2,0:0:0:0:
212,176,167968,2,0,L|392:176,1,165,10|0,0:2|0:2,0:0:0:0:
224,180,168268,6,0,L|40:180,1,165,2|0,1:2|0:2,0:0:0:0:
212,176,168568,2,0,P|264:140|196:88,1,165,10|0,0:2|0:2,0:0:0:0:
52,80,168868,6,0,P|8:112|80:184,1,165,2|0,1:2|0:2,0:0:0:0:
212,188,169168,2,0,L|76:188,1,110,8|2,0:2|0:2,0:0:0:0:
344,352,169468,6,0,P|392:316|328:252,1,165,2|0,1:2|0:2,0:0:0:0:
192,248,169768,2,0,L|192:184,1,55,8|2,0:2|0:2,0:0:0:0:
248,188,169918,2,0,L|344:188,1,55,2|2,0:2|0:2,0:0:0:0:
148,124,170068,6,0,L|80:124,1,55,0|0,1:2|0:2,0:0:0:0:
93,124,170218,2,0,L|172:124,1,55,0|0,0:2|0:2,0:0:0:0:
304,60,170368,2,0,L|168:60,1,110,10|2,0:2|0:2,0:0:0:0:
420,336,170668,6,0,P|448:276|408:236,1,110,2|2,1:2|0:2,0:0:0:0:
372,244,170893,1,2,0:2:0:0:
216,256,170968,2,0,L|136:256,1,55,10|2,0:2|0:2,0:0:0:0:
216,256,171118,2,0,L|300:256,1,55,2|2,0:2|0:2,0:0:0:0:
120,200,171268,6,0,L|120:324,1,110,2|2,1:2|0:2,0:0:0:0:
328,192,171568,2,0,P|376:156|312:84,1,165,10|0,0:2|0:2,0:0:0:0:
160,60,171868,5,2,0:2:0:0:
380,56,172018,1,2,0:2:0:0:
272,56,172168,1,2,0:2:0:0:
488,52,172318,1,2,0:2:0:0:
240,348,173668,5,2,0:2:0:0:
136,348,173818,2,0,P|72:320|144:224,1,220,2|2,0:2|0:2,0:0:0:0:
414,178,174268,6,0,L|266:169,1,110,4|0,1:2|3:2,0:0:0:0:
273,169,174455,1,0,3:2:0:0:
479,78,174568,2,0,L|331:69,1,110,8|0,3:2|3:2,0:0:0:0:
338,73,174755,1,0,3:2:0:0:
222,258,174868,6,0,L|370:249,1,110,0|0,1:2|3:2,0:0:0:0:
363,252,175055,1,0,3:2:0:0:
159,348,175168,2,0,L|307:339,1,110,8|0,3:2|3:2,0:0:0:0:
300,342,175355,1,0,3:2:0:0:
62,266,175468,5,0,1:2:0:0:
184,248,175618,2,0,L|191:202,1,27.5,0|0,3:2|3:2,0:0:0:0:
394,160,175768,1,8,3:2:0:0:
271,152,175918,2,0,L|264:122,1,27.5,0|0,3:2|3:2,0:0:0:0:
470,95,176068,6,0,L|481:174,3,55,2|0|2|0,1:2|3:2|3:2|3:2,0:0:0:0:
284,281,176368,2,0,L|140:295,1,110,8|0,3:2|3:2,0:0:0:0:
143,300,176555,1,0,3:2:0:0:
386,353,176668,5,0,1:2:0:0:
363,242,176818,2,0,L|317:235,1,27.5,0|0,3:2|3:2,0:0:0:0:
129,220,176968,1,8,3:2:0:0:
152,109,177118,2,0,L|198:102,1,27.5,0|0,3:2|3:2,0:0:0:0:
301,105,177268,5,0,1:2:0:0:
320,200,177418,2,0,L|360:199,1,27.5,0|0,3:2|3:2,0:0:0:0:
142,351,177568,1,8,3:2:0:0:
97,235,177718,2,0,L|44:236,1,27.5,0|0,3:2|3:2,0:0:0:0:
281,78,177868,6,0,L|495:158,2,220,2|10|2,1:2|3:2|1:2,0:0:0:0:
412,43,178618,2,0,L|383:39,1,27.5,0|0,3:2|3:2,0:0:0:0:
274,42,178768,1,10,3:2:0:0:
406,169,178918,2,0,L|368:170,1,27.5,0|0,3:2|3:2,0:0:0:0:
159,286,179068,6,0,L|268:292,1,110,2|0,1:2|3:2,0:0:0:0:
301,294,179255,1,0,3:2:0:0:
74,369,179368,2,0,L|65:240,1,110,8|0,3:2|3:2,0:0:0:0:
98,248,179555,1,0,3:2:0:0:
214,185,179668,6,0,L|94:175,1,110,0|0,1:2|3:2,0:0:0:0:
73,178,179855,1,0,3:2:0:0:
285,70,179968,2,0,L|405:60,1,110,8|0,3:2|3:2,0:0:0:0:
426,63,180155,1,0,3:2:0:0:
197,85,180268,5,0,1:2:0:0:
71,54,180418,2,0,L|106:46,1,27.5,0|0,3:2|3:2,0:0:0:0:
308,232,180568,1,8,3:2:0:0:
181,201,180718,2,0,L|216:193,1,27.5,0|0,3:2|3:2,0:0:0:0:
421,348,180868,5,0,1:2:0:0:
294,317,181018,2,0,L|329:309,1,27.5,0|0,3:2|3:2,0:0:0:0:
434,274,181168,1,8,3:2:0:0:
213,356,181318,2,0,L|167:349,1,27.5,0|0,3:2|3:2,0:0:0:0:
397,359,181468,5,2,1:2:0:0:
397,358,181618,2,0,L|354:356,1,27.5,0|0,3:2|0:0,0:0:0:0:
261,355,181768,1,2,0:2:0:0:
261,355,181918,1,2,0:2:0:0:
18,212,182068,6,0,L|156:191,1,110,2|0,1:2|0:0,0:0:0:0:
206,204,182293,2,0,L|210:78,1,110,2|0,0:2|0:0,0:0:0:0:
122,85,182518,2,0,L|114:-14,1,55,2|0,0:2|0:0,0:0:0:0:
332,100,182668,5,2,1:2:0:0:
453,198,182818,2,0,L|416:204,1,27.5,0|0,3:2|0:0,0:0:0:0:
229,239,182968,1,0,1:2:0:0:
350,337,183118,2,0,L|313:343,1,27.5,0|0,3:2|0:0,0:0:0:0:
115,274,183268,5,2,1:2:0:0:
236,372,183418,2,0,L|199:378,1,27.5,0|0,3:2|0:0,0:0:0:0:
15,184,183568,1,0,1:2:0:0:
143,164,183718,1,0,1:2:0:0:
425,269,183868,6,0,P|435:184|296:138,1,220,6|0,1:2|0:2,0:0:0:0:
210,145,184318,1,0,1:2:0:0:
334,106,184468,2,0,L|519:156,2,165,8|0|8,0:2|0:0|0:2,0:0:0:0:
207,269,185068,2,0,P|195:206|310:119,1,220,0|8,0:2|0:2,0:0:0:0:
177,87,185518,1,0,0:0:0:0:
309,91,185668,1,0,1:2:0:0:
165,106,185818,2,0,P|103:113|76:271,1,220,8|0,0:2|1:2,0:0:0:0:
305,339,186268,6,0,P|314:255|117:150,1,330,8|0,0:2|1:2,0:0:0:0:
260,144,186868,1,8,0:2:0:0:
121,129,187018,1,0,0:2:0:0:
61,69,187168,1,0,1:2:0:0:
121,129,187318,1,8,0:2:0:0:
257,133,187468,2,0,L|262:267,2,110,8|8|0,1:2|0:2|1:2,0:0:0:0:
408,138,187918,6,0,B|427:217|427:217|402:273|402:273|270:333|270:335|270:338|270:338|409:346|409:346|278:271,1,571.999973815919,8|2,0:2|0:2,0:0:0:0:
34,180,188668,6,0,L|27:339,1,110,6|0,1:2|0:2,0:0:0:0:
80,306,188893,1,0,1:2:0:0:
146,308,188968,1,8,0:2:0:0:
26,371,189118,1,8,0:2:0:0:
249,369,189268,5,2,1:2:0:0:
270,319,189343,1,8,0:2:0:0:
256,267,189418,1,0,1:2:0:0:
212,236,189493,1,8,0:2:0:0:
155,219,189568,2,0,L|281:206,1,110,8|2,0:2|1:2,0:0:0:0:
495,107,189868,6,0,L|370:91,1,110,2|2,1:2|0:2,0:0:0:0:
325,78,190093,1,0,1:2:0:0:
385,93,190168,1,10,0:2:0:0:
243,124,190318,1,2,1:2:0:0:
234,178,190393,1,8,0:2:0:0:
226,232,190468,1,2,0:2:0:0:
163,260,190543,1,8,0:2:0:0:
92,268,190618,1,10,0:2:0:0:
234,327,190768,2,0,L|385:332,1,110,10|0,1:2|0:0,0:0:0:0:
72,358,191068,5,0,1:0:0:0:
207,366,191218,2,0,L|215:226,1,110,0|0,1:0|0:2,0:0:0:0:
269,236,191443,1,0,1:2:0:0:
340,228,191518,1,8,0:2:0:0:
203,173,191668,5,2,1:2:0:0:
347,188,191818,1,0,1:2:0:0:
356,134,191893,1,8,0:2:0:0:
332,85,191968,1,8,0:2:0:0:
285,59,192043,1,0,0:0:0:0:
228,58,192118,2,0,L|150:61,2,55,10|8|0,1:2|0:2|0:2,0:0:0:0:
88,124,192418,6,0,L|84:257,1,110,10|0,1:2|1:2,0:0:0:0:
143,253,192643,1,0,1:2:0:0:
205,256,192718,1,10,0:2:0:0:
68,315,192868,2,0,L|-4:322,1,55,2|0,1:2|0:0,0:0:0:0:
232,365,193018,2,0,B|236:251|236:251|116:243,1,220,2|2,0:2|0:2,0:0:0:0:
393,274,193468,6,0,P|470:257|424:134,1,220,4|0,1:2|0:2,0:0:0:0:
347,124,193918,1,0,1:2:0:0:
214,112,194068,2,0,L|439:75,1,220,8|0,0:2|1:2,0:0:0:0:
299,49,194518,1,8,0:2:0:0:
440,104,194668,5,0,1:2:0:0:
489,200,194818,1,8,0:2:0:0:
440,104,194968,1,8,0:2:0:0:
299,49,195118,1,0,0:0:0:0:
431,59,195268,1,0,1:2:0:0:
299,49,195418,2,0,L|278:288,1,220,8|0,0:2|1:2,0:0:0:0:
24,336,195868,6,0,P|57:258|280:165,1,330,8|0,0:2|1:2,0:0:0:0:
137,240,196468,2,0,P|119:132|226:69,1,220,8|0,0:2|1:2,0:0:0:0:
330,72,196918,1,8,0:2:0:0:
195,46,197068,6,0,L|-6:141,1,220,0|0,1:2|1:2,0:0:0:0:
132,191,197518,1,0,0:0:0:0:
276,255,197668,2,0,L|64:311,1,220,8|0,0:2|1:2,0:0:0:0:
65,342,198118,1,0,0:2:0:0:
308,364,198268,6,0,P|308:283|171:234,1,220,0|0,1:2|0:2,0:0:0:0:
316,209,198718,1,0,1:2:0:0:
450,227,198868,2,0,L|460:102,1,110,8|0,0:2|0:2,0:0:0:0:
215,137,199168,5,0,1:2:0:0:
339,113,199318,1,0,0:2:0:0:
203,87,199468,2,0,L|193:220,1,110,0|0,1:2|0:2,0:0:0:0:
55,258,199768,1,8,0:2:0:0:
330,345,200068,5,0,1:2:0:0:
264,258,200218,1,8,0:2:0:0:
163,216,200368,1,0,1:2:0:0:
55,230,200518,1,8,0:2:0:0:
357,221,200668,6,0,L|370:158,3,55,12|0|0|0,0:2|0:0|0:2|0:2,0:0:0:0:
461,166,200968,2,0,L|479:93,3,55,8|0|0|0,0:2|0:0|0:2|0:2,0:0:0:0:
381,102,201268,6,0,L|363:33,1,55,0|0,0:2|0:2,0:0:0:0:
272,49,201418,2,0,L|254:121,1,55,0|0,0:2|0:2,0:0:0:0:
422,196,201568,2,0,L|483:204,1,55,8|8,0:2|0:2,0:0:0:0:
292,312,201718,2,0,L|232:311,1,55,8|8,0:2|0:2,0:0:0:0:
51,201,201868,5,4,1:2:0:0:
175,172,202018,1,0,1:2:0:0:
305,138,202168,1,0,1:2:0:0:
172,77,202318,1,0,1:2:0:0:
423,48,202468,1,8,1:1:0:0:
292,38,202618,1,8,1:1:0:0:
60,206,202768,1,8,1:1:0:0:
311,262,202918,1,8,1:1:0:0:
54,342,203068,6,0,P|41:269|135:206,1,165,6|0,1:1|0:1,0:0:0:0:
171,208,203368,2,0,L|171:118,1,55,8|0,1:1|0:0,0:0:0:0:
93,138,203518,2,0,L|91:81,1,55,2|0,0:1|0:1,0:0:0:0:
276,72,203668,2,0,L|373:75,2,55,2|0|0,1:1|0:1|0:1,0:0:0:0:
152,75,203968,1,8,1:1:0:0:
282,115,204118,1,0,0:1:0:0:
45,235,204268,5,0,1:1:0:0:
170,288,204418,2,0,L|310:304,1,110,0|8,0:1|1:1,0:0:0:0:
135,371,204718,1,0,0:1:0:0:
116,320,204793,1,0,0:1:0:0:
130,267,204868,1,0,1:1:0:0:
171,232,204943,1,0,0:1:0:0:
225,226,205018,1,0,0:1:0:0:
485,208,205168,1,8,1:1:0:0:
346,184,205318,1,0,0:1:0:0:
82,177,205468,6,0,P|76:93|173:71,1,165,2|0,1:1|0:1,0:0:0:0:
203,59,205768,1,8,1:1:0:0:
70,53,205918,1,2,0:1:0:0:
207,75,206068,1,2,1:1:0:0:
218,128,206143,1,0,0:1:0:0:
230,182,206218,1,0,0:1:0:0:
362,200,206368,1,8,1:1:0:0:
233,247,206518,1,0,0:1:0:0:
480,314,206668,5,0,1:1:0:0:
358,344,206818,1,10,1:1:0:0:
219,346,206968,1,2,1:1:0:0:
352,286,207118,1,10,1:1:0:0:
105,262,207268,1,2,1:1:0:0:
240,237,207418,1,10,1:1:0:0:
18,160,207568,1,2,1:1:0:0:
244,144,207718,1,10,1:1:0:0:
18,160,207868,6,0,P|14:218|108:271,1,165,6|0,1:1|0:1,0:0:0:0:
155,273,208168,1,8,1:1:0:0:
21,357,208318,2,0,L|115:371,1,55,2|0,0:1|0:1,0:0:0:0:
139,366,208468,2,0,L|149:228,1,110,2|0,1:1|0:1,0:0:0:0:
283,228,208768,1,8,1:1:0:0:
141,185,208918,1,0,0:1:0:0:
406,151,209068,6,0,L|421:278,1,110,0|0,1:1|0:1,0:0:0:0:
357,282,209293,1,0,0:1:0:0:
288,285,209368,1,8,1:1:0:0:
436,352,209518,1,0,0:1:0:0:
453,300,209593,1,0,0:1:0:0:
436,249,209668,1,0,1:1:0:0:
392,217,209743,1,0,0:1:0:0:
338,219,209818,1,0,0:1:0:0:
199,186,209968,1,8,1:1:0:0:
343,183,210118,1,0,0:1:0:0:
84,257,210268,6,0,L|67:164,3,55,2|0|0|0,1:1|0:0|0:1|0:1,0:0:0:0:
156,273,210568,2,0,L|238:272,1,55,8|0,1:1|0:0,0:0:0:0:
39,360,210718,1,2,0:1:0:0:
165,363,210868,2,0,L|179:237,1,110,2|0,1:1|0:1,0:0:0:0:
307,233,211168,2,0,L|256:195,1,55,8|0,1:1|0:1,0:0:0:0:
199,181,211318,2,0,L|134:184,1,55,0|0,0:1|0:1,0:0:0:0:
343,135,211468,5,0,1:1:0:0:
473,120,211618,1,10,1:1:0:0:
230,76,211768,1,2,1:1:0:0:
363,56,211918,1,10,1:1:0:0:
112,143,212068,1,2,1:1:0:0:
253,156,212218,1,10,1:1:0:0:
30,231,212368,2,0,L|20:167,2,55,2|0|10,1:1|0:1|1:1,0:0:0:0:
100,242,212593,1,0,0:1:0:0:
308,315,212668,6,0,P|319:234|210:216,1,165,6|0,1:1|0:1,0:0:0:0:
195,200,212968,1,8,1:1:0:0:
337,149,213118,2,0,L|408:146,1,55,2|0,0:1|0:1,0:0:0:0:
322,126,213268,2,0,L|243:120,2,55,2|0|0,1:1|0:1|0:1,0:0:0:0:
460,240,213568,1,8,1:1:0:0:
321,125,213718,1,0,0:1:0:0:
70,295,213868,5,0,1:1:0:0:
197,301,214018,2,0,L|233:245,2,55,0|0|8,0:1|0:1|1:1,0:0:0:0:
63,288,214318,1,0,0:1:0:0:
41,238,214393,1,0,0:1:0:0:
53,186,214468,1,0,1:1:0:0:
96,152,214543,1,0,0:1:0:0:
150,150,214618,1,0,0:1:0:0:
280,144,214768,1,8,1:1:0:0:
138,64,214918,1,0,0:1:0:0:
395,66,215068,5,0,1:1:0:0:
495,175,215218,2,0,L|423:209,1,55,0|0,0:1|0:1,0:0:0:0:
258,333,215368,1,8,1:1:0:0:
386,355,215518,1,0,0:1:0:0:
405,304,215593,1,0,0:0:0:0:
387,253,215668,1,0,1:1:0:0:
340,226,215743,1,0,0:1:0:0:
286,223,215818,1,0,0:1:0:0:
423,221,215968,2,0,L|435:89,1,110,8|0,1:1|0:1,0:0:0:0:
153,121,216268,5,0,1:1:0:0:
286,61,216418,2,0,L|158:43,1,110,0|8,0:1|1:1,0:0:0:0:
42,205,216718,2,0,L|105:232,1,55,0|0,0:1|0:1,0:0:0:0:
160,249,216868,2,0,L|166:320,1,55,0|0,1:1|0:1,0:0:0:0:
87,299,217018,2,0,L|83:376,1,55,0|0,0:1|0:0,0:0:0:0:
264,343,217168,2,0,L|401:340,1,110,8|0,1:1|0:1,0:0:0:0:
132,213,217468,5,2,1:1:0:0:
18,98,217618,2,0,L|103:88,1,55,0|0,0:1|0:1,0:0:0:0:
139,92,217768,2,0,L|155:231,1,110,10|2,1:1|0:1,0:0:0:0:
290,232,218068,2,0,L|232:279,1,55,2|0,1:1|0:1,0:0:0:0:
179,280,218218,1,0,0:1:0:0:
419,327,218368,2,0,L|452:259,2,55,10|0|0,1:1|0:1|0:1,0:0:0:0:
355,333,218593,1,0,0:0:0:0:
156,363,218668,6,0,L|34:343,1,110,2|0,1:1|0:1,0:0:0:0:
112,307,218893,1,0,0:1:0:0:
181,291,218968,2,0,L|339:277,1,110,10|0,1:1|0:1,0:0:0:0:
148,213,219268,2,0,L|110:162,2,55,2|0|0,1:1|0:1|0:1,0:0:0:0:
288,196,219568,1,10,1:1:0:0:
148,214,219718,1,2,0:1:0:0:
439,236,219868,6,0,L|478:169,2,55,2|0|0,1:1|0:1|0:1,0:0:0:0:
370,246,220093,1,0,0:1:0:0:
288,247,220168,2,0,L|250:189,2,55,2|0|0,1:1|0:1|0:1,0:0:0:0:
365,266,220393,1,0,0:1:0:0:
274,293,220468,6,0,L|253:228,3,55,2|0|0|0,1:1|0:1|0:1|0:1,0:0:0:0:
171,242,220768,2,0,L|155:178,3,55,2|0|2|0,1:1|0:1|0:1|0:1,0:0:0:0:
59,173,221068,6,0,L|59:106,1,55,2|0,0:1|0:1,0:0:0:0:
138,98,221218,2,0,L|157:160,1,55,0|0,1:1|1:1,0:0:0:0:
242,174,221368,2,0,L|377:180,1,110,10|0,1:1|1:1,0:0:0:0:
93,347,221668,6,0,B|219:300|219:300|85:280|85:280|77:144,1,395.999987915039,2|2,0:2|0:2,0:0:0:0:
334,76,222268,6,0,L|345:215,1,110,6|0,1:2|0:2,0:0:0:0:
275,212,222493,1,0,0:2:0:0:
348,224,222568,2,0,L|470:229,1,110,2|2,1:2|0:2,0:0:0:0:
318,348,222868,1,2,1:2:0:0:
309,293,222943,1,0,0:2:0:0:
300,239,223018,1,0,0:2:0:0:
155,254,223168,1,2,1:2:0:0:
158,199,223243,1,0,0:2:0:0:
187,153,223318,1,0,0:2:0:0:
233,124,223393,1,0,0:0:0:0:
287,120,223468,5,2,1:2:0:0:
156,97,223610,2,0,L|126:42,2,55,0|0|2,0:2|0:2|1:2,0:0:0:0:
290,155,223896,2,0,L|289:62,2,55,0|0|2,0:2|0:2|1:2,0:0:0:0:
426,202,224182,2,0,L|505:210,2,55,0|0|2,0:2|0:0|1:2,0:0:0:0:
305,244,224468,1,2,0:2:0:0:
53,331,224610,6,0,L|41:182,1,110,2|0,1:2|0:2,0:0:0:0:
103,200,224825,1,0,0:2:0:0:
168,205,224896,1,2,1:2:0:0:
25,116,225039,2,0,L|154:92,1,110,0|2,0:2|1:2,0:0:0:0:
190,104,225253,2,0,L|203:201,1,55,0|0,0:2|0:2,0:0:0:0:
326,186,225468,1,2,1:2:0:0:
197,199,225610,1,2,0:2:0:0:
326,227,225759,6,0,L|349:349,1,110,2|0,1:2|0:2,0:0:0:0:
406,345,225963,1,0,0:2:0:0:
466,346,226031,2,0,L|473:217,1,110,2|0,1:2|0:2,0:0:0:0:
350,223,226304,2,0,L|336:100,1,110,2|0,1:2|0:2,0:0:0:0:
466,109,226577,2,0,L|478:49,3,55,2|0|2|0,1:2|0:0|0:2|0:0,0:0:0:0:
293,180,226849,5,2,1:2:0:0:
165,240,226986,2,0,L|223:260,1,55,0|0,0:2|0:2,0:0:0:0:
277,262,227122,1,2,1:2:0:0:
165,352,227259,1,2,0:2:0:0:
32,334,227395,1,2,1:2:0:0:
33,191,227531,2,0,L|106:191,1,55,0|0,0:2|0:0,0:0:0:0:
151,195,227668,1,2,1:2:0:0:
151,195,227804,1,0,0:2:0:0:
290,140,227940,5,2,1:2:0:0:
161,104,228077,2,0,L|127:53,2,55,0|0|2,0:2|0:2|1:2,0:0:0:0:
290,140,228349,1,0,0:2:0:0:
420,153,228486,2,0,L|432:282,1,110,2|0,1:2|0:2,0:0:0:0:
372,299,228690,1,0,0:0:0:0:
312,307,228759,2,0,L|191:308,1,110,2|2,0:2|0:2,0:0:0:0:
443,368,229031,6,0,L|447:234,1,110,2|0,1:2|0:2,0:0:0:0:
385,238,229236,1,0,0:2:0:0:
324,221,229304,2,0,L|455:199,1,110,2|0,1:2|0:2,0:0:0:0:
295,187,229577,2,0,L|283:62,1,110,2|0,1:2|0:2,0:0:0:0:
345,62,229781,1,0,0:2:0:0:
410,55,229849,2,0,L|265:55,1,110,2|2,1:2|0:2,0:0:0:0:
46,123,230122,5,2,1:2:0:0:
46,123,230259,1,2,0:2:0:0:
46,123,230395,1,2,0:2:0:0:
46,123,230531,1,0,0:2:0:0:
180,204,230668,2,0,L|58:226,1,110,2|2,0:2|0:2,0:0:0:0:
308,275,230940,2,0,L|460:291,1,110,2|2,0:2|0:2,0:0:0:0:
75,366,231213,6,0,L|66:250,1,110,6|2,1:1|0:1,0:0:0:0:
199,211,231486,2,0,L|44:202,1,110,10|2,0:1|0:1,0:0:0:0:
319,135,231759,2,0,L|194:119,1,110,2|0,1:1|0:1,0:0:0:0:
459,84,232031,2,0,L|472:217,1,110,10|0,0:1|0:1,0:0:0:0:
236,328,232304,6,0,L|219:212,1,110,2|0,1:1|0:1,0:0:0:0:
81,217,232577,2,0,L|59:95,1,110,10|0,0:1|0:1,0:0:0:0:
286,76,232849,2,0,L|148:60,1,110,2|0,1:1|0:1,0:0:0:0:
423,53,233122,2,0,L|438:183,1,110,10|2,0:1|0:1,0:0:0:0:
203,236,233395,6,0,L|83:239,1,110,2|0,1:1|0:1,0:0:0:0:
350,327,233668,2,0,L|471:331,1,110,10|0,0:1|0:1,0:0:0:0:
211,366,233940,2,0,L|199:244,1,110,2|0,1:1|0:1,0:0:0:0:
440,201,234213,2,0,L|318:193,1,110,10|2,0:1|0:1,0:0:0:0:
71,201,234486,6,0,L|66:80,1,110,2|0,1:1|0:1,0:0:0:0:
201,61,234759,2,0,L|217:190,1,110,10|0,0:1|0:1,0:0:0:0:
349,218,235031,1,2,1:1:0:0:
403,146,235168,1,2,0:1:0:0:
349,218,235304,1,10,0:1:0:0:
214,170,235440,1,2,0:1:0:0:
465,80,235577,6,0,L|478:204,1,110,2|2,1:1|0:1,0:0:0:0:
348,246,235849,2,0,L|481:264,1,110,10|2,0:1|0:1,0:0:0:0:
214,354,236122,2,0,L|206:208,1,110,2|0,1:1|0:1,0:0:0:0:
453,320,236395,2,0,L|461:189,1,110,10|0,0:1|0:1,0:0:0:0:
207,187,236668,6,0,L|197:64,1,110,2|0,1:1|0:1,0:0:0:0:
58,80,236940,2,0,L|49:214,1,110,10|0,0:1|0:1,0:0:0:0:
185,218,237213,2,0,L|206:340,1,110,2|0,1:1|0:1,0:0:0:0:
439,337,237486,2,0,L|310:318,1,110,10|2,0:1|0:1,0:0:0:0:
67,350,237759,6,0,L|54:223,1,110,2|0,1:1|0:1,0:0:0:0:
285,178,238031,2,0,L|151:171,1,110,10|0,0:1|0:1,0:0:0:0:
426,121,238304,2,0,L|444:278,1,110,2|0,1:1|0:1,0:0:0:0:
187,284,238577,2,0,L|308:291,1,110,10|2,0:1|0:1,0:0:0:0:
60,350,238849,6,0,L|156:349,2,73.3333333333333,2|0|0,3:1|3:1|3:1,0:0:0:0:
148,331,239122,2,0,L|195:256,2,73.3333333333333,2|0|0,3:1|3:0|3:0,0:0:0:0:
351,352,239395,2,0,L|503:336,1,110,2|2,1:1|0:1,0:0:0:0:
190,144,239668,2,0,L|53:135,1,110,10|2,0:1|0:1,0:0:0:0:
423,79,239940,6,0,L|442:201,1,110,6|2,1:1|0:1,0:0:0:0:
305,216,240213,2,0,L|293:341,1,110,10|2,0:1|0:1,0:0:0:0:
436,350,240486,2,0,L|445:236,1,110,2|0,1:1|0:1,0:0:0:0:
205,145,240759,2,0,L|319:139,1,110,10|0,0:1|0:1,0:0:0:0:
79,272,241031,6,0,L|63:123,1,110,2|0,1:1|0:1,0:0:0:0:
205,135,241304,2,0,L|214:263,1,110,10|0,0:1|0:1,0:0:0:0:
354,300,241577,2,0,L|215:324,1,110,2|0,1:1|0:1,0:0:0:0:
474,196,241849,2,0,L|352:184,1,110,10|2,0:1|0:1,0:0:0:0:
119,216,242122,6,0,L|114:97,1,110,2|0,1:1|0:1,0:0:0:0:
255,94,242395,2,0,L|263:220,1,110,10|0,0:1|0:1,0:0:0:0:
28,297,242668,2,0,L|150:321,1,110,2|0,1:1|0:1,0:0:0:0:
368,132,242940,2,0,L|242:143,1,110,10|2,0:1|0:1,0:0:0:0:
488,273,243213,6,0,L|492:153,1,110,2|0,1:1|0:1,0:0:0:0:
357,194,243486,2,0,L|345:77,1,110,10|0,0:1|0:1,0:0:0:0:
203,78,243759,1,2,1:1:0:0:
148,160,243895,1,0,0:1:0:0:
203,78,244031,1,10,0:1:0:0:
338,69,244168,1,2,0:1:0:0:
68,49,244304,6,0,L|59:171,1,110,2|2,1:1|0:1,0:0:0:0:
201,220,244577,2,0,L|75:259,1,110,10|2,0:1|0:1,0:0:0:0:
232,313,244849,2,0,L|352:320,1,110,2|0,1:1|0:1,0:0:0:0:
101,362,245122,2,0,L|95:243,1,110,10|0,0:1|0:1,0:0:0:0:
340,239,245395,6,0,L|344:120,1,110,2|0,1:1|0:1,0:0:0:0:
479,122,245668,2,0,L|492:257,1,110,10|0,0:1|0:1,0:0:0:0:
347,309,245940,2,0,L|338:188,1,110,2|0,1:1|0:1,0:0:0:0:
90,127,246213,2,0,L|234:97,1,110,10|2,0:1|0:1,0:0:0:0:
465,115,246486,6,0,L|478:233,1,110,2|0,1:1|0:1,0:0:0:0:
252,223,246759,2,0,L|241:361,1,110,10|0,0:1|0:1,0:0:0:0:
18,97,247031,2,0,L|149:74,1,110,2|0,1:1|0:1,0:0:0:0:
387,66,247304,2,0,L|498:77,1,110,10|2,0:1|0:1,0:0:0:0:
245,176,247577,6,0,B|485:295|485:295|490:161|490:161|463:24|463:24|372:280|372:280|269:13,1,1078.00001028061,0|0,3:1|3:1,0:0:0:0:
356,36,248213,1,0,3:1:0:0:
276,33,248304,1,0,3:1:0:0:
196,59,248395,1,0,3:1:0:0:
272,99,248486,1,0,3:1:0:0:
356,109,248577,1,0,3:1:0:0:
132,206,248668,6,0,L|-19:217,1,110,6|2,1:1|0:1,0:0:0:0:
247,270,248940,1,10,0:1:0:0:
26,284,249077,1,2,0:1:0:0:
255,305,249213,2,0,L|364:307,1,110,2|0,1:1|0:1,0:0:0:0:
125,359,249486,2,0,L|117:237,1,110,10|0,0:1|0:1,0:0:0:0:
351,189,249759,6,0,L|206:162,1,110,2|0,1:1|0:1,0:0:0:0:
374,125,250031,2,0,L|501:104,1,110,10|0,0:1|0:1,0:0:0:0:
352,50,250304,2,0,L|337:202,1,110,2|0,1:1|0:1,0:0:0:0:
89,264,250577,2,0,L|227:295,1,110,10|2,0:1|0:1,0:0:0:0:
472,344,250849,6,0,L|474:229,1,110,2|0,1:1|0:1,0:0:0:0:
236,202,251122,2,0,L|377:182,1,110,10|0,0:1|0:1,0:0:0:0:
87,155,251395,2,0,L|80:26,1,110,2|0,1:1|0:1,0:0:0:0:
341,46,251668,2,0,L|485:49,1,110,10|2,0:1|0:1,0:0:0:0:
190,332,251940,6,0,L|178:206,1,110,2|0,1:1|0:1,0:0:0:0:
44,212,252213,2,0,L|27:101,1,110,10|0,0:1|0:1,0:0:0:0:
261,224,252486,1,2,1:1:0:0:
317,140,252622,1,2,0:1:0:0:
261,224,252759,1,10,0:1:0:0:
127,246,252895,1,2,0:1:0:0:
381,301,253031,6,0,L|522:319,1,110,2|2,1:1|0:1,0:0:0:0:
351,368,253304,2,0,L|338:231,1,110,10|2,0:1|0:1,0:0:0:0:
203,213,253577,2,0,L|361:191,1,110,2|0,1:1|0:1,0:0:0:0:
78,322,253849,2,0,L|64:178,1,110,10|0,0:1|0:1,0:0:0:0:
321,257,254122,6,0,L|328:132,1,110,2|0,1:1|0:1,0:0:0:0:
462,133,254395,2,0,L|481:252,1,110,10|0,0:1|0:1,0:0:0:0:
342,304,254668,2,0,L|467:317,1,110,2|0,1:1|0:1,0:0:0:0:
213,358,254940,2,0,L|63:333,1,110,10|2,0:1|0:1,0:0:0:0:
373,217,255213,6,0,L|519:215,1,110,2|0,1:1|0:1,0:0:0:0:
252,241,255486,2,0,L|247:127,1,110,10|0,0:1|0:1,0:0:0:0:
16,64,255759,2,0,L|169:40,1,110,2|0,1:1|0:1,0:0:0:0:
358,65,256031,1,10,0:1:0:0:
125,78,256168,1,2,0:1:0:0:
374,147,256304,6,0,L|467:160,2,73.3333333333333,2|0|0,3:1|3:1|3:1,0:0:0:0:
289,195,256577,2,0,L|384:214,2,73.3333333333333,2|0|0,3:1|3:1|3:1,0:0:0:0:
72,312,256849,2,0,L|41:310,1,27.5,2|0,1:1|0:0,0:0:0:0:
44,310,256986,2,0,L|79:315,1,27.5,2|0,0:1|0:0,0:0:0:0:
328,344,257122,2,0,L|359:342,1,27.5,10|0,0:1|0:0,0:0:0:0:
355,342,257259,2,0,L|320:346,1,27.5,2|0,0:1|0:0,0:0:0:0:
56,204,257395,6,0,L|52:70,1,110,6|2,1:1|0:1,0:0:0:0:
285,75,257668,2,0,L|154:88,1,110,10|2,0:1|0:1,0:0:0:0:
425,151,257940,2,0,L|437:278,1,110,2|0,1:1|0:1,0:0:0:0:
200,323,258213,2,0,L|77:333,1,110,10|0,0:1|0:1,0:0:0:0:
367,349,258486,6,0,L|483:356,1,110,2|0,1:1|0:1,0:0:0:0:
254,275,258759,2,0,L|245:144,1,110,10|0,0:1|0:1,0:0:0:0:
385,129,259031,2,0,L|237:123,1,110,2|0,1:1|0:1,0:0:0:0:
37,84,259304,1,10,0:1:0:0:
272,92,259440,1,2,0:1:0:0:
34,116,259577,6,0,L|28:231,1,110,2|0,1:1|0:1,0:0:0:0:
246,208,259849,2,0,L|265:329,1,110,10|0,0:1|0:1,0:0:0:0:
488,316,260122,2,0,L|352:302,1,110,2|0,1:1|0:1,0:0:0:0:
148,350,260395,1,10,0:1:0:0:
377,291,260531,1,2,0:1:0:0:
135,296,260668,6,0,L|14:281,1,110,2|0,1:1|0:1,0:0:0:0:
280,272,260940,2,0,L|285:144,1,110,10|0,0:1|0:1,0:0:0:0:
152,184,261213,1,2,1:1:0:0:
97,101,261349,1,2,0:1:0:0:
152,184,261486,1,10,0:1:0:0:
286,185,261622,1,2,0:1:0:0:
34,251,261759,6,0,L|30:121,1,110,2|2,1:1|0:1,0:0:0:0:
161,109,262031,2,0,L|35:102,1,110,10|2,0:1|0:1,0:0:0:0:
197,138,262304,2,0,L|212:265,1,110,2|0,1:1|0:1,0:0:0:0:
456,319,262577,2,0,L|307:328,1,110,10|0,0:1|0:1,0:0:0:0:
96,359,262849,6,0,L|89:233,1,110,2|0,1:1|0:1,0:0:0:0:
228,237,263122,2,0,L|239:112,1,110,10|0,0:1|0:1,0:0:0:0:
379,93,263395,2,0,L|239:71,1,110,2|0,1:1|0:1,0:0:0:0:
29,35,263668,2,0,L|174:20,1,110,10|2,0:1|0:1,0:0:0:0:
414,165,263940,6,0,L|421:291,1,110,2|0,1:1|0:1,0:0:0:0:
186,335,264213,2,0,L|301:344,1,110,10|0,0:1|0:1,0:0:0:0:
45,357,264486,2,0,L|40:217,1,110,2|0,1:1|0:1,0:0:0:0:
290,217,264759,1,10,0:1:0:0:
41,191,264895,1,2,0:1:0:0:
305,28,265031,6,0,B|339:306|339:306|74:285|74:285|59:18|59:18|191:255,1,1078.00001028061,0|0,3:1|3:1,0:0:0:0:
263,280,265668,1,0,3:1:0:0:
186,328,265759,1,0,3:1:0:0:
108,336,265849,1,0,3:1:0:0:
192,355,265940,1,0,3:1:0:0:
108,360,266031,1,0,3:1:0:0:
348,347,266122,6,0,L|492:349,1,110,4|2,1:2|0:2,0:0:0:0:
334,321,266395,2,0,L|326:178,1,110,8|2,0:1|0:2,0:0:0:0:
193,187,266668,2,0,L|53:176,1,110,0|2,1:2|0:2,0:0:0:0:
219,104,266940,2,0,L|353:93,1,110,8|2,0:1|0:2,0:0:0:0:
74,57,267213,6,0,L|73:199,1,110,0|2,1:2|0:2,0:0:0:0:
210,199,267486,2,0,L|221:313,1,110,8|2,0:1|0:2,0:0:0:0:
358,243,267759,2,0,L|377:353,1,110,0|2,1:2|0:2,0:0:0:0:
234,355,268031,2,0,L|111:353,1,110,8|2,0:1|0:2,0:0:0:0:
372,244,268304,6,0,L|517:222,1,110,2|2,1:2|0:2,0:0:0:0:
346,207,268577,2,0,L|340:66,1,110,8|2,0:1|0:2,0:0:0:0:
201,82,268849,2,0,L|321:66,1,110,2|2,1:2|0:2,0:0:0:0:
182,184,269122,2,0,L|66:193,1,110,8|2,0:1|0:2,0:0:0:0:
327,298,269395,6,0,L|454:302,1,110,2|2,1:2|0:2,0:0:0:0:
301,352,269668,2,0,L|286:231,1,110,8|2,0:1|0:2,0:0:0:0:
145,244,269940,2,0,L|128:122,1,110,2|2,1:2|0:2,0:0:0:0:
258,108,270213,2,0,L|375:95,1,110,8|2,0:1|0:2,0:0:0:0:
114,28,270486,6,0,L|-2:66,1,110,4|2,1:2|0:2,0:0:0:0:
142,112,270759,2,0,L|167:234,1,110,8|2,0:1|0:2,0:0:0:0:
301,218,271031,2,0,L|339:328,1,110,2|2,1:2|0:2,0:0:0:0:
193,344,271304,2,0,L|70:360,1,110,8|2,0:1|0:2,0:0:0:0:
356,340,271577,6,0,L|484:351,1,110,0|2,1:2|0:2,0:0:0:0:
330,352,271849,2,0,L|312:208,1,110,8|2,0:1|0:2,0:0:0:0:
181,195,272122,2,0,L|25:162,1,110,0|2,1:2|0:2,0:0:0:0:
211,125,272395,2,0,L|222:262,1,110,8|2,0:1|0:2,0:0:0:0:
462,171,272668,6,0,L|342:150,1,110,2|2,1:2|0:2,0:0:0:0:
227,70,272940,2,0,L|358:57,1,110,8|2,0:1|0:2,0:0:0:0:
206,180,273213,2,0,L|77:204,1,110,2|2,1:2|0:2,0:0:0:0:
226,262,273486,2,0,L|338:276,1,110,8|2,0:1|0:2,0:0:0:0:
84,365,273759,6,0,L|69:240,1,110,0|2,1:2|0:2,0:0:0:0:
201,233,274031,2,0,L|87:209,1,110,8|2,0:1|0:2,0:0:0:0:
230,154,274304,2,0,L|240:315,1,110,2|2,1:2|0:2,0:0:0:0:
97,300,274577,2,0,L|226:344,1,110,8|2,0:1|0:2,0:0:0:0:
444,358,274849,6,0,L|445:235,1,110,4|2,1:2|0:2,0:0:0:0:
322,244,275122,2,0,L|309:125,1,110,8|2,0:1|0:2,0:0:0:0:
177,114,275395,2,0,L|303:71,1,110,0|2,1:2|0:2,0:0:0:0:
410,88,275668,2,0,L|286:69,1,110,8|2,0:1|0:2,0:0:0:0:
66,192,275940,6,0,L|62:326,1,110,2|2,1:2|0:2,0:0:0:0:
188,188,276213,2,0,L|205:331,1,110,8|2,0:1|0:2,0:0:0:0:
343,223,276486,2,0,L|368:383,1,110,0|2,1:2|0:2,0:0:0:0:
232,344,276759,2,0,L|105:346,1,110,8|2,0:1|0:2,0:0:0:0:
372,346,277031,6,0,L|506:333,1,110,2|2,1:2|0:2,0:0:0:0:
339,278,277304,2,0,L|329:132,1,110,8|2,0:1|0:2,0:0:0:0:
196,129,277577,2,0,L|324:108,1,110,2|2,1:2|0:2,0:0:0:0:
181,209,277849,2,0,L|45:226,1,110,8|2,0:1|0:2,0:0:0:0:
331,318,278122,6,0,L|444:311,1,110,2|2,1:2|0:2,0:0:0:0:
304,349,278395,2,0,L|296:206,1,110,8|2,0:1|0:2,0:0:0:0:
161,229,278668,2,0,L|136:88,1,110,2|2,1:2|0:2,0:0:0:0:
278,95,278940,2,0,L|394:99,1,110,8|2,0:1|0:2,0:0:0:0:
140,45,279213,6,0,L|11:63,1,110,0|2,1:2|0:2,0:0:0:0:
164,142,279486,2,0,L|175:269,1,110,8|2,0:1|0:2,0:0:0:0:
309,290,279759,2,0,L|189:311,1,110,0|2,1:2|0:2,0:0:0:0:
339,357,280031,2,0,L|350:206,1,110,8|2,0:1|0:2,0:0:0:0:
89,271,280304,6,0,L|84:122,1,110,2|2,1:2|0:2,0:0:0:0:
216,175,280577,2,0,L|218:55,1,110,8|2,0:1|0:2,0:0:0:0:
356,64,280849,2,0,L|215:51,1,110,0|2,1:2|0:2,0:0:0:0:
118,197,281122,2,0,L|257:187,1,110,8|2,0:1|0:2,0:0:0:0:
472,304,281395,6,0,L|472:171,1,110,2|2,1:2|0:2,0:0:0:0:
346,194,281668,2,0,L|341:71,1,110,8|2,0:1|0:2,0:0:0:0:
208,69,281940,2,0,L|59:102,1,110,2|2,1:2|0:2,0:0:0:0:
237,160,282213,2,0,L|349:179,1,110,8|2,0:1|0:2,0:0:0:0:
96,342,282486,6,0,L|90:208,1,110,2|2,1:2|0:2,0:0:0:0:
217,225,282759,2,0,L|219:98,1,110,8|2,0:1|0:2,0:0:0:0:
360,88,283031,2,0,L|481:106,1,110,2|2,1:2|0:2,0:0:0:0:
330,229,283304,2,0,L|195:251,1,110,8|2,0:1|0:2,0:0:0:0:
475,325,283577,6,0,L|476:182,1,98.9999969787599,4|2,1:2|0:2,0:0:0:0:
362,222,283849,2,0,L|350:104,1,98.9999969787599,0|2,1:2|0:2,0:0:0:0:
216,127,284122,2,0,L|196:21,1,98.9999969787599,0|2,1:2|0:2,0:0:0:0:
325,29,284395,2,0,L|348:143,1,98.9999969787599,0|2,1:2|0:2,0:0:0:0:
213,185,284668,6,0,L|203:305,1,98.9999969787599,2|2,1:2|0:2,0:0:0:0:
79,293,284940,2,0,L|55:407,1,98.9999969787599,0|2,1:2|0:2,0:0:0:0:
201,357,285213,2,0,L|209:239,1,98.9999969787599,0|2,1:2|0:2,0:0:0:0:
344,252,285486,2,0,L|352:131,1,98.9999969787599,0|2,1:2|0:2,0:0:0:0:
224,153,285759,6,0,L|223:40,1,98.9999969787599,2|2,1:2|0:2,0:0:0:0:
90,46,286031,2,0,L|88:178,1,98.9999969787599,0|2,1:2|0:2,0:0:0:0:
210,156,286304,2,0,L|227:265,1,98.9999969787599,2|2,1:2|0:2,0:0:0:0:
349,238,286577,2,0,L|396:351,1,98.9999969787599,0|2,1:2|0:2,0:0:0:0:
272,350,286849,6,0,L|268:242,1,98.9999969787599,2|2,1:2|0:2,0:0:0:0:
165,249,287122,2,0,L|146:123,1,98.9999969787599,0|2,1:2|0:2,0:0:0:0:
252,114,287395,2,0,L|266:232,1,98.9999969787599,2|2,1:2|0:2,0:0:0:0:
378,217,287668,2,0,L|408:328,1,98.9999969787599,2|2,1:2|0:2,0:0:0:0:
170,360,287940,6,0,L|150:249,1,98.9999969787599,4|2,1:2|0:2,0:0:0:0:
32,257,288213,2,0,L|15:129,1,98.9999969787599,0|2,1:2|0:2,0:0:0:0:
125,120,288486,2,0,L|143:229,1,98.9999969787599,0|2,1:2|0:2,0:0:0:0:
254,208,288759,2,0,L|269:318,1,98.9999969787599,0|2,1:2|0:2,0:0:0:0:
381,237,289031,6,0,L|408:366,1,98.9999969787599,2|2,1:2|0:2,0:0:0:0:
275,362,289304,2,0,L|272:249,1,98.9999969787599,0|2,1:2|0:2,0:0:0:0:
405,258,289577,2,0,L|409:148,1,98.9999969787599,0|2,1:2|0:2,0:0:0:0:
284,160,289849,2,0,L|259:47,1,98.9999969787599,0|2,1:2|0:2,0:0:0:0:
130,73,290122,6,0,L|92:202,1,98.9999969787599,2|2,1:2|0:2,0:0:0:0:
228,198,290395,2,0,L|235:328,1,98.9999969787599,0|2,1:2|0:2,0:0:0:0:
366,249,290668,2,0,L|396:355,1,98.9999969787599,2|2,1:2|0:2,0:0:0:0:
270,361,290940,2,0,L|254:245,1,98.9999969787599,0|2,1:2|0:2,0:0:0:0:
141,246,291213,6,0,L|100:114,1,98.9999969787599,2|2,1:2|0:2,0:0:0:0:
225,110,291486,2,0,L|239:251,1,98.9999969787599,0|2,1:2|0:2,0:0:0:0:
352,208,291759,2,0,L|382:342,1,98.9999969787599,2|2,1:2|0:2,0:0:0:0:
471,319,292031,2,0,L|455:204,1,98.9999969787599,2|2,1:2|0:2,0:0:0:0:
231,326,292304,6,0,L|12:260,3,197.99999395752,4|0|0|0,1:2|1:2|1:2|1:2,0:0:0:0:
251,192,293395,6,0,L|443:289,3,197.99999395752,2|0|0|0,1:2|1:2|1:2|1:2,0:0:0:0:
228,282,294486,6,0,L|93:117,3,197.99999395752,2|0|2|0,1:2|1:2|1:2|1:2,0:0:0:0:
298,332,295577,6,0,L|343:112,3,197.99999395752,2|0|0|2,1:2|1:2|1:2|1:2,0:0:0:0:
60,75,296668,5,4,1:2:0:0:
256,192,296804,12,0,300622,0:0:0:0:
