osu file format v14

[General]
AudioFilename: audio.mp3
AudioLeadIn: 0
PreviewTime: 14882
Countdown: 0
SampleSet: Soft
StackLeniency: 0.9
Mode: 0
LetterboxInBreaks: 0
WidescreenStoryboard: 1

[Editor]
DistanceSpacing: 1.35
BeatDivisor: 4
GridSize: 4
TimelineZoom: 1.3

[Metadata]
Title:Sequence
TitleUnicode:Sequence
Artist:Lockyn
ArtistUnicode:Lockyn
Creator:CraEZy
Version:Advanced
Source:
Tags:melodic house complextro electro wip version vinxis pika
BeatmapID:1211662
BeatmapSetID:571750

[Difficulty]
HPDrainRate:5
CircleSize:4.2
OverallDifficulty:5
ApproachRate:6.5
SliderMultiplier:1.1
SliderTickRate:1

[Events]
//Background and Video events
0,0,"sequence.jpg",0,0
//Break Periods
//Storyboard Layer 0 (Background)
//Storyboard Layer 1 (Fail)
//Storyboard Layer 2 (Pass)
//Storyboard Layer 3 (Foreground)
//Storyboard Sound Samples

[TimingPoints]
0,468.75,4,2,2,75,1,0
15000,-90.9090909090909,4,2,2,75,0,1
30000,-100,4,2,2,75,0,1
30468,-100,4,2,2,75,0,0
52500,-100,4,2,2,5,0,0

[Colours]
Combo1 : 185,104,106
Combo2 : 244,170,121
Combo3 : 139,77,244

[HitObjects]
156,97,0,6,0,L|165:177,1,55,6|0,0:0|0:0,0:0:0:0:
235,158,468,2,0,L|227:295,1,110,8|0,0:0|0:0,0:0:0:0:
192,332,1171,1,0,0:0:0:0:
146,272,1406,2,0,L|127:236,2,27.5,8|0|0,0:0|0:0|0:0,0:0:0:0:
192,332,1875,6,0,P|246:343|311:327,1,110,2|8,0:0|0:0,0:0:0:0:
362,194,2812,2,0,P|308:183|243:199,1,110,2|8,0:0|0:0,0:0:0:0:
109,227,3750,6,0,L|141:359,1,110,2|8,0:0|0:0,0:0:0:0:
275,301,4687,2,0,L|251:173,1,110,2|8,0:0|0:0,0:0:0:0:
229,46,5625,6,0,P|175:35|110:51,1,110,2|8,0:0|0:0,0:0:0:0:
147,192,6562,2,0,P|201:203|266:187,1,110,2|8,0:0|0:0,0:0:0:0:
401,171,7500,6,0,L|326:156,1,55,6|0,0:0|0:0,0:0:0:0:
337,86,7968,2,0,L|207:106,1,110,8|0,0:0|0:0,0:0:0:0:
155,117,8671,1,0,0:0:0:0:
114,55,8906,2,0,L|101:7,2,27.5,8|0|0,0:0|0:0|0:0,0:0:0:0:
83,122,9375,6,0,P|76:192|111:237,1,110,2|8,0:0|0:0,0:0:0:0:
241,197,10312,2,0,P|251:144|228:95,1,110,2|8,0:0|0:0,0:0:0:0:
83,122,11250,6,0,L|98:232,1,110,2|8,0:0|0:0,0:0:0:0:
239,187,12187,2,0,L|224:77,1,110,2|8,0:0|0:0,0:0:0:0:
97,154,13125,5,2,0:0:0:0:
156,18,13593,1,2,0:0:0:0:
246,138,14062,1,2,0:0:0:0:
18,193,15000,6,0,B|52:194|52:194|81:172|112:173|142:182,1,121.000003692627,6|8,0:0|0:0,0:0:0:0:
247,297,15937,1,0,0:0:0:0:
254,135,16406,2,0,L|234:102,2,30.2500009231568,8|0|0,0:0|0:0|0:0,0:0:0:0:
288,209,16875,6,0,P|250:251|179:267,1,121.000003692627,2|8,0:0|0:0,0:0:0:0:
108,253,17578,1,0,0:0:0:0:
100,171,17812,2,0,L|183:178,1,60.5000018463135,2|0,0:0|0:0,0:0:0:0:
204,245,18281,2,0,P|241:211|248:189,1,60.5000018463135,8|0,0:0|0:0,0:0:0:0:
262,122,18750,6,0,L|268:82,2,30.2500009231568,2|0|0,0:0|0:0|0:0,0:0:0:0:
244,202,19218,2,0,P|273:248|338:273,1,121.000003692627,12|2,0:0|0:0,0:0:0:0:
385,117,20156,6,0,L|358:145,3,30.2500009231568,8|0|0|0,0:0|0:0|0:0|0:0,0:0:0:0:
336,169,20625,2,0,P|307:123|242:98,1,121.000003692627,2|8,0:0|0:0,0:0:0:0:
166,84,21328,2,0,L|135:29,2,60.5000018463135,0|2|0,0:0|0:0|0:0,0:0:0:0:
172,165,22031,2,0,P|201:170|231:165,1,60.5000018463135,8|0,0:0|0:0,0:0:0:0:
301,121,22500,6,0,L|348:70,2,40.333334564209,2|0|0,0:0|0:0|0:0,0:0:0:0:
257,88,22968,2,0,P|217:55|142:56,1,121.000003692627,12|2,0:0|0:0,0:0:0:0:
153,216,23906,2,0,L|176:137,1,60.5000018463135,8|0,0:0|0:0,0:0:0:0:
188,78,24375,6,0,L|252:71,1,60.5000018463135,2|0,0:0|0:0,0:0:0:0:
234,151,24843,2,0,L|298:158,1,60.5000018463135,8|0,0:0|0:0,0:0:0:0:
286,239,25312,2,0,L|350:232,1,60.5000018463135,2|0,0:0|0:0,0:0:0:0:
356,313,25780,2,0,L|420:320,1,60.5000018463135,8|0,0:0|0:0,0:0:0:0:
434,239,26250,6,0,L|421:156,1,60.5000018463135,2|0,0:0|0:0,0:0:0:0:
418,97,26718,2,0,L|424:60,3,30.2500009231568,8|0|0|0,0:0|0:0|0:0|0:0,0:0:0:0:
429,26,27187,2,0,P|367:10|348:19,1,60.5000018463135,2|0,0:0|0:0,0:0:0:0:
291,15,27656,2,0,P|240:30|222:49,1,60.5000018463135,8|0,0:0|0:0,0:0:0:0:
286,99,28125,6,0,L|253:240,1,121.000003692627,2|8,0:0|0:0,0:0:0:0:
413,264,29062,2,0,L|380:405,1,121.000003692627,2|8,0:0|0:0,0:0:0:0:
306,253,30000,6,0,B|264:223|264:223|193:228,1,110,2|12,0:0|0:0,0:0:0:0:
99,330,30937,2,0,P|134:353|212:355,1,110,2|8,0:0|0:0,0:0:0:0:
338,302,31875,1,2,0:0:0:0:
468,232,32343,6,0,L|460:120,1,110,8|2,0:0|0:0,0:0:0:0:
313,99,33281,2,0,L|321:211,1,110,8|2,0:0|0:0,0:0:0:0:
326,282,33984,1,0,0:0:0:0:
334,356,34218,6,0,P|277:356|234:318,1,110,12|2,0:0|0:0,0:0:0:0:
134,216,35156,2,0,L|186:116,1,110,8|2,0:0|0:0,0:0:0:0:
333,113,36093,6,0,L|341:174,1,55,2|0,0:0|0:0,0:0:0:0:
300,230,36562,2,0,L|292:291,1,55,2|0,0:0|0:0,0:0:0:0:
234,330,37031,1,8,0:0:0:0:
140,217,37500,6,0,L|127:192,3,27.5,2|0|0|0,0:0|0:0|0:0|0:0,0:0:0:0:
114,157,37968,2,0,P|162:161|217:128,1,110,12|2,0:0|0:0,0:0:0:0:
333,41,38906,2,0,P|390:0|445:4,2,110,8|2|8,0:0|0:0|0:0,0:0:0:0:
356,189,40312,5,2,0:0:0:0:
332,335,40781,2,0,P|265:336|215:301,2,110,8|2|8,0:0|0:0|0:0,0:0:0:0:
464,267,42187,5,2,0:0:0:0:
503,123,42656,1,8,0:0:0:0:
390,25,43125,5,2,0:0:0:0:
277,122,43593,1,8,0:0:0:0:
315,265,44062,1,2,0:0:0:0:
464,267,44531,1,8,0:0:0:0:
390,137,45000,5,4,0:0:0:0:
256,192,45117,12,0,52500,0:0:0:0:
