osu file format v14

[General]
AudioFilename: audio.mp3
AudioLeadIn: 0
PreviewTime: 42785
Countdown: 0
SampleSet: Normal
StackLeniency: 0.7
Mode: 3
LetterboxInBreaks: 0
SpecialStyle: 0
WidescreenStoryboard: 1

[Editor]
DistanceSpacing: 0.8
BeatDivisor: 4
GridSize: 16
TimelineZoom: 3.899998

[Metadata]
Title:Bad News (Virtual Riot Alternative Remix)
TitleUnicode:Bad News (Virtual Riot Alternative Remix)
Artist:Lock N Bounce
ArtistUnicode:Lock N Bounce
Creator:arpkpop
Version:impossible
Source:
Tags:
BeatmapID:1278488
BeatmapSetID:605115

[Difficulty]
HPDrainRate:8
CircleSize:4
OverallDifficulty:8
ApproachRate:5
SliderMultiplier:1.4
SliderTickRate:1

[Events]
//Background and Video events
0,0,"bg.jpg",0,0
//Break Periods
//Storyboard Layer 0 (Background)
//Storyboard Layer 1 (Fail)
//Storyboard Layer 2 (Pass)
//Storyboard Layer 3 (Foreground)
//Storyboard Sound Samples

[TimingPoints]
100,342.857142857143,4,1,0,15,1,0
43985,-100,4,1,0,15,0,0
44071,-76.9230769230769,4,1,0,15,0,0
44328,-100,4,1,0,15,0,0
44842,-125,4,1,0,15,0,0
44928,-100,4,1,0,15,0,0
45700,-125,4,1,0,15,0,0
45785,-111.111111111111,4,1,0,15,0,0
45871,-100,4,1,0,15,0,0
46471,-111.111111111111,4,1,0,15,0,0
46557,-125,4,1,0,15,0,0
46642,-100,4,1,0,15,0,0
48100,-111.111111111111,4,1,0,15,0,0
48185,-100,4,1,0,15,0,0
48271,-111.111111111111,4,1,0,15,0,0
48357,-100,4,1,0,15,0,0
48442,-111.111111111111,4,1,0,15,0,0
48528,-100,4,1,0,15,0,0
48614,-111.111111111111,4,1,0,15,0,0
48700,-100,4,1,0,15,0,0
48785,-111.111111111111,4,1,0,15,0,0
48871,-125,4,1,0,15,0,0
48957,-142.857142857143,4,1,0,15,0,0
49042,-100,4,1,0,15,0,0
49128,-142.857142857143,4,1,0,15,0,0
49214,-166.666666666667,4,1,0,15,0,0
49300,-200,4,1,0,15,0,0
49385,-100,4,1,0,15,0,0
49471,-83.3333333333333,4,1,0,15,0,0
49642,-90.9090909090909,4,1,0,15,0,0
49728,-100,4,1,0,15,0,0
50157,-83.3333333333333,4,1,0,15,0,0
50328,-10000,4,1,0,15,0,0
50371,-100,4,1,0,15,0,0
51357,-83.3333333333333,4,1,0,15,0,0
51442,-100,4,1,0,15,0,0
54957,-76.9230769230769,4,1,0,15,0,0
55214,-100,4,1,0,15,0,0
55642,-90.9090909090909,4,1,0,15,0,0
55814,-83.3333333333333,4,1,0,15,0,0
55985,-100,4,1,0,15,0,0
56671,-83.3333333333333,4,1,0,15,0,0
56757,-100,4,1,0,15,0,0
56842,-133.333333333333,4,1,0,15,0,0
57014,-100,4,1,0,15,0,0
57357,-111.111111111111,4,1,0,15,0,0
57442,-125,4,1,0,15,0,0
57528,-142.857142857143,4,1,0,15,0,0
57614,-100,4,1,0,15,0,0
59071,-76.9230769230769,4,1,0,15,0,0
59242,-133.333333333333,4,1,0,15,0,0
59414,-100,4,1,0,15,0,0
59585,-133.333333333333,4,1,0,15,0,0
59757,-76.9230769230769,4,1,0,15,0,0
59757,-100,4,1,0,15,0,0
60014,-133.333333333333,4,1,0,15,0,0
60100,-133.333333333333,4,1,0,15,0,0
60357,-100,4,1,0,15,0,0
60442,-76.9230769230769,4,1,0,15,0,0
60614,-100,4,1,0,15,0,0
61128,-133.333333333333,4,1,0,15,0,0
61214,-117.647058823529,4,1,0,15,0,0
61300,-105.263157894737,4,1,0,15,0,0
61385,-100,4,1,0,15,0,0
65928,-100,4,1,0,15,0,1
87185,-100,4,1,0,15,0,0
87871,-83.3333333333333,4,1,0,15,0,0
88128,-100,4,1,0,15,0,0
88557,-111.111111111111,4,1,0,15,0,0
88642,-125,4,1,0,15,0,0
88728,-142.857142857143,4,1,0,15,0,0
88814,-100,4,1,0,15,0,0
89585,-83.3333333333333,4,1,0,15,0,0
89757,-71.4285714285714,4,1,0,15,0,0
89928,-100,4,1,0,15,0,0
90271,-142.857142857143,4,1,0,15,0,0
90528,-100,4,1,0,15,0,0
91900,-83.3333333333333,4,1,0,15,0,0
91985,-10000,4,1,0,15,0,0
92071,-83.3333333333333,4,1,0,15,0,0
92157,-10000,4,1,0,15,0,0
92242,-83.3333333333333,4,1,0,15,0,0
92328,-10000,4,1,0,15,0,0
92414,-83.3333333333333,4,1,0,15,0,0
92500,-10000,4,1,0,15,0,0
92585,-100,4,1,0,15,0,0
92671,-111.111111111111,4,1,0,15,0,0
93014,-142.857142857143,4,1,0,15,0,0
93271,-100,4,1,0,15,0,0
93357,-83.3333333333333,4,1,0,15,0,0
93614,-100,4,1,0,15,0,0
94042,-100,4,1,0,15,0,0
94214,-166.666666666667,4,1,0,15,0,0
94300,-100,4,1,0,15,0,0
95071,-125,4,1,0,15,0,0
95242,-83.3333333333333,4,1,0,15,0,0
95414,-100,4,1,0,15,0,0
96271,-10000,4,1,0,15,0,0
96357,-100,4,1,0,15,0,0
96442,-10000,4,1,0,15,0,0
96528,-100,4,1,0,15,0,0
96614,-10000,4,1,0,15,0,0
96700,-100,4,1,0,15,0,0
96785,-10000,4,1,0,15,0,0
96871,-100,4,1,0,15,0,0
98842,-83.3333333333333,4,1,0,15,0,0
99100,-100,4,1,0,15,0,0
99528,-166.666666666667,4,1,0,15,0,0
99871,-100,4,1,0,15,0,0
100557,-125,4,1,0,15,0,0
100728,-83.3333333333333,4,1,0,15,0,0
100900,-100,4,1,0,15,0,0
101242,-142.857142857143,4,1,0,15,0,0
101500,-100,4,1,0,15,0,0
103642,-83.3333333333333,4,1,0,15,0,0
103900,-100,4,1,0,15,0,0
103985,-125,4,1,0,15,0,0
104242,-100,4,1,0,15,0,0
104328,-100,4,1,0,15,0,0
105014,-125,4,1,0,15,0,0
105185,-100,4,1,0,15,0,0
105700,-125,4,1,0,15,0,0
105871,-100,4,1,0,15,0,0

[HitObjects]
64,192,11071,5,0,0:0:0:0:
448,192,11071,1,0,0:0:0:0:
64,192,11071,1,0,0:0:0:0:
192,192,11071,1,0,0:0:0:0:
320,192,11414,1,0,0:0:0:0:
64,192,11414,1,0,0:0:0:0:
320,192,11585,1,0,0:0:0:0:
448,192,11757,1,0,0:0:0:0:
64,192,11757,1,0,0:0:0:0:
320,192,11757,1,0,0:0:0:0:
320,192,11757,1,0,0:0:0:0:
192,192,11928,1,0,0:0:0:0:
320,192,12100,1,0,0:0:0:0:
64,192,12100,1,0,0:0:0:0:
192,192,12271,1,0,0:0:0:0:
320,192,12442,1,0,0:0:0:0:
64,192,12442,1,0,0:0:0:0:
448,192,12442,1,0,0:0:0:0:
320,192,12785,1,0,0:0:0:0:
64,192,12785,1,0,0:0:0:0:
192,192,12957,1,0,0:0:0:0:
64,192,13128,1,0,0:0:0:0:
448,192,13128,1,0,0:0:0:0:
320,192,13128,1,0,0:0:0:0:
320,192,13300,1,0,0:0:0:0:
192,192,13385,1,0,0:0:0:0:
64,192,13471,1,0,0:0:0:0:
448,192,13471,1,0,0:0:0:0:
320,192,13642,1,0,0:0:0:0:
64,192,13814,1,0,0:0:0:0:
448,192,13814,1,0,0:0:0:0:
192,192,13814,1,0,0:0:0:0:
448,192,13814,1,0,0:0:0:0:
320,192,14157,1,0,0:0:0:0:
448,192,14157,1,0,0:0:0:0:
64,192,14157,1,0,0:0:0:0:
192,192,14328,1,0,0:0:0:0:
320,192,14328,1,0,0:0:0:0:
64,192,14500,1,0,0:0:0:0:
320,192,14500,1,0,0:0:0:0:
192,192,14500,1,0,0:0:0:0:
320,192,14500,1,0,0:0:0:0:
448,192,14671,1,0,0:0:0:0:
192,192,14842,1,0,0:0:0:0:
64,192,14842,1,0,0:0:0:0:
320,192,15014,1,0,0:0:0:0:
64,192,15185,1,0,0:0:0:0:
448,192,15185,1,0,0:0:0:0:
192,192,15185,1,0,0:0:0:0:
320,192,15528,1,0,0:0:0:0:
64,192,15528,1,0,0:0:0:0:
192,192,15700,1,0,0:0:0:0:
64,192,15871,1,0,0:0:0:0:
320,192,15871,1,0,0:0:0:0:
448,192,15871,1,0,0:0:0:0:
64,192,15871,1,0,0:0:0:0:
192,192,16042,1,0,0:0:0:0:
320,192,16128,1,0,0:0:0:0:
448,192,16214,1,0,0:0:0:0:
64,192,16214,1,0,0:0:0:0:
192,192,16385,1,0,0:0:0:0:
64,192,16557,1,0,0:0:0:0:
320,192,16557,1,0,0:0:0:0:
448,192,16557,1,0,0:0:0:0:
64,192,16557,1,0,0:0:0:0:
64,192,16900,1,0,0:0:0:0:
448,192,16900,1,0,0:0:0:0:
192,192,16900,1,0,0:0:0:0:
320,192,17071,1,0,0:0:0:0:
192,192,17071,1,0,0:0:0:0:
64,192,17242,1,0,0:0:0:0:
448,192,17242,1,0,0:0:0:0:
192,192,17242,1,0,0:0:0:0:
320,192,17414,1,0,0:0:0:0:
192,192,17585,1,0,0:0:0:0:
64,192,17585,1,0,0:0:0:0:
320,192,17757,1,0,0:0:0:0:
448,192,17928,1,0,0:0:0:0:
192,192,17928,1,0,0:0:0:0:
64,192,17928,1,0,0:0:0:0:
320,192,18271,1,0,0:0:0:0:
64,192,18271,1,0,0:0:0:0:
192,192,18442,1,0,0:0:0:0:
320,192,18614,1,0,0:0:0:0:
64,192,18614,1,0,0:0:0:0:
320,192,18614,1,0,0:0:0:0:
448,192,18614,1,0,0:0:0:0:
320,192,18785,1,0,0:0:0:0:
192,192,18871,1,0,0:0:0:0:
64,192,18957,1,0,0:0:0:0:
192,192,19128,1,0,0:0:0:0:
448,192,19300,1,0,0:0:0:0:
64,192,19300,1,0,0:0:0:0:
192,192,19300,1,0,0:0:0:0:
320,192,19471,1,0,0:0:0:0:
192,192,19642,1,0,0:0:0:0:
64,192,19642,1,0,0:0:0:0:
192,192,19814,1,0,0:0:0:0:
320,192,19814,1,0,0:0:0:0:
192,192,19985,1,0,0:0:0:0:
448,192,19985,1,0,0:0:0:0:
64,192,19985,1,0,0:0:0:0:
320,192,20157,1,0,0:0:0:0:
448,192,20328,1,0,0:0:0:0:
64,192,20328,1,0,0:0:0:0:
448,192,20500,1,0,0:0:0:0:
64,192,20671,1,0,0:0:0:0:
192,192,20671,1,0,0:0:0:0:
448,192,20671,1,0,0:0:0:0:
320,192,20842,1,0,0:0:0:0:
192,192,20928,1,0,0:0:0:0:
64,192,21014,1,0,0:0:0:0:
448,192,21014,1,0,0:0:0:0:
192,192,21185,1,0,0:0:0:0:
320,192,21271,1,0,0:0:0:0:
448,192,21357,1,0,0:0:0:0:
64,192,21357,1,0,0:0:0:0:
192,192,21357,1,0,0:0:0:0:
320,192,21528,1,0,0:0:0:0:
192,192,21700,1,0,0:0:0:0:
448,192,21700,1,0,0:0:0:0:
64,192,21700,1,0,0:0:0:0:
448,192,21871,1,0,0:0:0:0:
64,192,22042,1,0,0:0:0:0:
448,192,22042,1,0,0:0:0:0:
64,192,22042,1,0,0:0:0:0:
192,192,22042,1,0,0:0:0:0:
448,192,22385,1,0,0:0:0:0:
64,192,22385,1,0,0:0:0:0:
192,192,22385,1,0,0:0:0:0:
320,192,22557,1,0,0:0:0:0:
192,192,22557,1,0,0:0:0:0:
64,192,22728,1,0,0:0:0:0:
448,192,22728,1,0,0:0:0:0:
448,192,22728,1,0,0:0:0:0:
320,192,22728,1,0,0:0:0:0:
320,192,23071,1,0,0:0:0:0:
320,192,23242,1,0,0:0:0:0:
448,192,23414,1,0,0:0:0:0:
64,192,23414,1,0,0:0:0:0:
320,192,23414,1,0,0:0:0:0:
192,192,23585,1,0,0:0:0:0:
192,192,23757,1,0,0:0:0:0:
192,192,23928,1,0,0:0:0:0:
320,192,23928,1,0,0:0:0:0:
448,192,24100,1,0,0:0:0:0:
64,192,24100,1,0,0:0:0:0:
448,192,24100,1,0,0:0:0:0:
192,192,24100,1,0,0:0:0:0:
192,192,24271,1,0,0:0:0:0:
320,192,24357,1,0,0:0:0:0:
448,192,24442,1,0,0:0:0:0:
192,192,24614,1,0,0:0:0:0:
320,192,24785,1,0,0:0:0:0:
448,192,24785,1,0,0:0:0:0:
64,192,24785,1,0,0:0:0:0:
320,192,24957,1,0,0:0:0:0:
192,192,25128,1,0,0:0:0:0:
64,192,25128,1,0,0:0:0:0:
448,192,25128,1,0,0:0:0:0:
192,192,25300,1,0,0:0:0:0:
320,192,25300,1,0,0:0:0:0:
320,192,25471,1,0,0:0:0:0:
448,192,25471,1,0,0:0:0:0:
64,192,25471,1,0,0:0:0:0:
192,192,25642,1,0,0:0:0:0:
192,192,25642,1,0,0:0:0:0:
448,192,25814,1,0,0:0:0:0:
320,192,25985,1,0,0:0:0:0:
192,192,26157,1,0,0:0:0:0:
64,192,26157,1,0,0:0:0:0:
448,192,26157,1,0,0:0:0:0:
320,192,26328,1,0,0:0:0:0:
320,192,26500,1,0,0:0:0:0:
192,192,26671,1,0,0:0:0:0:
320,192,26671,1,0,0:0:0:0:
64,192,26842,1,0,0:0:0:0:
448,192,26842,1,0,0:0:0:0:
192,192,26842,1,0,0:0:0:0:
320,192,27014,1,0,0:0:0:0:
192,192,27014,1,0,0:0:0:0:
320,192,27100,1,0,0:0:0:0:
320,192,27185,1,0,0:0:0:0:
192,192,27185,1,0,0:0:0:0:
64,192,27528,1,0,0:0:0:0:
448,192,27528,1,0,0:0:0:0:
320,192,27528,1,0,0:0:0:0:
192,192,27871,1,0,0:0:0:0:
64,192,27871,1,0,0:0:0:0:
320,192,28042,1,0,0:0:0:0:
320,192,28214,1,0,0:0:0:0:
448,192,28214,1,0,0:0:0:0:
64,192,28214,1,0,0:0:0:0:
320,192,28557,1,0,0:0:0:0:
192,192,28728,1,0,0:0:0:0:
64,192,28900,1,0,0:0:0:0:
320,192,28900,1,0,0:0:0:0:
448,192,28900,1,0,0:0:0:0:
448,192,29071,1,0,0:0:0:0:
448,192,29242,1,0,0:0:0:0:
320,192,29414,1,0,0:0:0:0:
192,192,29414,1,0,0:0:0:0:
64,192,29585,1,0,0:0:0:0:
448,192,29585,1,0,0:0:0:0:
192,192,29585,1,0,0:0:0:0:
320,192,29757,1,0,0:0:0:0:
192,192,29842,1,0,0:0:0:0:
320,192,29928,1,0,0:0:0:0:
192,192,30100,1,0,0:0:0:0:
64,192,30271,1,0,0:0:0:0:
448,192,30271,1,0,0:0:0:0:
320,192,30271,1,0,0:0:0:0:
64,192,30614,1,0,0:0:0:0:
320,192,30614,1,0,0:0:0:0:
448,192,30614,1,0,0:0:0:0:
192,192,30785,1,0,0:0:0:0:
448,192,30785,1,0,0:0:0:0:
448,192,30957,1,0,0:0:0:0:
64,192,30957,1,0,0:0:0:0:
320,192,30957,1,0,0:0:0:0:
448,192,31300,1,0,0:0:0:0:
320,192,31300,1,0,0:0:0:0:
192,192,31471,1,0,0:0:0:0:
64,192,31471,1,0,0:0:0:0:
320,192,31814,1,0,0:0:0:0:
192,192,31814,1,0,0:0:0:0:
320,192,31985,1,0,0:0:0:0:
448,192,31985,1,0,0:0:0:0:
192,192,32157,1,0,0:0:0:0:
64,192,32157,1,0,0:0:0:0:
192,192,32328,1,0,0:0:0:0:
448,192,32328,1,0,0:0:0:0:
192,192,32500,1,0,0:0:0:0:
448,192,32500,1,0,0:0:0:0:
192,192,32671,1,0,0:0:0:0:
448,192,32671,1,0,0:0:0:0:
320,192,32757,1,0,0:0:0:0:
64,192,32757,1,0,0:0:0:0:
192,192,32842,1,0,0:0:0:0:
448,192,32842,1,0,0:0:0:0:
320,192,32928,1,0,0:0:0:0:
64,192,32928,1,0,0:0:0:0:
192,192,33014,1,0,0:0:0:0:
448,192,33014,1,0,0:0:0:0:
448,192,33357,1,0,0:0:0:0:
448,192,33528,1,0,0:0:0:0:
64,192,33700,1,0,0:0:0:0:
448,192,33700,1,0,0:0:0:0:
192,192,33700,1,0,0:0:0:0:
64,192,33700,1,0,0:0:0:0:
448,192,33700,1,0,0:0:0:0:
192,192,33700,1,0,0:0:0:0:
448,192,34042,1,0,0:0:0:0:
448,192,34214,1,0,0:0:0:0:
448,192,34728,1,0,0:0:0:0:
448,192,34900,1,0,0:0:0:0:
448,192,35071,1,0,0:0:0:0:
64,192,35071,1,0,0:0:0:0:
192,192,35071,1,0,0:0:0:0:
192,192,35071,1,0,0:0:0:0:
64,192,35071,1,0,0:0:0:0:
448,192,35071,1,0,0:0:0:0:
448,192,35328,1,0,0:0:0:0:
448,192,35414,1,0,0:0:0:0:
448,192,35585,1,0,0:0:0:0:
448,192,35757,1,0,0:0:0:0:
448,192,36100,1,0,0:0:0:0:
448,192,36271,1,0,0:0:0:0:
448,192,36442,1,0,0:0:0:0:
64,192,36442,1,0,0:0:0:0:
192,192,36442,1,0,0:0:0:0:
448,192,36785,1,0,0:0:0:0:
448,192,36957,1,0,0:0:0:0:
448,192,37300,1,0,0:0:0:0:
448,192,37471,1,0,0:0:0:0:
448,192,37642,1,0,0:0:0:0:
64,192,37814,1,0,0:0:0:0:
192,192,37814,1,0,0:0:0:0:
448,192,37814,1,0,0:0:0:0:
448,192,37985,1,0,0:0:0:0:
320,192,38071,1,0,0:0:0:0:
448,192,38157,1,0,0:0:0:0:
448,192,38328,1,0,0:0:0:0:
64,192,38500,1,0,0:0:0:0:
448,192,38500,1,0,0:0:0:0:
192,192,38671,1,0,0:0:0:0:
320,192,38671,1,0,0:0:0:0:
64,192,38842,1,0,0:0:0:0:
448,192,38842,1,0,0:0:0:0:
192,192,39014,1,0,0:0:0:0:
320,192,39014,1,0,0:0:0:0:
64,192,39185,1,0,0:0:0:0:
448,192,39185,1,0,0:0:0:0:
192,192,39357,1,0,0:0:0:0:
320,192,39357,1,0,0:0:0:0:
448,192,39528,1,0,0:0:0:0:
64,192,39528,1,0,0:0:0:0:
192,192,39700,1,0,0:0:0:0:
320,192,39700,1,0,0:0:0:0:
448,192,39871,1,0,0:0:0:0:
64,192,39871,1,0,0:0:0:0:
192,192,40042,1,0,0:0:0:0:
320,192,40042,1,0,0:0:0:0:
64,192,40214,1,0,0:0:0:0:
448,192,40214,1,0,0:0:0:0:
192,192,40385,1,0,0:0:0:0:
320,192,40385,1,0,0:0:0:0:
64,192,40557,1,0,0:0:0:0:
448,192,40557,1,0,0:0:0:0:
192,192,40728,1,0,0:0:0:0:
320,192,40728,1,0,0:0:0:0:
64,192,40900,1,0,0:0:0:0:
448,192,40900,1,0,0:0:0:0:
192,192,41071,1,0,0:0:0:0:
320,192,41071,1,0,0:0:0:0:
64,192,41242,1,0,0:0:0:0:
448,192,41242,1,0,0:0:0:0:
320,192,41328,1,0,0:0:0:0:
192,192,41328,1,0,0:0:0:0:
64,192,41414,1,0,0:0:0:0:
448,192,41414,1,0,0:0:0:0:
320,192,41500,1,0,0:0:0:0:
192,192,41500,1,0,0:0:0:0:
64,192,41585,1,0,0:0:0:0:
448,192,41585,1,0,0:0:0:0:
320,192,41671,1,0,0:0:0:0:
192,192,41671,1,0,0:0:0:0:
64,192,41757,1,0,0:0:0:0:
448,192,41757,1,0,0:0:0:0:
320,192,41842,1,0,0:0:0:0:
192,192,41842,1,0,0:0:0:0:
64,192,41928,1,0,0:0:0:0:
448,192,41928,1,0,0:0:0:0:
320,192,42014,1,0,0:0:0:0:
192,192,42014,1,0,0:0:0:0:
64,192,42100,1,0,0:0:0:0:
448,192,42100,1,0,0:0:0:0:
320,192,42185,1,0,0:0:0:0:
192,192,42185,1,0,0:0:0:0:
64,192,42271,1,0,0:0:0:0:
448,192,42271,1,0,0:0:0:0:
320,192,42357,1,0,0:0:0:0:
192,192,42357,1,0,0:0:0:0:
64,192,42442,1,0,0:0:0:0:
448,192,42442,1,0,0:0:0:0:
320,192,42528,1,0,0:0:0:0:
192,192,42528,1,0,0:0:0:0:
64,192,42614,1,0,0:0:0:0:
448,192,42614,1,0,0:0:0:0:
64,192,42614,1,0,0:0:0:0:
320,192,43642,1,0,0:0:0:0:
320,192,43814,1,0,0:0:0:0:
64,192,43985,128,0,44242:0:0:0:0:
448,192,43985,128,0,44242:0:0:0:0:
192,192,43985,1,0,0:0:0:0:
320,192,44157,1,0,0:0:0:0:
320,192,44328,1,0,0:0:0:0:
192,192,44328,1,0,0:0:0:0:
64,192,44414,1,0,0:0:0:0:
320,192,44500,1,0,0:0:0:0:
192,192,44500,1,0,0:0:0:0:
320,192,44671,128,0,44928:0:0:0:0:
448,192,44671,128,0,44928:0:0:0:0:
64,192,44842,1,0,0:0:0:0:
192,192,44842,1,0,0:0:0:0:
320,192,45014,1,0,0:0:0:0:
448,192,45014,1,0,0:0:0:0:
192,192,45100,1,0,0:0:0:0:
320,192,45185,1,0,0:0:0:0:
448,192,45185,1,0,0:0:0:0:
64,192,45357,1,0,0:0:0:0:
320,192,45357,1,0,0:0:0:0:
192,192,45442,1,0,0:0:0:0:
320,192,45528,1,0,0:0:0:0:
64,192,45528,1,0,0:0:0:0:
192,192,45614,1,0,0:0:0:0:
64,192,45700,128,0,45957:0:0:0:0:
192,192,45700,128,0,45957:0:0:0:0:
320,192,45700,1,0,0:0:0:0:
320,192,45871,1,0,0:0:0:0:
448,192,46042,1,0,0:0:0:0:
320,192,46042,1,0,0:0:0:0:
64,192,46128,1,0,0:0:0:0:
320,192,46214,1,0,0:0:0:0:
192,192,46214,1,0,0:0:0:0:
448,192,46300,1,0,0:0:0:0:
64,192,46385,128,0,46642:0:0:0:0:
192,192,46385,128,0,46642:0:0:0:0:
192,192,46728,1,0,0:0:0:0:
448,192,46728,1,0,0:0:0:0:
320,192,46900,1,0,0:0:0:0:
320,192,46900,1,0,0:0:0:0:
192,192,47071,1,0,0:0:0:0:
192,192,47071,1,0,0:0:0:0:
64,192,47242,1,0,0:0:0:0:
64,192,47242,1,0,0:0:0:0:
320,192,47414,128,0,47671:0:0:0:0:
64,192,47414,128,0,47671:0:0:0:0:
320,192,47757,1,0,0:0:0:0:
192,192,47928,1,0,0:0:0:0:
192,192,48100,128,0,48121:0:0:0:0:
448,192,48100,128,0,48121:0:0:0:0:
320,192,48185,1,0,0:0:0:0:
320,192,48271,128,0,48292:0:0:0:0:
64,192,48271,128,0,48292:0:0:0:0:
192,192,48357,1,0,0:0:0:0:
192,192,48442,128,0,48464:0:0:0:0:
448,192,48442,128,0,48464:0:0:0:0:
320,192,48528,1,0,0:0:0:0:
320,192,48614,128,0,48635:0:0:0:0:
64,192,48614,128,0,48635:0:0:0:0:
192,192,48700,1,0,0:0:0:0:
448,192,48785,128,0,49042:0:0:0:0:
64,192,48785,128,0,49042:0:0:0:0:
192,192,49128,128,0,49385:0:0:0:0:
320,192,49128,128,0,49385:0:0:0:0:
64,192,49471,128,0,49642:0:0:0:0:
192,192,49471,128,0,49728:0:0:0:0:
320,192,49471,128,0,49814:0:0:0:0:
192,192,49814,1,0,0:0:0:0:
448,192,49814,1,0,0:0:0:0:
320,192,49900,1,0,0:0:0:0:
192,192,49985,1,0,0:0:0:0:
448,192,49985,1,0,0:0:0:0:
64,192,50157,128,0,50414:0:0:0:0:
192,192,50157,128,0,50414:0:0:0:0:
320,192,50500,1,0,0:0:0:0:
448,192,50500,1,0,0:0:0:0:
192,192,50585,1,0,0:0:0:0:
320,192,50671,1,0,0:0:0:0:
448,192,50671,1,0,0:0:0:0:
448,192,50842,1,0,0:0:0:0:
64,192,50842,1,0,0:0:0:0:
192,192,50928,1,0,0:0:0:0:
448,192,51014,1,0,0:0:0:0:
64,192,51014,1,0,0:0:0:0:
192,192,51185,128,0,51357:0:0:0:0:
320,192,51185,128,0,51442:0:0:0:0:
64,192,51357,1,0,0:0:0:0:
192,192,51442,1,0,0:0:0:0:
448,192,51528,1,0,0:0:0:0:
320,192,51528,1,0,0:0:0:0:
448,192,51700,1,0,0:0:0:0:
448,192,51700,1,0,0:0:0:0:
448,192,51871,1,0,0:0:0:0:
448,192,51871,1,0,0:0:0:0:
448,192,52042,1,0,0:0:0:0:
448,192,52042,1,0,0:0:0:0:
448,192,52214,128,0,52364:0:0:0:0:
320,192,52214,128,0,52535:0:0:0:0:
192,192,52214,128,0,52707:0:0:0:0:
64,192,52214,128,0,52878:0:0:0:0:
448,192,52385,1,0,0:0:0:0:
320,192,52557,1,0,0:0:0:0:
192,192,52728,1,0,0:0:0:0:
320,192,52900,1,0,0:0:0:0:
448,192,52900,1,0,0:0:0:0:
64,192,52900,1,0,0:0:0:0:
448,192,53242,1,0,0:0:0:0:
448,192,53242,1,0,0:0:0:0:
448,192,53414,1,0,0:0:0:0:
448,192,53414,1,0,0:0:0:0:
448,192,53585,128,0,53842:0:0:0:0:
192,192,53585,1,0,0:0:0:0:
448,192,53928,1,0,0:0:0:0:
320,192,54100,1,0,0:0:0:0:
192,192,54185,1,0,0:0:0:0:
64,192,54271,128,0,54614:0:0:0:0:
320,192,54271,1,0,0:0:0:0:
320,192,54614,128,0,54957:0:0:0:0:
448,192,54614,1,0,0:0:0:0:
64,192,54957,128,0,55214:0:0:0:0:
448,192,54957,128,0,55214:0:0:0:0:
192,192,54957,1,0,0:0:0:0:
320,192,55128,1,0,0:0:0:0:
320,192,55300,1,0,0:0:0:0:
192,192,55300,1,0,0:0:0:0:
192,192,55471,1,0,0:0:0:0:
320,192,55471,1,0,0:0:0:0:
448,192,55642,128,0,55985:0:0:0:0:
192,192,55642,128,0,55814:0:0:0:0:
320,192,55642,1,0,0:0:0:0:
64,192,55728,1,0,0:0:0:0:
320,192,55814,128,0,55985:0:0:0:0:
192,192,55985,1,0,0:0:0:0:
64,192,55985,1,0,0:0:0:0:
192,192,56157,1,0,0:0:0:0:
320,192,56157,1,0,0:0:0:0:
64,192,56328,1,0,0:0:0:0:
320,192,56328,1,0,0:0:0:0:
192,192,56414,1,0,0:0:0:0:
64,192,56500,1,0,0:0:0:0:
320,192,56500,1,0,0:0:0:0:
320,192,56671,1,0,0:0:0:0:
192,192,56671,128,0,56842:0:0:0:0:
448,192,56757,1,0,0:0:0:0:
320,192,56842,128,0,57014:0:0:0:0:
448,192,56842,128,0,57014:0:0:0:0:
192,192,56928,1,0,0:0:0:0:
64,192,57014,1,0,0:0:0:0:
192,192,57014,1,0,0:0:0:0:
320,192,57100,1,0,0:0:0:0:
192,192,57185,1,0,0:0:0:0:
64,192,57185,1,0,0:0:0:0:
320,192,57271,1,0,0:0:0:0:
64,192,57357,128,0,57614:0:0:0:0:
320,192,57357,128,0,57614:0:0:0:0:
64,192,57700,1,0,0:0:0:0:
448,192,57700,1,0,0:0:0:0:
64,192,57700,1,0,0:0:0:0:
192,192,57871,1,0,0:0:0:0:
192,192,57871,1,0,0:0:0:0:
320,192,58042,1,0,0:0:0:0:
320,192,58042,1,0,0:0:0:0:
448,192,58214,1,0,0:0:0:0:
448,192,58214,1,0,0:0:0:0:
192,192,58385,128,0,58642:0:0:0:0:
64,192,58385,128,0,58642:0:0:0:0:
448,192,58728,1,0,0:0:0:0:
320,192,58900,1,0,0:0:0:0:
448,192,59071,128,0,59092:0:0:0:0:
64,192,59071,128,0,59092:0:0:0:0:
192,192,59157,1,0,0:0:0:0:
192,192,59242,128,0,59264:0:0:0:0:
448,192,59242,128,0,59264:0:0:0:0:
320,192,59328,1,0,0:0:0:0:
320,192,59414,128,0,59435:0:0:0:0:
448,192,59414,128,0,59435:0:0:0:0:
192,192,59500,1,0,0:0:0:0:
448,192,59585,128,0,59607:0:0:0:0:
192,192,59585,128,0,59607:0:0:0:0:
64,192,59671,1,0,0:0:0:0:
64,192,59757,128,0,60014:0:0:0:0:
448,192,59757,128,0,60014:0:0:0:0:
320,192,60100,128,0,60357:0:0:0:0:
192,192,60100,128,0,60357:0:0:0:0:
448,192,60442,128,0,60700:0:0:0:0:
64,192,60442,128,0,60700:0:0:0:0:
192,192,60442,1,0,0:0:0:0:
320,192,60614,1,0,0:0:0:0:
64,192,60785,1,0,0:0:0:0:
448,192,60785,1,0,0:0:0:0:
192,192,60871,1,0,0:0:0:0:
448,192,60957,1,0,0:0:0:0:
64,192,60957,1,0,0:0:0:0:
64,192,61128,128,0,61385:0:0:0:0:
320,192,61128,128,0,61385:0:0:0:0:
320,192,61471,1,0,0:0:0:0:
64,192,61471,1,0,0:0:0:0:
448,192,61557,1,0,0:0:0:0:
320,192,61642,1,0,0:0:0:0:
64,192,61642,1,0,0:0:0:0:
192,192,61814,1,0,0:0:0:0:
64,192,61814,1,0,0:0:0:0:
320,192,61900,1,0,0:0:0:0:
448,192,61985,1,0,0:0:0:0:
320,192,61985,1,0,0:0:0:0:
192,192,62071,1,0,0:0:0:0:
192,192,62157,1,0,0:0:0:0:
64,192,62157,1,0,0:0:0:0:
448,192,62242,1,0,0:0:0:0:
448,192,62328,1,0,0:0:0:0:
192,192,62328,1,0,0:0:0:0:
64,192,62414,1,0,0:0:0:0:
320,192,62500,1,0,0:0:0:0:
448,192,62500,1,0,0:0:0:0:
192,192,62585,1,0,0:0:0:0:
448,192,62671,1,0,0:0:0:0:
320,192,62671,1,0,0:0:0:0:
192,192,62842,1,0,0:0:0:0:
64,192,62842,1,0,0:0:0:0:
192,192,63014,1,0,0:0:0:0:
64,192,63014,1,0,0:0:0:0:
64,192,63185,128,0,63357:0:0:0:0:
192,192,63185,1,0,0:0:0:0:
192,192,63185,1,0,0:0:0:0:
192,192,63357,128,0,63528:0:0:0:0:
320,192,63357,1,0,0:0:0:0:
320,192,63357,1,0,0:0:0:0:
320,192,63528,128,0,63700:0:0:0:0:
448,192,63528,1,0,0:0:0:0:
448,192,63528,1,0,0:0:0:0:
192,192,63700,1,0,0:0:0:0:
448,192,63700,128,0,63871:0:0:0:0:
192,192,63700,1,0,0:0:0:0:
64,192,63871,1,0,0:0:0:0:
448,192,63871,1,0,0:0:0:0:
64,192,64214,1,0,0:0:0:0:
64,192,64385,1,0,0:0:0:0:
64,192,64557,1,0,0:0:0:0:
448,192,64557,1,0,0:0:0:0:
192,192,64900,1,0,0:0:0:0:
320,192,64900,1,0,0:0:0:0:
64,192,65071,1,0,0:0:0:0:
448,192,65071,1,0,0:0:0:0:
192,192,65414,1,0,0:0:0:0:
320,192,65414,1,0,0:0:0:0:
64,192,65585,1,0,0:0:0:0:
448,192,65585,1,0,0:0:0:0:
64,192,65928,1,0,0:0:0:0:
448,192,65928,1,0,0:0:0:0:
192,192,65928,1,0,0:0:0:0:
320,192,66271,1,0,0:0:0:0:
192,192,66442,1,0,0:0:0:0:
64,192,66614,1,0,0:0:0:0:
448,192,66614,1,0,0:0:0:0:
192,192,66614,1,0,0:0:0:0:
192,192,66957,1,0,0:0:0:0:
64,192,67300,1,0,0:0:0:0:
448,192,67300,1,0,0:0:0:0:
192,192,67300,1,0,0:0:0:0:
320,192,67471,1,0,0:0:0:0:
192,192,67814,1,0,0:0:0:0:
64,192,67985,1,0,0:0:0:0:
448,192,67985,1,0,0:0:0:0:
192,192,67985,1,0,0:0:0:0:
320,192,68157,1,0,0:0:0:0:
192,192,68328,1,0,0:0:0:0:
320,192,68500,1,0,0:0:0:0:
64,192,68671,1,0,0:0:0:0:
448,192,68671,1,0,0:0:0:0:
192,192,68671,1,0,0:0:0:0:
192,192,69014,1,0,0:0:0:0:
320,192,69185,1,0,0:0:0:0:
448,192,69357,1,0,0:0:0:0:
64,192,69357,1,0,0:0:0:0:
192,192,69357,1,0,0:0:0:0:
320,192,69700,1,0,0:0:0:0:
448,192,70042,1,0,0:0:0:0:
64,192,70042,1,0,0:0:0:0:
192,192,70042,1,0,0:0:0:0:
192,192,70214,1,0,0:0:0:0:
320,192,70557,1,0,0:0:0:0:
448,192,70728,1,0,0:0:0:0:
64,192,70728,1,0,0:0:0:0:
192,192,70728,1,0,0:0:0:0:
192,192,70900,1,0,0:0:0:0:
320,192,71071,1,0,0:0:0:0:
192,192,71242,1,0,0:0:0:0:
448,192,71414,1,0,0:0:0:0:
64,192,71414,1,0,0:0:0:0:
192,192,71414,1,0,0:0:0:0:
64,192,71757,1,0,0:0:0:0:
320,192,71928,1,0,0:0:0:0:
448,192,72100,1,0,0:0:0:0:
64,192,72100,1,0,0:0:0:0:
192,192,72100,1,0,0:0:0:0:
192,192,72442,1,0,0:0:0:0:
448,192,72785,1,0,0:0:0:0:
64,192,72785,1,0,0:0:0:0:
192,192,72785,1,0,0:0:0:0:
320,192,72957,1,0,0:0:0:0:
320,192,73128,1,0,0:0:0:0:
192,192,73300,1,0,0:0:0:0:
64,192,73471,1,0,0:0:0:0:
448,192,73471,1,0,0:0:0:0:
192,192,73471,1,0,0:0:0:0:
320,192,73642,1,0,0:0:0:0:
192,192,73728,1,0,0:0:0:0:
320,192,73814,1,0,0:0:0:0:
320,192,73985,1,0,0:0:0:0:
64,192,74157,1,0,0:0:0:0:
320,192,74157,1,0,0:0:0:0:
64,192,74500,1,0,0:0:0:0:
448,192,74500,1,0,0:0:0:0:
192,192,74671,1,0,0:0:0:0:
64,192,74671,1,0,0:0:0:0:
192,192,75185,1,0,0:0:0:0:
320,192,75185,1,0,0:0:0:0:
320,192,75357,1,0,0:0:0:0:
448,192,75357,1,0,0:0:0:0:
448,192,75528,1,0,0:0:0:0:
64,192,75528,1,0,0:0:0:0:
320,192,75700,1,0,0:0:0:0:
64,192,75700,1,0,0:0:0:0:
320,192,75871,1,0,0:0:0:0:
192,192,75871,1,0,0:0:0:0:
320,192,76042,1,0,0:0:0:0:
448,192,76042,1,0,0:0:0:0:
448,192,76214,1,0,0:0:0:0:
64,192,76214,1,0,0:0:0:0:
320,192,76385,1,0,0:0:0:0:
192,192,76385,1,0,0:0:0:0:
64,192,76557,1,0,0:0:0:0:
320,192,76557,1,0,0:0:0:0:
192,192,76728,1,0,0:0:0:0:
64,192,76728,1,0,0:0:0:0:
448,192,76900,1,0,0:0:0:0:
64,192,76900,1,0,0:0:0:0:
192,192,76900,1,0,0:0:0:0:
448,192,77242,1,0,0:0:0:0:
192,192,77414,1,0,0:0:0:0:
64,192,77585,1,0,0:0:0:0:
448,192,77585,1,0,0:0:0:0:
192,192,77585,1,0,0:0:0:0:
320,192,77928,1,0,0:0:0:0:
448,192,78271,1,0,0:0:0:0:
64,192,78271,1,0,0:0:0:0:
192,192,78271,1,0,0:0:0:0:
192,192,78442,1,0,0:0:0:0:
192,192,78614,1,0,0:0:0:0:
320,192,78785,1,0,0:0:0:0:
448,192,78957,1,0,0:0:0:0:
64,192,78957,1,0,0:0:0:0:
192,192,78957,1,0,0:0:0:0:
192,192,79128,1,0,0:0:0:0:
320,192,79214,1,0,0:0:0:0:
192,192,79300,1,0,0:0:0:0:
192,192,79471,1,0,0:0:0:0:
448,192,79642,1,0,0:0:0:0:
64,192,79642,1,0,0:0:0:0:
192,192,79642,1,0,0:0:0:0:
64,192,79985,1,0,0:0:0:0:
320,192,80157,1,0,0:0:0:0:
448,192,80328,1,0,0:0:0:0:
64,192,80328,1,0,0:0:0:0:
192,192,80328,1,0,0:0:0:0:
192,192,80671,1,0,0:0:0:0:
448,192,81014,1,0,0:0:0:0:
64,192,81014,1,0,0:0:0:0:
192,192,81014,1,0,0:0:0:0:
320,192,81185,1,0,0:0:0:0:
320,192,81357,1,0,0:0:0:0:
192,192,81528,1,0,0:0:0:0:
64,192,81528,1,0,0:0:0:0:
64,192,81700,1,0,0:0:0:0:
448,192,81700,1,0,0:0:0:0:
192,192,81700,1,0,0:0:0:0:
448,192,81871,1,0,0:0:0:0:
64,192,81957,1,0,0:0:0:0:
448,192,82042,1,0,0:0:0:0:
448,192,82214,1,0,0:0:0:0:
448,192,82385,1,0,0:0:0:0:
64,192,82385,1,0,0:0:0:0:
192,192,82385,1,0,0:0:0:0:
448,192,82728,1,0,0:0:0:0:
192,192,82900,1,0,0:0:0:0:
64,192,83071,1,0,0:0:0:0:
448,192,83071,1,0,0:0:0:0:
192,192,83071,1,0,0:0:0:0:
320,192,83414,1,0,0:0:0:0:
64,192,83757,1,0,0:0:0:0:
448,192,83757,1,0,0:0:0:0:
192,192,83757,1,0,0:0:0:0:
192,192,83928,1,0,0:0:0:0:
192,192,84100,1,0,0:0:0:0:
320,192,84271,1,0,0:0:0:0:
64,192,84442,1,0,0:0:0:0:
448,192,84442,1,0,0:0:0:0:
192,192,84442,1,0,0:0:0:0:
64,192,84614,1,0,0:0:0:0:
448,192,84700,1,0,0:0:0:0:
64,192,84785,1,0,0:0:0:0:
64,192,84957,1,0,0:0:0:0:
64,192,85128,1,0,0:0:0:0:
448,192,85128,1,0,0:0:0:0:
192,192,85128,1,0,0:0:0:0:
320,192,85471,1,0,0:0:0:0:
192,192,85642,1,0,0:0:0:0:
448,192,85814,1,0,0:0:0:0:
64,192,85814,1,0,0:0:0:0:
192,192,85814,1,0,0:0:0:0:
192,192,86157,1,0,0:0:0:0:
320,192,86328,1,0,0:0:0:0:
64,192,86500,1,0,0:0:0:0:
448,192,86500,1,0,0:0:0:0:
192,192,86500,1,0,0:0:0:0:
320,192,86671,1,0,0:0:0:0:
448,192,86671,1,0,0:0:0:0:
320,192,86842,1,0,0:0:0:0:
192,192,86842,1,0,0:0:0:0:
192,192,87014,1,0,0:0:0:0:
64,192,87014,1,0,0:0:0:0:
64,192,87185,1,0,0:0:0:0:
448,192,87185,1,0,0:0:0:0:
192,192,87185,1,0,0:0:0:0:
192,192,87528,1,0,0:0:0:0:
192,192,87700,1,0,0:0:0:0:
64,192,87871,128,0,88128:0:0:0:0:
448,192,87871,128,0,88128:0:0:0:0:
192,192,87871,1,0,0:0:0:0:
320,192,88042,1,0,0:0:0:0:
192,192,88214,1,0,0:0:0:0:
64,192,88214,1,0,0:0:0:0:
320,192,88300,1,0,0:0:0:0:
320,192,88385,1,0,0:0:0:0:
448,192,88385,1,0,0:0:0:0:
320,192,88557,128,0,88814:0:0:0:0:
448,192,88557,128,0,88814:0:0:0:0:
320,192,88900,1,0,0:0:0:0:
448,192,88900,1,0,0:0:0:0:
192,192,88985,1,0,0:0:0:0:
320,192,89071,1,0,0:0:0:0:
448,192,89071,1,0,0:0:0:0:
448,192,89242,1,0,0:0:0:0:
64,192,89242,1,0,0:0:0:0:
192,192,89328,1,0,0:0:0:0:
320,192,89414,1,0,0:0:0:0:
64,192,89414,1,0,0:0:0:0:
448,192,89500,1,0,0:0:0:0:
64,192,89585,128,0,89928:0:0:0:0:
192,192,89585,128,0,89757:0:0:0:0:
320,192,89757,1,0,0:0:0:0:
192,192,89928,1,0,0:0:0:0:
448,192,89928,1,0,0:0:0:0:
320,192,90014,1,0,0:0:0:0:
192,192,90100,1,0,0:0:0:0:
448,192,90100,1,0,0:0:0:0:
64,192,90271,128,0,90528:0:0:0:0:
320,192,90271,128,0,90528:0:0:0:0:
64,192,90614,1,0,0:0:0:0:
320,192,90614,1,0,0:0:0:0:
64,192,90614,1,0,0:0:0:0:
192,192,90785,1,0,0:0:0:0:
192,192,90785,1,0,0:0:0:0:
320,192,90957,1,0,0:0:0:0:
320,192,90957,1,0,0:0:0:0:
448,192,91128,1,0,0:0:0:0:
448,192,91128,1,0,0:0:0:0:
192,192,91300,128,0,91557:0:0:0:0:
448,192,91642,1,0,0:0:0:0:
64,192,91814,1,0,0:0:0:0:
64,192,91985,128,0,92007:0:0:0:0:
448,192,91985,128,0,92007:0:0:0:0:
192,192,92071,1,0,0:0:0:0:
320,192,92157,128,0,92178:0:0:0:0:
192,192,92157,128,0,92178:0:0:0:0:
320,192,92242,1,0,0:0:0:0:
192,192,92328,128,0,92350:0:0:0:0:
448,192,92328,128,0,92350:0:0:0:0:
448,192,92414,1,0,0:0:0:0:
320,192,92500,128,0,92521:0:0:0:0:
448,192,92500,128,0,92521:0:0:0:0:
320,192,92585,1,0,0:0:0:0:
448,192,92671,128,0,92928:0:0:0:0:
192,192,92671,128,0,92928:0:0:0:0:
320,192,93014,128,0,93271:0:0:0:0:
64,192,93014,128,0,93271:0:0:0:0:
64,192,93357,128,0,93614:0:0:0:0:
448,192,93357,128,0,93614:0:0:0:0:
192,192,93357,1,0,0:0:0:0:
320,192,93528,1,0,0:0:0:0:
320,192,93700,1,0,0:0:0:0:
448,192,93700,1,0,0:0:0:0:
320,192,93785,1,0,0:0:0:0:
192,192,93871,1,0,0:0:0:0:
64,192,93871,1,0,0:0:0:0:
320,192,94042,128,0,94300:0:0:0:0:
64,192,94042,128,0,94300:0:0:0:0:
320,192,94385,1,0,0:0:0:0:
64,192,94385,1,0,0:0:0:0:
192,192,94471,1,0,0:0:0:0:
320,192,94557,1,0,0:0:0:0:
64,192,94557,1,0,0:0:0:0:
448,192,94728,1,0,0:0:0:0:
320,192,94728,1,0,0:0:0:0:
192,192,94814,1,0,0:0:0:0:
320,192,94900,1,0,0:0:0:0:
192,192,94900,1,0,0:0:0:0:
448,192,94985,1,0,0:0:0:0:
64,192,95071,128,0,95242:0:0:0:0:
192,192,95071,1,0,0:0:0:0:
192,192,95242,128,0,95414:0:0:0:0:
448,192,95242,1,0,0:0:0:0:
64,192,95414,1,0,0:0:0:0:
448,192,95414,1,0,0:0:0:0:
64,192,95585,1,0,0:0:0:0:
448,192,95585,1,0,0:0:0:0:
64,192,95585,1,0,0:0:0:0:
64,192,95757,1,0,0:0:0:0:
448,192,95757,1,0,0:0:0:0:
64,192,95757,1,0,0:0:0:0:
64,192,95928,1,0,0:0:0:0:
448,192,95928,1,0,0:0:0:0:
64,192,95928,1,0,0:0:0:0:
192,192,96100,128,0,96421:0:0:0:0:
64,192,96100,128,0,96250:0:0:0:0:
448,192,96100,128,0,96764:0:0:0:0:
320,192,96100,128,0,96592:0:0:0:0:
64,192,96271,1,0,0:0:0:0:
192,192,96442,1,0,0:0:0:0:
320,192,96614,1,0,0:0:0:0:
192,192,96785,1,0,0:0:0:0:
64,192,96785,1,0,0:0:0:0:
448,192,96785,1,0,0:0:0:0:
448,192,97128,1,0,0:0:0:0:
448,192,97128,1,0,0:0:0:0:
448,192,97300,1,0,0:0:0:0:
448,192,97300,1,0,0:0:0:0:
64,192,97471,128,0,97728:0:0:0:0:
320,192,97471,128,0,97728:0:0:0:0:
192,192,97814,1,0,0:0:0:0:
448,192,97985,1,0,0:0:0:0:
320,192,98071,1,0,0:0:0:0:
192,192,98157,128,0,98414:0:0:0:0:
320,192,98500,128,0,98757:0:0:0:0:
64,192,98842,128,0,99100:0:0:0:0:
448,192,98842,128,0,99100:0:0:0:0:
192,192,98842,1,0,0:0:0:0:
320,192,99014,1,0,0:0:0:0:
192,192,99185,1,0,0:0:0:0:
448,192,99185,1,0,0:0:0:0:
320,192,99271,1,0,0:0:0:0:
320,192,99357,1,0,0:0:0:0:
192,192,99357,1,0,0:0:0:0:
320,192,99528,128,0,99700:0:0:0:0:
64,192,99528,128,0,99871:0:0:0:0:
448,192,99700,1,0,0:0:0:0:
192,192,99785,1,0,0:0:0:0:
192,192,99871,128,0,100128:0:0:0:0:
448,192,99871,128,0,100128:0:0:0:0:
320,192,100042,1,0,0:0:0:0:
64,192,100214,1,0,0:0:0:0:
320,192,100214,1,0,0:0:0:0:
192,192,100300,1,0,0:0:0:0:
64,192,100385,1,0,0:0:0:0:
320,192,100385,1,0,0:0:0:0:
320,192,100557,1,0,0:0:0:0:
192,192,100557,128,0,100728:0:0:0:0:
64,192,100642,1,0,0:0:0:0:
448,192,100728,1,0,0:0:0:0:
320,192,100728,128,0,100900:0:0:0:0:
64,192,100814,1,0,0:0:0:0:
192,192,100900,1,0,0:0:0:0:
448,192,100900,1,0,0:0:0:0:
192,192,100985,1,0,0:0:0:0:
320,192,101071,1,0,0:0:0:0:
64,192,101071,1,0,0:0:0:0:
192,192,101242,128,0,101500:0:0:0:0:
64,192,101242,128,0,101500:0:0:0:0:
448,192,101585,1,0,0:0:0:0:
448,192,101585,1,0,0:0:0:0:
320,192,101757,1,0,0:0:0:0:
320,192,101757,1,0,0:0:0:0:
192,192,101928,1,0,0:0:0:0:
192,192,101928,1,0,0:0:0:0:
64,192,102100,1,0,0:0:0:0:
64,192,102100,1,0,0:0:0:0:
320,192,102271,128,0,102528:0:0:0:0:
320,192,102614,1,0,0:0:0:0:
192,192,102785,1,0,0:0:0:0:
320,192,102957,128,0,102978:0:0:0:0:
64,192,102957,128,0,102978:0:0:0:0:
64,192,103042,1,0,0:0:0:0:
192,192,103128,128,0,103150:0:0:0:0:
320,192,103128,128,0,103150:0:0:0:0:
192,192,103214,1,0,0:0:0:0:
320,192,103300,128,0,103321:0:0:0:0:
64,192,103300,128,0,103321:0:0:0:0:
320,192,103385,1,0,0:0:0:0:
192,192,103471,128,0,103492:0:0:0:0:
64,192,103471,128,0,103492:0:0:0:0:
448,192,103557,1,0,0:0:0:0:
64,192,103642,128,0,103900:0:0:0:0:
448,192,103642,128,0,103900:0:0:0:0:
320,192,103985,128,0,104242:0:0:0:0:
192,192,103985,128,0,104242:0:0:0:0:
64,192,104328,128,0,104585:0:0:0:0:
448,192,104328,128,0,104585:0:0:0:0:
192,192,104328,1,0,0:0:0:0:
320,192,104500,1,0,0:0:0:0:
64,192,104671,1,0,0:0:0:0:
192,192,104671,1,0,0:0:0:0:
320,192,104757,1,0,0:0:0:0:
320,192,104842,1,0,0:0:0:0:
448,192,104842,1,0,0:0:0:0:
448,192,105014,128,0,105185:0:0:0:0:
320,192,105014,128,0,105442:0:0:0:0:
192,192,105185,1,0,0:0:0:0:
64,192,105185,128,0,105442:0:0:0:0:
192,192,105357,1,0,0:0:0:0:
448,192,105442,1,0,0:0:0:0:
192,192,105528,1,0,0:0:0:0:
448,192,105528,1,0,0:0:0:0:
64,192,105700,128,0,105957:0:0:0:0:
448,192,105700,128,0,105957:0:0:0:0:
64,192,106042,1,0,0:0:0:0:
320,192,106042,1,0,0:0:0:0:
192,192,106128,1,0,0:0:0:0:
192,192,106214,1,0,0:0:0:0:
320,192,106214,1,0,0:0:0:0:
192,192,106385,1,0,0:0:0:0:
448,192,106385,1,0,0:0:0:0:
320,192,106471,1,0,0:0:0:0:
192,192,106557,1,0,0:0:0:0:
448,192,106557,1,0,0:0:0:0:
320,192,106728,1,0,0:0:0:0:
64,192,106728,1,0,0:0:0:0:
192,192,106814,1,0,0:0:0:0:
320,192,106900,1,0,0:0:0:0:
64,192,106900,1,0,0:0:0:0:
64,192,107071,1,0,0:0:0:0:
448,192,107071,1,0,0:0:0:0:
64,192,107071,1,0,0:0:0:0:
192,192,107242,1,0,0:0:0:0:
192,192,107242,1,0,0:0:0:0:
320,192,107414,1,0,0:0:0:0:
320,192,107414,1,0,0:0:0:0:
448,192,107585,1,0,0:0:0:0:
448,192,107585,1,0,0:0:0:0:
64,192,107757,1,0,0:0:0:0:
448,192,107757,1,0,0:0:0:0:
448,192,108100,1,0,0:0:0:0:
448,192,108271,1,0,0:0:0:0:
448,192,108442,1,0,0:0:0:0:
64,192,108442,1,0,0:0:0:0:
192,192,108785,1,0,0:0:0:0:
320,192,108785,1,0,0:0:0:0:
64,192,108957,1,0,0:0:0:0:
448,192,108957,1,0,0:0:0:0:
64,192,109300,1,0,0:0:0:0:
448,192,109300,1,0,0:0:0:0:
320,192,109471,1,0,0:0:0:0:
192,192,109471,1,0,0:0:0:0:
64,192,109814,1,0,0:0:0:0:
192,192,109814,1,0,0:0:0:0:
320,192,109814,1,0,0:0:0:0:
448,192,109814,1,0,0:0:0:0:
64,192,109814,1,0,0:0:0:0:
448,192,109814,1,0,0:0:0:0:
192,192,109814,1,0,0:0:0:0:
320,192,109814,1,0,0:0:0:0:
