osu file format v14

[General]
AudioFilename: audio.mp3
AudioLeadIn: 0
PreviewTime: 46323
Countdown: 0
SampleSet: Soft
StackLeniency: 0.5
Mode: 0
LetterboxInBreaks: 0
WidescreenStoryboard: 0

[Editor]
DistanceSpacing: 0.5
BeatDivisor: 4
GridSize: 32
TimelineZoom: 1

[Metadata]
Title:Like a Girl
TitleUnicode:Like a Girl
Artist:Lizzo
ArtistUnicode:Lizzo
Creator:Squilly
Version:Estrogen
Source:
Tags:
BeatmapID:2157760
BeatmapSetID:1031864

[Difficulty]
HPDrainRate:5
CircleSize:4
OverallDifficulty:8
ApproachRate:8.3
SliderMultiplier:2
SliderTickRate:1

[Events]
//Background and Video events
0,0,"lizzo.png",0,0
//Break Periods
//Storyboard Layer 0 (Background)
//Storyboard Layer 1 (Fail)
//Storyboard Layer 2 (Pass)
//Storyboard Layer 3 (Foreground)
//Storyboard Layer 4 (Overlay)
//Storyboard Sound Samples

[TimingPoints]
73,416.666666666667,4,2,0,100,1,0
73,-133.333333333333,4,2,0,30,0,0
4448,-133.333333333333,4,2,0,40,0,0
6739,-100,4,2,0,50,0,0
33406,-133.333333333333,4,2,0,50,0,0
46323,-80,4,2,0,60,0,0
50489,-80,4,2,0,60,0,1
51323,-80,4,2,0,60,0,0
52156,-80,4,2,0,60,0,1
52989,-80,4,2,0,60,0,0
57156,-80,4,2,0,60,0,1
57989,-80,4,2,0,60,0,0
58823,-80,4,2,0,60,0,1
59656,-80,4,2,0,60,0,0
70489,-80,4,2,0,60,0,1
71323,-80,4,2,0,60,0,0
72156,-80,4,2,0,60,0,1
72989,-80,4,2,0,30,0,0

[Colours]
Combo1 : 249,4,4
Combo2 : 240,126,0
Combo3 : 207,24,152
Combo4 : 193,193,0

[HitObjects]
141,153,73,6,0,B|219:142|196:209|275:199,1,150.000005722046,2|0,0:0|0:0,0:0:0:0:
280,202,698,2,0,P|291:148|281:111,1,75.0000028610231,0|0,0:0|0:0,0:0:0:0:
149,233,1114,6,0,L|140:329,1,75.0000028610231,2|0,0:0|0:0,0:0:0:0:
141,153,1531,2,0,B|132:250|132:250|111:268|111:268|102:366,1,225.000008583069,2|0,0:0|0:0,0:0:0:0:
54,199,2781,2,0,L|60:121,2,75.0000028610231,2|0|0,0:0|0:0|0:0,0:0:0:0:
113,266,3406,6,0,P|184:291|262:265,1,150.000005722046,2|0,0:0|0:0,0:0:0:0:
257,275,4031,2,0,L|264:181,1,75.0000028610231,0|0,0:0|0:0,0:0:0:0:
330,104,4448,6,0,P|275:122|249:114,1,75.0000028610231,2|0,0:0|0:0,0:0:0:0:
241,14,4864,2,0,P|296:-4|322:4,1,75.0000028610231,2|0,0:0|0:0,0:0:0:0:
186,82,5489,2,0,L|178:167,1,75.0000028610231,0|0,0:0|0:0,0:0:0:0:
74,234,5906,6,0,B|128:224|128:224|199:258,1,112.500004291535,2|0,0:0|0:0,0:0:0:0:
191,278,6323,2,0,B|245:288|245:288|316:254,1,112.500004291535,2|0,0:0|0:0,0:0:0:0:
373,206,6739,6,0,L|382:97,1,100,2|0,1:2|0:0,0:0:0:0:
449,36,7156,1,0,0:0:0:0:
354,12,7364,1,0,0:0:0:0:
462,53,7573,1,8,0:0:0:0:
301,77,7781,2,0,L|186:66,1,100,2|0,1:2|0:0,0:0:0:0:
54,104,8198,1,2,1:2:0:0:
146,143,8406,6,0,P|161:193|143:245,1,100,0|0,0:0|0:0,0:0:0:0:
27,295,8823,2,0,P|11:244|29:192,1,100,0|0,1:2|0:0,0:0:0:0:
137,344,9239,1,0,0:0:0:0:
137,344,9343,1,0,0:0:0:0:
137,344,9448,2,0,L|236:335,2,100,0|0|0,1:2|0:0|0:0,0:0:0:0:
242,244,10073,5,2,1:2:0:0:
324,361,10281,1,0,0:0:0:0:
385,232,10489,2,0,L|394:124,1,100,0|0,0:0|0:0,0:0:0:0:
280,43,10906,1,8,0:0:0:0:
184,154,11114,2,0,L|282:145,1,100,2|0,1:2|0:0,0:0:0:0:
386,33,11531,1,2,1:2:0:0:
280,43,11739,6,0,L|180:51,1,100,0|0,0:0|0:0,0:0:0:0:
84,145,12156,2,0,L|183:153,1,100,0|0,1:2|0:0,0:0:0:0:
57,48,12573,1,8,0:0:0:0:
0,210,12781,1,0,1:2:0:0:
59,38,12989,1,0,0:0:0:0:
62,280,13406,6,0,B|155:233|155:338|249:280,1,200,2|0,1:2|0:0,0:0:0:0:
316,224,14031,1,0,0:0:0:0:
257,378,14239,1,8,0:0:0:0:
384,271,14448,2,0,P|398:215|374:165,1,100,2|0,1:2|0:0,0:0:0:0:
192,27,14864,6,0,B|107:19|107:19|84:38|84:38|0:31,1,200,2|0,1:2|0:0,0:0:0:0:
42,119,15489,2,0,L|151:128,1,100,0|0,1:2|0:0,0:0:0:0:
259,86,15906,1,8,0:0:0:0:
191,208,16114,1,0,1:2:0:0:
319,152,16323,1,0,0:0:0:0:
278,235,16531,1,0,0:0:0:0:
401,117,16739,6,0,B|489:73|489:73|471:273,1,300,2|0,1:2|0:0,0:0:0:0:
419,339,17573,1,8,0:0:0:0:
278,235,17781,2,0,L|286:132,1,100,2|0,1:2|0:0,0:0:0:0:
353,274,18198,6,0,B|258:226|258:321|163:274,1,200,2|0,1:2|0:0,0:0:0:0:
53,269,18823,2,0,P|113:242|159:264,1,100,0|0,1:2|0:0,0:0:0:0:
48,357,19239,1,8,0:0:0:0:
0,200,19448,2,0,B|7:115|7:115|30:96|30:96|37:11,1,200,0|0,1:2|0:0,0:0:0:0:
171,44,20073,6,0,L|303:32,1,100,2|0,1:2|0:0,0:0:0:0:
353,141,20489,2,0,L|220:129,1,100,0|0,0:0|0:0,0:0:0:0:
353,46,20906,1,8,0:0:0:0:
444,171,21114,1,2,1:2:0:0:
444,17,21323,1,0,0:0:0:0:
353,141,21531,1,2,1:2:0:0:
270,35,21739,6,0,P|212:25|159:49,1,100
143,191,22156,2,0,P|201:201|254:177,1,100,0|0,1:2|0:0,0:0:0:0:
90,72,22573,1,0,0:0:0:0:
90,72,22677,1,0,0:0:0:0:
90,72,22781,1,0,1:2:0:0:
61,232,22989,1,0,0:0:0:0:
189,118,23198,1,0,0:0:0:0:
250,288,23406,6,0,L|455:305,1,200,2|0,1:2|0:0,0:0:0:0:
493,209,24031,1,0,0:0:0:0:
505,384,24239,1,8,0:0:0:0:
478,200,24448,2,0,L|466:79,1,100,2|0,1:2|0:0,0:0:0:0:
371,11,24864,1,2,1:2:0:0:
284,109,25073,6,0,P|351:119|384:99,1,100,0|0,0:0|0:0,0:0:0:0:
212,33,25489,2,0,P|145:23|112:43,1,100,0|0,1:2|0:0,0:0:0:0:
185,213,25906,1,8,0:0:0:0:
284,109,26114,1,0,1:2:0:0:
104,144,26323,1,0,0:0:0:0:
444,168,26739,6,0,B|469:212|469:212|447:258,1,100,2|0,1:2|0:0,0:0:0:0:
306,331,27156,2,0,B|281:287|281:287|303:241,1,100,0|0,0:0|0:0,0:0:0:0:
412,358,27573,1,8,0:0:0:0:
357,173,27781,1,2,1:2:0:0:
427,366,27989,1,0,0:0:0:0:
302,242,28198,1,2,1:2:0:0:
226,381,28406,6,0,L|121:371,1,100,0|0,0:0|0:0,0:0:0:0:
0,212,28823,2,0,L|104:202,1,100,0|0,1:2|0:0,0:0:0:0:
35,319,29239,1,8,0:0:0:0:
35,319,29343,1,0,0:0:0:0:
35,319,29448,1,0,1:2:0:0:
82,107,29656,1,0,0:0:0:0:
134,289,29864,1,0,0:0:0:0:
79,89,30073,6,0,B|236:68|190:202|348:181,1,300,2|0,1:2|0:0,0:0:0:0:
413,125,30906,1,8,0:0:0:0:
484,265,31114,2,0,L|474:370,1,100,2|0,1:2|0:0,0:0:0:0:
249,341,31531,6,0,P|272:291|392:326,1,200,2|0,1:2|0:0,0:0:0:0:
253,345,32156,2,0,L|154:336,1,100,0|0,1:2|0:0,0:0:0:0:
54,196,32573,1,8,0:0:0:0:
231,62,32781,2,0,B|223:146|223:146|200:165|200:165|193:250,1,200,0|0,1:2|0:0,0:0:0:0:
338,378,33406,6,0,L|495:364,1,150.000005722046,10|0,0:0|0:0,0:0:0:0:
441,283,34031,2,0,L|449:189,1,75.0000028610231,8|0,0:0|0:0,0:0:0:0:
431,80,34448,1,10,0:0:0:0:
431,80,34656,1,8,0:0:0:0:
328,158,34864,6,0,L|223:148,1,75.0000028610231,2|0,0:0|0:0,0:0:0:0:
175,35,35281,1,8,0:0:0:0:
175,35,35489,2,0,L|158:213,1,150.000005722046,8|0,0:0|0:0,0:0:0:0:
93,291,36114,1,8,0:0:0:0:
240,244,36323,1,0,0:0:0:0:
77,301,36531,1,8,0:0:0:0:
265,333,36739,6,0,B|336:367|335:296|406:330,1,150.000005722046,10|0,0:0|0:0,0:0:0:0:
503,277,37364,2,0,P|451:256|428:230,1,75.0000028610231,8|0,0:0|0:0,0:0:0:0:
512,198,37781,1,10,0:0:0:0:
512,198,37989,1,8,0:0:0:0:
417,125,38198,6,0,L|324:133,1,75.0000028610231,2|0,0:0|0:0,0:0:0:0:
219,207,38614,1,8,0:0:0:0:
219,207,38823,1,8,0:0:0:0:
273,68,39031,1,0,0:0:0:0:
273,68,39239,1,0,0:0:0:0:
312,220,39448,1,8,0:0:0:0:
180,110,39656,1,0,0:0:0:0:
364,45,39864,1,0,0:0:0:0:
164,121,40073,6,0,B|128:137|128:137|3:127,1,150.000005722046,10|0,0:0|0:0,0:0:0:0:
57,218,40698,2,0,L|133:224,1,75.0000028610231,8|0,0:0|0:0,0:0:0:0:
209,331,41114,1,10,0:0:0:0:
209,331,41323,1,8,0:0:0:0:
209,331,41531,2,0,L|217:245,1,75.0000028610231,2|0,0:0|0:0,0:0:0:0:
304,161,41948,5,8,0:0:0:0:
304,161,42156,2,0,P|361:147|436:206,1,150.000005722046,8|0,0:0|0:0,0:0:0:0:
399,280,42781,1,8,0:0:0:0:
512,160,42989,1,0,0:0:0:0:
400,301,43198,1,8,0:0:0:0:
307,160,43406,6,0,L|292:-4,1,150.000005722046,10|0,0:0|0:0,0:0:0:0:
208,76,44031,2,0,L|216:171,1,75.0000028610231,8|0,0:0|0:0,0:0:0:0:
146,254,44448,1,10,0:0:0:0:
97,149,44656,1,8,0:0:0:0:
140,275,44864,1,2,0:0:0:0:
256,192,44968,12,0,46114,0:0:0:0:
140,275,46323,6,0,L|272:286,1,125,8|0,0:0|0:0,0:0:0:0:
438,94,46739,5,6,1:2:0:0:
209,169,46948,1,0,0:0:0:0:
443,219,47156,1,0,0:0:0:0:
229,54,47364,1,0,0:0:0:0:
308,373,47573,5,8,0:0:0:0:
326,133,47781,1,2,1:2:0:0:
182,368,47989,1,0,0:0:0:0:
209,169,48198,1,2,1:2:0:0:
385,299,48406,5,0,0:0:0:0:
156,80,48614,1,0,0:0:0:0:
254,302,48823,1,0,1:2:0:0:
405,78,49031,1,0,0:0:0:0:
166,256,49239,6,0,L|20:243,1,125,8|2,0:0|1:2,0:0:0:0:
209,169,49656,1,0,0:0:0:0:
89,350,49864,1,0,0:0:0:0:
135,95,50073,5,2,1:2:0:0:
267,255,50281,1,0,0:0:0:0:
362,6,50489,5,0,0:0:0:0:
166,256,50698,1,0,0:0:0:0:
383,0,50906,2,0,B|448:-9|430:46|495:36,1,125,8|2,0:0|1:2,0:0:0:0:
365,260,51323,5,0,0:0:0:0:
384,85,51531,1,2,1:2:0:0:
287,163,51739,1,0,0:0:0:0:
462,182,51947,1,0,0:0:0:0:
285,65,52156,5,0,1:2:0:0:
481,315,52365,1,0,0:0:0:0:
264,59,52573,2,0,B|198:49|216:105|151:95,1,125,8|0,0:0|1:2,0:0:0:0:
53,237,52989,5,0,0:0:0:0:
88,30,53198,1,0,0:0:0:0:
177,320,53406,5,2,1:2:0:0:
45,125,53614,1,0,0:0:0:0:
262,143,53823,2,0,L|387:153,1,125,0|0,0:0|0:0,0:0:0:0:
315,336,54239,5,8,0:0:0:0:
481,133,54448,1,2,1:2:0:0:
421,383,54656,1,0,0:0:0:0:
262,143,54864,1,2,1:2:0:0:
113,366,55073,5,0,0:0:0:0:
172,81,55281,1,0,0:0:0:0:
0,194,55490,1,0,1:2:0:0:
285,253,55698,1,0,0:0:0:0:
70,96,55906,5,8,0:0:0:0:
0,356,56114,1,2,1:2:0:0:
266,111,56323,1,0,0:0:0:0:
336,371,56531,1,0,0:0:0:0:
156,171,56739,5,2,1:2:0:0:
387,111,56948,1,0,0:0:0:0:
165,294,57156,5,0,0:0:0:0:
327,33,57364,1,0,0:0:0:0:
153,307,57573,2,0,B|100:302|100:302|86:314|86:314|33:309,1,125,8|2,0:0|1:2,0:0:0:0:
266,111,57989,5,0,0:0:0:0:
314,281,58198,1,2,1:2:0:0:
465,170,58406,1,0,0:0:0:0:
417,340,58615,1,0,0:0:0:0:
358,104,58823,5,0,1:2:0:0:
196,365,59031,1,0,0:0:0:0:
370,91,59239,2,0,B|422:95|422:95|436:83|436:83|489:88,1,125,8|0,0:0|1:2,0:0:0:0:
238,215,59656,6,0,P|160:240|70:154,1,187.5,0|0,0:0|0:0,0:0:0:0:
67,161,60073,6,0,L|80:20,1,125,6|0,1:2|0:0,0:0:0:0:
334,180,60489,2,0,L|345:304,1,125,0|0,0:0|0:0,0:0:0:0:
223,83,60906,1,8,0:0:0:0:
162,278,61114,2,0,B|107:282|107:282|97:294|97:294|43:299,1,125,2|0,1:2|0:0,0:0:0:0:
238,207,61531,1,2,1:2:0:0:
330,384,61739,5,0,0:0:0:0:
433,221,61948,1,0,0:0:0:0:
330,384,62156,2,0,B|384:379|384:379|394:367|394:367|448:362,1,125,0|0,1:2|0:0,0:0:0:0:
247,319,62573,1,8,0:0:0:0:
503,261,62781,2,0,P|477:151|366:173,1,250,2|0,1:2|0:0,0:0:0:0:
163,214,63406,6,0,L|298:225,1,125,2|0,1:2|0:0,0:0:0:0:
133,74,63823,2,0,L|-2:85,1,125,0|0,0:0|0:0,0:0:0:0:
82,272,64239,1,8,0:0:0:0:
216,127,64448,2,0,P|233:57|198:3,1,125,2|0,1:2|0:0,0:0:0:0:
8,84,64864,1,2,1:2:0:0:
216,127,65073,6,0,B|268:122|268:122|280:108|280:108|333:103,1,125,0|0,0:0|0:0,0:0:0:0:
404,243,65489,2,0,P|352:154|455:84,1,250,0|8,1:2|0:0,0:0:0:0:
493,255,66114,1,2,1:2:0:0:
266,217,66323,1,0,0:0:0:0:
508,281,66531,1,0,0:0:0:0:
157,352,66739,5,2,1:2:0:0:
274,82,66948,1,0,0:0:0:0:
256,350,67156,1,0,0:0:0:0:
93,122,67364,1,0,0:0:0:0:
381,143,67573,5,8,0:0:0:0:
92,249,67781,1,2,1:2:0:0:
274,82,67989,1,0,0:0:0:0:
345,306,68198,1,2,1:2:0:0:
166,41,68406,5,0,0:0:0:0:
153,331,68614,1,0,0:0:0:0:
184,27,68823,1,0,1:2:0:0:
2,269,69031,1,0,0:0:0:0:
300,187,69239,5,8,0:0:0:0:
19,55,69448,1,2,1:2:0:0:
368,90,69656,1,0,0:0:0:0:
75,203,69864,1,0,0:0:0:0:
423,281,70073,6,0,L|436:124,1,125,2|0,1:2|0:0,0:0:0:0:
150,126,70489,5,0,0:0:0:0:
423,281,70698,1,0,0:0:0:0:
141,121,70906,2,0,B|81:97|81:97|7:119,1,125,8|2,0:0|1:2,0:0:0:0:
213,342,71323,5,0,0:0:0:0:
324,85,71531,1,2,1:2:0:0:
75,203,71739,2,0,L|231:216,1,125,0|0,0:0|0:0,0:0:0:0:
324,85,72156,5,0,1:2:0:0:
25,286,72365,1,0,0:0:0:0:
333,80,72573,2,0,B|393:56|393:56|467:78,1,125,8|0,0:0|1:2,0:0:0:0:
312,203,72989,6,0,B|193:143|193:262|74:203,1,250,0|0,0:0|0:0,0:0:0:0:
