osu file format v14

[General]
AudioFilename: audio.mp3
AudioLeadIn: 0
PreviewTime: 49665
Countdown: 0
SampleSet: Soft
StackLeniency: 0.7
Mode: 0
LetterboxInBreaks: 0
WidescreenStoryboard: 1

[Editor]
Bookmarks: 17665,81665,129665
DistanceSpacing: 1.3
BeatDivisor: 3
GridSize: 4
TimelineZoom: 1.3

[Metadata]
Title:Juice
TitleUnicode:Juice
Artist:Lizzo
ArtistUnicode:Lizzo
Creator:Regraz
Version:Gabe's Hard
Source:
Tags:funk english funk-pop rap Melissa Jefferson cosmiccc Gabe cut ver
BeatmapID:1916383
BeatmapSetID:912553

[Difficulty]
HPDrainRate:5
CircleSize:3.8
OverallDifficulty:5
ApproachRate:6
SliderMultiplier:1.5
SliderTickRate:1

[Events]
//Background and Video events
0,0,"Philly.jpg",0,0
//Break Periods
//Storyboard Layer 0 (Background)
//Storyboard Layer 1 (Fail)
//Storyboard Layer 2 (Pass)
//Storyboard Layer 3 (Foreground)
//Storyboard Sound Samples

[TimingPoints]
1665,500,4,2,0,53,1,0
49665,-100,4,2,0,67,0,1
57165,-100,4,2,0,67,0,0
57665,-100,4,2,0,67,0,1
65665,-100,4,2,0,53,0,0
97665,-100,4,2,0,67,0,1
97790,-100,4,2,0,67,0,0
99165,-100,4,2,0,67,0,0
99665,-100,4,2,0,67,0,1
105165,-100,4,2,0,67,0,0
105665,-100,4,2,0,67,0,1
113665,-100,4,2,0,53,0,0

[Colours]
Combo1 : 55,47,255
Combo2 : 52,135,150
Combo3 : 231,41,184
Combo4 : 248,236,18
Combo5 : 200,194,216

[HitObjects]
476,317,17665,6,0,L|466:165,1,150,4|0,0:3|1:0,0:0:0:0:
459,69,18415,1,4,0:3:0:0:
376,120,18665,2,0,L|283:113,2,75,4|0|0,0:3|0:0|1:0,0:0:0:0:
199,36,19665,6,0,L|49:45,1,150,4|0,0:3|1:0,0:0:0:0:
114,118,20415,1,4,0:3:0:0:
179,189,20665,2,0,L|29:198,1,150,4|0,0:3|1:0,0:0:0:0:
94,271,21415,1,0,0:0:0:0:
159,342,21665,6,0,L|308:351,1,150,4|0,0:3|1:0,0:0:0:0:
405,360,22415,1,4,0:3:0:0:
363,271,22665,2,0,L|367:196,2,75,4|0|0,0:3|0:0|1:0,0:0:0:0:
185,190,23665,6,0,L|175:40,1,150,4|0,0:3|1:0,0:0:0:0:
265,75,24415,1,4,0:3:0:0:
355,110,24665,2,0,L|447:126,1,75,4|0,0:3|0:0,0:0:0:0:
467,153,25040,1,0,1:0:0:0:
472,158,25165,2,0,P|482:194|473:230,1,75,0|0,1:0|0:0,0:0:0:0:
422,313,25665,6,0,L|272:322,1,150,4|0,0:3|1:0,0:0:0:0:
186,275,26415,1,4,0:3:0:0:
106,331,26665,2,0,L|31:335,2,75,4|0|0,0:3|0:0|1:0,0:0:0:0:
242,190,27665,6,0,L|392:181,1,150,4|0,0:3|1:0,0:0:0:0:
470,123,28415,1,4,0:3:0:0:
491,218,28665,2,0,L|500:368,1,150,4|0,0:3|1:0,0:0:0:0:
409,329,29415,1,0,0:0:0:0:
316,361,29665,6,0,L|166:370,1,150,4|0,0:3|1:0,0:0:0:0:
88,311,30415,1,4,0:3:0:0:
176,270,30665,2,0,L|180:195,2,75,4|0|0,0:3|0:0|1:0,0:0:0:0:
363,215,31665,6,0,L|354:65,1,150,4|0,0:3|1:0,0:0:0:0:
269,15,32415,1,4,0:3:0:0:
204,87,32665,2,0,L|112:103,1,75,4|0,0:3|0:0,0:0:0:0:
89,127,33040,1,0,1:0:0:0:
84,132,33165,2,0,P|74:168|83:204,1,75,0|0,1:0|0:0,0:0:0:0:
176,199,33665,6,0,P|152:241|192:331,1,150,4|0,0:2|1:0,0:0:0:0:
277,367,34415,1,4,0:3:0:0:
263,270,34665,2,0,L|355:268,1,50,4|0,0:3|0:0,0:0:0:0:
442,285,35165,2,0,L|440:235,1,50,0|0,1:0|0:0,0:0:0:0:
465,84,35665,6,0,P|403:121|335:96,1,150,4|0,0:3|1:0,0:0:0:0:
255,39,36415,1,4,0:3:0:0:
177,96,36665,2,0,P|151:163|189:225,1,150,4|0,0:3|1:0,0:0:0:0:
254,298,37415,1,0,0:0:0:0:
336,353,37665,6,0,P|268:327|206:365,1,150,4|0,0:3|1:0,0:0:0:0:
120,320,38415,1,4,0:3:0:0:
26,358,38665,2,0,L|21:271,1,50,4|0,0:3|0:0,0:0:0:0:
130,234,39165,2,0,L|125:147,1,50,0|0,1:0|0:0,0:0:0:0:
56,76,39665,6,0,P|117:38|185:63,1,150,4|0,0:3|1:0,0:0:0:0:
256,132,40415,1,4,0:3:0:0:
326,63,40665,2,0,P|394:38|456:76,1,150,4|0,0:3|1:0,0:0:0:0:
504,160,41415,1,0,0:0:0:0:
436,228,41665,6,0,P|368:253|306:215,1,150,4|0,0:3|1:0,0:0:0:0:
256,132,42415,1,4,0:3:0:0:
206,215,42665,2,0,P|215:259|212:298,1,50,4|0,0:3|0:0,0:0:0:0:
119,352,43165,2,0,P|149:356|192:341,1,50,0|0,1:0|0:0,0:0:0:0:
96,240,43665,6,0,P|58:178|83:110,1,150,4|0,0:3|1:0,0:0:0:0:
156,44,44415,1,4,0:3:0:0:
236,100,44665,2,0,P|304:124|365:87,1,150,4|0,0:3|1:0,0:0:0:0:
276,284,45665,6,0,P|207:259|146:296,1,150,4|8,0:3|0:0,0:0:0:0:
72,360,46415,1,4,0:3:0:0:
48,264,46665,2,0,P|10:202|35:134,1,150,4|8,0:3|0:0,0:0:0:0:
204,32,47665,5,0,1:0:0:0:
304,40,48165,1,0,1:0:0:0:
404,52,48665,2,0,P|423:104|394:152,1,112.5,4|0,0:3|1:0,0:0:0:0:
384,164,49165,2,0,L|376:238,1,75,0|0,1:0|0:0,0:0:0:0:
256,328,49665,6,0,P|196:308|124:352,1,150,4|0,0:1|1:0,0:0:0:0:
28,368,50415,1,4,0:3:0:0:
64,276,50665,2,0,L|76:126,1,150,4|0,0:3|1:0,0:0:0:0:
120,40,51415,1,0,0:0:0:0:
232,144,51665,6,0,P|263:163|300:164,1,75,4|0,0:3|0:0,0:0:0:0:
364,88,52165,2,0,P|332:68|295:67,1,75,0|4,1:0|0:3,0:0:0:0:
408,184,52665,2,0,P|460:128|460:52,1,150,4|0,0:3|1:0,0:0:0:0:
364,88,53415,1,0,0:0:0:0:
232,144,53665,6,0,L|240:224,1,75,4|0,0:3|0:0,0:0:0:0:
152,260,54165,2,0,L|144:185,1,75,0|4,1:0|0:3,0:0:0:0:
236,320,54665,2,0,P|180:364|104:352,1,150,4|0,0:3|1:0,0:0:0:0:
152,260,55415,1,0,0:0:0:0:
232,144,55665,6,0,P|268:136|308:148,1,75,4|0,0:3|0:0,0:0:0:0:
336,236,56165,2,0,P|300:244|260:232,1,75,0|4,1:0|0:3,0:0:0:0:
408,168,56665,2,0,P|436:224|428:276,1,112.5,4|0,0:3|1:0,0:0:0:0:
424,284,57165,2,0,P|460:292|500:280,1,75,0|0,1:0|0:0,0:0:0:0:
344,340,57665,6,0,P|275:355|198:332,1,150,4|0,0:3|1:0,0:0:0:0:
140,256,58415,1,4,0:3:0:0:
60,312,58665,2,0,P|45:243|68:166,1,150,4|0,0:3|1:0,0:0:0:0:
128,92,59415,1,0,0:0:0:0:
276,52,59665,6,0,L|350:56,1,75,4|0,0:3|0:0,0:0:0:0:
412,132,60165,2,0,L|337:136,1,75,0|4,1:0|0:3,0:0:0:0:
448,40,60665,2,0,P|488:68|504:168,1,150,4|0,0:3|1:0,0:0:0:0:
412,132,61415,1,0,0:0:0:0:
276,52,61665,6,0,P|252:76|236:116,1,75,4|0,0:3|0:0,0:0:0:0:
288,196,62165,2,0,P|312:172|328:132,1,75,0|4,1:0|0:3,0:0:0:0:
184,196,62665,2,0,P|208:264|280:300,1,150,4|0,0:3|1:0,0:0:0:0:
288,196,63415,1,0,0:0:0:0:
276,52,63665,6,0,L|201:56,1,75,4|0,0:3|0:0,0:0:0:0:
148,136,64165,2,0,L|222:140,1,75,0|4,1:0|0:3,0:0:0:0:
100,48,64665,2,0,P|60:84|52:156,1,112.5,4|0,0:3|1:0,0:0:0:0:
56,152,65165,2,0,L|63:226,1,75,0|0,1:0|0:0,0:0:0:0:
76,324,65665,5,4,0:2:0:0:
184,160,66165,2,0,L|191:234,1,75,0|4,1:0|0:3,0:0:0:0:
204,332,66665,1,4,0:3:0:0:
312,168,67165,2,0,L|319:242,1,75,0|0,1:0|0:0,0:0:0:0:
332,340,67665,6,0,P|396:352|448:328,1,112.5,4|0,0:3|0:0,0:0:0:0:
448,324,68165,2,0,L|441:250,1,75,0|4,1:0|0:3,0:0:0:0:
428,152,68665,2,0,P|364:140|312:164,1,112.5,4|0,0:3|0:0,0:0:0:0:
312,168,69165,2,0,L|319:242,1,75,0|0,1:0|0:0,0:0:0:0:
204,332,69665,6,0,L|130:339,1,75,4|0,0:3|0:0,0:0:0:0:
32,348,70165,1,0,1:0:0:0:
76,260,70415,1,4,0:3:0:0:
16,184,70665,2,0,L|7:34,1,150,4|0,0:3|1:0,0:0:0:0:
96,76,71415,1,0,0:0:0:0:
176,20,71665,6,0,L|274:15,1,75,4|0,0:3|0:0,0:0:0:0:
348,12,72165,1,0,1:0:0:0:
300,96,72415,1,4,0:3:0:0:
396,88,72665,2,0,B|471:84|471:84|456:104|456:132,1,112.5,4|0,0:3|1:0,0:0:0:0:
460,132,73165,2,0,L|453:206,1,75,0|0,1:0|0:0,0:0:0:0:
440,304,73665,5,4,0:3:0:0:
332,140,74165,2,0,L|325:214,1,75,0|4,1:0|0:3,0:0:0:0:
312,312,74665,1,4,0:3:0:0:
204,148,75165,2,0,L|197:222,1,75,0|0,1:0|0:0,0:0:0:0:
184,320,75665,6,0,P|120:332|68:308,1,112.5,4|0,0:3|0:0,0:0:0:0:
68,304,76165,2,0,L|75:230,1,75,0|4,1:0|0:3,0:0:0:0:
88,132,76665,2,0,P|152:120|204:144,1,112.5,4|0,0:3|0:0,0:0:0:0:
204,148,77165,2,0,L|197:222,1,75,0|0,1:0|0:0,0:0:0:0:
312,312,77665,6,0,L|392:328,1,75,4|0,0:3|0:0,0:0:0:0:
480,348,78165,1,0,1:0:0:0:
448,256,78415,1,4,0:3:0:0:
504,176,78665,2,0,L|513:26,1,150,4|0,0:3|1:0,0:0:0:0:
420,60,79415,1,0,0:0:0:0:
328,28,79665,6,0,P|285:26|257:38,1,75,0|0,1:0|0:0,0:0:0:0:
196,116,80165,1,0,1:0:0:0:
152,28,80415,1,4,0:3:0:0:
88,100,80665,2,0,L|73:234,1,112.5,4|0,0:3|1:0,0:0:0:0:
72,228,81165,2,0,P|106:241|143:238,1,75,2|2,0:0|0:0,0:0:0:0:
263,184,81665,6,0,P|243:236|247:291,1,112.5,4|0,0:2|0:0,0:0:0:0:
256,304,82165,2,0,L|336:292,1,75,0|4,1:0|0:3,0:0:0:0:
416,340,82665,2,0,L|496:328,1,75,4|0,0:3|0:0,0:0:0:0:
438,245,83165,2,0,P|481:164|360:210,1,300,0|0,1:0|1:0,0:0:0:0:
330,292,84415,5,4,0:3:0:0:
264,219,84665,2,0,P|260:179|267:135,1,75,4|0,0:3|0:0,0:0:0:0:
175,104,85165,2,0,P|179:144|172:188,1,75,0|0,1:0|0:0,0:0:0:0:
139,269,85665,6,0,P|71:273|3:217,1,150,4|0,0:3|1:0,0:0:0:0:
43,135,86415,2,0,P|111:131|179:187,1,150,4|0,0:3|0:0,0:0:0:0:
234,255,87165,2,0,L|312:250,1,75,0|0,1:0|0:0,0:0:0:0:
374,322,87665,6,0,P|442:326|510:270,1,150,4|0,0:3|1:0,0:0:0:0:
458,192,88415,2,0,P|404:188|350:232,1,125,4|0,0:3|1:0,0:0:0:0:
282,275,89040,2,0,L|275:209,1,37.5,0|0,0:0|1:0,0:0:0:0:
262,141,89415,1,0,1:0:0:0:
156,148,89665,6,0,P|108:150|60:111,1,112.5,4|0,0:3|0:0,0:0:0:0:
13,95,90165,2,0,L|1:178,1,75,0|4,1:0|0:3,0:0:0:0:
68,240,90665,2,0,L|78:314,1,75,4|0,0:3|0:0,0:0:0:0:
176,336,91165,2,0,P|293:349|224:253,1,300,0|0,1:0|1:0,0:0:0:0:
152,184,92415,5,4,0:3:0:0:
244,156,92665,2,0,L|337:137,1,75,4|0,0:3|0:0,0:0:0:0:
172,84,93165,2,0,L|79:65,1,75,0|8,1:0|0:3,0:0:0:0:
268,48,93665,6,0,L|432:12,1,150,4|0,0:3|1:0,0:0:0:0:
388,108,94415,2,0,P|376:172|400:272,1,150,4|0,0:3|0:0,0:0:0:0:
444,340,95165,2,0,L|370:355,1,75,0|0,1:0|0:0,0:0:0:0:
284,312,95665,6,0,L|120:276,1,150,0|0,1:0|1:0,0:0:0:0:
68,208,96415,1,4,0:3:0:0:
68,208,96540,1,0,0:0:0:0:
68,208,96665,2,0,P|66:170|60:133,1,75,4|0,0:3|0:0,0:0:0:0:
108,48,97164,5,0,1:0:0:0:
200,84,97415,1,4,0:3:0:0:
292,128,97665,5,4,0:2:0:0:
292,128,99165,1,0,1:0:0:0:
280,144,99665,6,0,P|249:163|212:164,1,75,4|0,0:2|0:0,0:0:0:0:
148,88,100165,2,0,P|180:68|217:67,1,75,0|4,1:0|0:3,0:0:0:0:
104,184,100665,2,0,P|52:128|52:52,1,150,4|0,0:3|1:0,0:0:0:0:
148,88,101415,1,0,0:0:0:0:
280,144,101665,6,0,L|272:224,1,75,4|0,0:3|0:0,0:0:0:0:
360,260,102165,2,0,L|368:185,1,75,0|4,1:0|0:3,0:0:0:0:
276,320,102665,2,0,P|332:364|408:352,1,150,4|0,0:3|1:0,0:0:0:0:
360,260,103415,1,0,0:0:0:0:
280,144,103665,6,0,P|244:136|204:148,1,75,4|0,0:3|0:0,0:0:0:0:
176,236,104165,2,0,P|212:244|252:232,1,75,0|4,1:0|0:3,0:0:0:0:
104,168,104665,2,0,P|76:224|84:276,1,112.5,4|0,0:3|1:0,0:0:0:0:
88,284,105165,2,0,P|52:292|12:280,1,75,0|0,1:0|0:0,0:0:0:0:
168,340,105665,6,0,P|237:355|314:332,1,150,4|0,0:3|1:0,0:0:0:0:
372,256,106415,1,4,0:3:0:0:
452,312,106665,2,0,P|467:243|444:166,1,150,4|0,0:3|1:0,0:0:0:0:
384,92,107415,1,0,0:0:0:0:
236,52,107665,6,0,L|162:56,1,75,4|0,0:3|0:0,0:0:0:0:
100,132,108165,2,0,L|175:136,1,75,0|4,1:0|0:3,0:0:0:0:
64,40,108665,2,0,P|24:68|8:168,1,150,4|0,0:3|1:0,0:0:0:0:
100,132,109415,1,0,0:0:0:0:
236,52,109665,6,0,P|260:76|276:116,1,75,4|0,0:3|0:0,0:0:0:0:
224,196,110165,2,0,P|200:172|184:132,1,75,0|4,1:0|0:3,0:0:0:0:
328,196,110665,2,0,P|304:264|232:300,1,150,4|0,0:3|1:0,0:0:0:0:
224,196,111415,1,0,0:0:0:0:
236,52,111665,6,0,L|311:56,1,75,4|0,0:3|0:0,0:0:0:0:
364,136,112165,2,0,L|290:140,1,75,0|4,1:0|0:3,0:0:0:0:
412,48,112665,2,0,P|452:84|460:156,1,112.5,4|0,0:3|0:0,0:0:0:0:
456,152,113165,2,0,L|449:226,1,75,0|0,1:0|0:0,0:0:0:0:
436,324,113665,5,4,0:3:0:0:
308,332,114165,1,0,1:0:0:0:
321,234,114415,1,4,0:3:0:0:
321,234,114540,2,0,L|332:106,1,112.5,0|0,0:0|0:0,0:0:0:0:
200,168,115165,2,0,L|193:242,1,75,0|0,1:0|0:0,0:0:0:0:
180,340,115665,6,0,P|116:352|64:328,1,112.5,4|0,0:3|0:0,0:0:0:0:
64,324,116165,2,0,L|71:250,1,75,0|4,1:0|0:3,0:0:0:0:
84,152,116665,2,0,P|148:140|200:164,1,112.5,4|0,0:3|0:0,0:0:0:0:
200,168,117165,2,0,L|193:242,1,75,0|0,1:0|0:0,0:0:0:0:
308,332,117665,6,0,L|382:339,1,75,4|0,0:3|0:0,0:0:0:0:
480,348,118165,1,0,1:0:0:0:
436,260,118415,1,4,0:3:0:0:
496,184,118665,2,0,L|505:34,1,150,4|0,0:3|1:0,0:0:0:0:
416,76,119415,1,0,0:0:0:0:
336,20,119665,6,0,L|238:15,1,75,4|0,0:3|0:0,0:0:0:0:
164,12,120165,1,0,1:0:0:0:
212,96,120415,1,4,0:3:0:0:
116,88,120665,2,0,B|41:84|41:84|56:104|56:132,1,112.5,4|0,0:3|1:0,0:0:0:0:
52,132,121165,2,0,L|59:206,1,75,0|0,1:0|0:0,0:0:0:0:
72,304,121665,5,4,0:2:0:0:
204,332,122165,1,0,1:0:0:0:
191,234,122415,1,4,0:3:0:0:
191,234,122540,2,0,L|180:106,1,112.5,0|0,0:0|0:0,0:0:0:0:
308,148,123165,2,0,L|315:222,1,75,0|0,1:0|0:0,0:0:0:0:
328,320,123665,6,0,P|392:332|444:308,1,112.5,4|0,0:3|0:0,0:0:0:0:
444,304,124165,2,0,L|437:230,1,75,0|4,1:0|0:3,0:0:0:0:
424,132,124665,2,0,P|360:120|308:144,1,112.5,4|0,0:3|0:0,0:0:0:0:
308,148,125165,2,0,L|315:222,1,75,0|0,1:0|0:0,0:0:0:0:
200,312,125665,6,0,L|120:328,1,75,4|0,0:3|0:0,0:0:0:0:
32,348,126165,1,0,1:0:0:0:
64,256,126415,1,4,0:3:0:0:
8,176,126665,2,0,L|-1:26,1,150,4|0,0:3|1:0,0:0:0:0:
92,60,127415,1,0,0:0:0:0:
184,28,127665,6,0,P|227:26|255:38,1,75,4|0,0:3|0:0,0:0:0:0:
316,116,128165,1,0,1:0:0:0:
360,28,128415,1,4,0:3:0:0:
424,100,128665,2,0,L|439:234,1,112.5,4|4,0:3|0:3,0:0:0:0:
440,228,129165,2,0,P|406:241|369:238,1,75,0|0,1:0|1:0,0:0:0:0:
256,156,129665,5,4,0:1:0:0:
