osu file format v14

[General]
AudioFilename: audio.mp3
AudioLeadIn: 0
PreviewTime: 5509
Countdown: 0
SampleSet: Soft
StackLeniency: 0.2
Mode: 0
LetterboxInBreaks: 0
WidescreenStoryboard: 0

[Editor]
DistanceSpacing: 0.1
BeatDivisor: 4
GridSize: 4
TimelineZoom: 1.4

[Metadata]
Title:Chikatto Chika Chika
TitleUnicode:チカっとチカ千花っ♡
Artist:Lizz Robinett vs. Culprate & Joe Ford
ArtistUnicode:Lizz Robinett vs. Culprate & Joe Ford
Creator:X4D
Version:Feet
Source:
Tags:gaucho かぐや様は告らせたい~天才たちの恋愛頭脳戦~ Kaguya-sama : Love Is War japanese jpop Anime cover fa featured artist mappers' guild round 5 Unity Project Part pt. 2 EP Open Outlets Drum & Bass Neurofunk IDM glitch versus mashup osu!
BeatmapID:2114368
BeatmapSetID:1010045

[Difficulty]
HPDrainRate:5
CircleSize:4
OverallDifficulty:8
ApproachRate:9.6
SliderMultiplier:2
SliderTickRate:1

[Events]
//Background and Video events
0,0,"1002111.jpg",0,0
//Break Periods
//Storyboard Layer 0 (Background)
//Storyboard Layer 1 (Fail)
//Storyboard Layer 2 (Pass)
//Storyboard Layer 3 (Foreground)
//Storyboard Sound Samples

[TimingPoints]
15,348.837209302326,4,2,0,100,1,0
8387,-33.3333333333333,4,2,0,100,0,0
8474,-33.3333333333333,4,2,0,5,0,0
8735,-66.6666666666667,4,2,0,100,0,0
8823,-66.6666666666667,4,2,0,5,0,0
8910,-66.6666666666667,4,2,0,100,0,0
8997,-66.6666666666667,4,2,0,5,0,0
9084,-66.6666666666667,4,2,0,100,0,0
9171,-66.6666666666667,4,2,0,5,0,0
9258,-66.6666666666667,4,2,0,100,0,0
9346,-66.6666666666667,4,2,0,5,0,0
9433,-66.6666666666667,4,2,0,100,0,0
9869,-66.6666666666667,4,2,0,5,0,0
9956,-66.6666666666667,4,2,0,100,0,0
10044,-66.6666666666667,4,2,0,5,0,0
10131,-66.6666666666667,4,2,0,100,0,0
10218,-66.6666666666667,4,2,0,5,0,0
10305,-66.6666666666667,4,2,0,100,0,0
10392,-66.6666666666667,4,2,0,5,0,0
10479,-66.6666666666667,4,2,0,100,0,0
10567,-66.6666666666667,4,2,0,5,0,0
10654,-66.6666666666667,4,2,0,100,0,0
10741,-66.6666666666667,4,2,0,5,0,0
10828,-66.6666666666667,4,2,0,100,0,0
11177,-33.3333333333333,4,2,0,100,0,0
11264,-33.3333333333333,4,2,0,5,0,0
11525,-66.6666666666667,4,2,0,100,0,0
11613,-66.6666666666667,4,2,0,5,0,0
11700,-66.6666666666667,4,2,0,100,0,0
11788,-66.6666666666667,4,2,0,5,0,0
11875,-66.6666666666667,4,2,0,100,0,0
11962,-66.6666666666667,4,2,0,5,0,0
12049,-66.6666666666667,4,2,0,100,0,0
12137,-66.6666666666667,4,2,0,5,0,0
12224,-66.6666666666667,4,2,0,100,0,0
12660,-66.6666666666667,4,2,0,5,0,0
12747,-66.6666666666667,4,2,0,100,0,0
12834,-66.6666666666667,4,2,0,5,0,0
12921,-66.6666666666667,4,2,0,100,0,0
13009,-66.6666666666667,4,2,0,5,0,0
13096,-66.6666666666667,4,2,0,100,0,0
13183,-66.6666666666667,4,2,0,5,0,0
13270,-66.6666666666667,4,2,0,100,0,0
13358,-66.6666666666667,4,2,0,5,0,0
13445,-66.6666666666667,4,2,0,100,0,0
13532,-66.6666666666667,4,2,0,5,0,0
13619,-66.6666666666667,4,2,0,100,0,0
13968,-33.3333333333333,4,2,0,100,0,0
14055,-33.3333333333333,4,2,0,5,0,0
14316,-66.6666666666667,4,2,0,100,0,0
14404,-66.6666666666667,4,2,0,5,0,0
14491,-66.6666666666667,4,2,0,100,0,0
14578,-66.6666666666667,4,2,0,5,0,0
14665,-66.6666666666667,4,2,0,100,0,0
14753,-66.6666666666667,4,2,0,5,0,0
14840,-66.6666666666667,4,2,0,100,0,0
14927,-66.6666666666667,4,2,0,5,0,0
15014,-66.6666666666667,4,2,0,100,0,0
15451,-66.6666666666667,4,2,0,5,0,0
15538,-66.6666666666667,4,2,0,100,0,0
15625,-66.6666666666667,4,2,0,5,0,0
15712,-66.6666666666667,4,2,0,100,0,0
15799,-66.6666666666667,4,2,0,5,0,0
15886,-66.6666666666667,4,2,0,100,0,0
15974,-66.6666666666667,4,2,0,5,0,0
16061,-66.6666666666667,4,2,0,100,0,0
16148,-66.6666666666667,4,2,0,5,0,0
16235,-66.6666666666667,4,2,0,100,0,0
16323,-66.6666666666667,4,2,0,5,0,0
16410,-66.6666666666667,4,2,0,100,0,0
16759,-33.3333333333333,4,2,0,100,0,0
16846,-33.3333333333333,4,2,0,5,0,0
17107,-66.6666666666667,4,2,0,100,0,0
17195,-66.6666666666667,4,2,0,5,0,0
17282,-66.6666666666667,4,2,0,100,0,0
17369,-66.6666666666667,4,2,0,5,0,0
17456,-66.6666666666667,4,2,0,100,0,0
17544,-66.6666666666667,4,2,0,5,0,0
17631,-66.6666666666667,4,2,0,100,0,0
17718,-66.6666666666667,4,2,0,5,0,0
17805,-66.6666666666667,4,2,0,100,0,0
18241,-66.6666666666667,4,2,0,5,0,0
18328,-66.6666666666667,4,2,0,100,0,0
18416,-66.6666666666667,4,2,0,5,0,0
18503,-50,4,2,0,100,0,0
18590,-50,4,2,0,5,0,0
18677,-50,4,2,0,100,0,0
18765,-50,4,2,0,5,0,0
18852,-50,4,2,0,100,0,0
19113,-50,4,2,0,5,0,0
19201,-50,4,2,0,100,0,0
19549,-25,4,2,0,100,0,0
19637,-25,4,2,0,5,0,0
19898,-66.6666666666667,4,2,0,100,0,0
19985,-66.6666666666667,4,2,0,5,0,0
20073,-66.6666666666667,4,2,0,100,0,0
21032,-66.6666666666667,4,2,0,5,0,0
21120,-66.6666666666667,4,2,0,100,0,0
21206,-66.6666666666667,4,2,0,5,0,0
21294,-66.6666666666667,4,2,0,100,0,0
21381,-66.6666666666667,4,2,0,5,0,0
21469,-66.6666666666667,4,2,0,100,0,0
21555,-66.6666666666667,4,2,0,5,0,0
21643,-66.6666666666667,4,2,0,100,0,0
21730,-66.6666666666667,4,2,0,5,0,0
21818,-66.6666666666667,4,2,0,100,0,0
21904,-66.6666666666667,4,2,0,5,0,0
21992,-66.6666666666667,4,2,0,100,0,0
22776,-66.6666666666667,4,2,0,5,0,0
22864,-66.6666666666667,4,2,0,100,0,0
23823,-66.6666666666667,4,2,0,5,0,0
23911,-66.6666666666667,4,2,0,100,0,0
23997,-66.6666666666667,4,2,0,5,0,0
24085,-66.6666666666667,4,2,0,100,0,0
24171,-66.6666666666667,4,2,0,5,0,0
24259,-66.6666666666667,4,2,0,100,0,0
24346,-66.6666666666667,4,2,0,5,0,0
24434,-66.6666666666667,4,2,0,100,0,0
24520,-66.6666666666667,4,2,0,5,0,0
24608,-66.6666666666667,4,2,0,100,0,0
24695,-66.6666666666667,4,2,0,5,0,0
24783,-66.6666666666667,4,2,0,100,0,0
25131,-25,4,2,0,100,0,0
25219,-25,4,2,0,5,0,0
25480,-66.6666666666667,4,2,0,100,0,0
25567,-66.6666666666667,4,2,0,5,0,0
25655,-66.6666666666667,4,2,0,100,0,0
26613,-66.6666666666667,4,2,0,5,0,0
26701,-66.6666666666667,4,2,0,100,0,0
26788,-66.6666666666667,4,2,0,5,0,0
26876,-66.6666666666667,4,2,0,100,0,0
26962,-66.6666666666667,4,2,0,5,0,0
27050,-66.6666666666667,4,2,0,100,0,0
27137,-66.6666666666667,4,2,0,5,0,0
27225,-66.6666666666667,4,2,0,100,0,0
27311,-66.6666666666667,4,2,0,5,0,0
27399,-66.6666666666667,4,2,0,100,0,0
27485,-66.6666666666667,4,2,0,5,0,0
27573,-66.6666666666667,4,2,0,100,0,0
28358,-66.6666666666667,4,2,0,5,0,0
28446,-66.6666666666667,4,2,0,100,0,0
29753,-66.6666666666667,4,2,0,5,0,0
29841,-66.6666666666667,4,2,0,100,0,0
30712,-25,4,2,0,100,0,0
30800,-25,4,2,0,5,0,0
31061,-66.6666666666667,4,2,0,100,0,0
31148,-66.6666666666667,4,2,0,5,0,0
31236,-66.6666666666667,4,2,0,100,0,0
32108,-25,4,2,0,100,0,0
32196,-25,4,2,0,5,0,0
32456,-66.6666666666667,4,2,0,100,0,0
32544,-66.6666666666667,4,2,0,5,0,0
32632,-66.6666666666667,4,2,0,100,0,0
32718,-66.6666666666667,4,2,0,5,0,0
32806,-66.6666666666667,4,2,0,100,0,0
32892,-66.6666666666667,4,2,0,5,0,0
32980,-66.6666666666667,4,2,0,100,0,0
33067,-66.6666666666667,4,2,0,5,0,0
33155,-66.6666666666667,4,2,0,100,0,0
33241,-133.333333333333,4,2,0,100,0,0
33503,-25,4,2,0,100,0,0
33591,-25,4,2,0,5,0,0
33852,-66.6666666666667,4,2,0,100,0,0
33939,-66.6666666666667,4,2,0,5,0,0
34027,-66.6666666666667,4,2,0,100,0,0
34898,-25,4,2,0,100,0,0
34986,-25,4,2,0,5,0,0
35247,-66.6666666666667,4,2,0,100,0,0
35334,-66.6666666666667,4,2,0,5,0,0
35422,-66.6666666666667,4,2,0,100,0,0
35509,-66.6666666666667,4,2,0,5,0,0
35597,-66.6666666666667,4,2,0,100,0,0
35683,-66.6666666666667,4,2,0,5,0,0
35771,-66.6666666666667,4,2,0,100,0,0
35858,-66.6666666666667,4,2,0,5,0,0
35946,-66.6666666666667,4,2,0,100,0,0
36294,-25,4,2,0,100,0,0
36382,-25,4,2,0,5,0,0
36643,-66.6666666666667,4,2,0,100,0,0
36730,-66.6666666666667,4,2,0,5,0,0
36818,-66.6666666666667,4,2,0,100,0,0
37689,-25,4,2,0,100,0,0
37777,-25,4,2,0,5,0,0
38038,-66.6666666666667,4,2,0,100,0,0
38125,-66.6666666666667,4,2,0,5,0,0
38213,-66.6666666666667,4,2,0,100,0,0
38299,-66.6666666666667,4,2,0,5,0,0
38387,-66.6666666666667,4,2,0,100,0,0
38474,-66.6666666666667,4,2,0,5,0,0
38562,-66.6666666666667,4,2,0,100,0,0
38648,-66.6666666666667,4,2,0,5,0,0
38736,-66.6666666666667,4,2,0,100,0,0
38823,-100,4,2,0,100,0,0
39084,-25,4,2,0,100,0,0
39172,-25,4,2,0,5,0,0
39346,-66.6666666666667,4,2,0,100,0,0
41875,-25,4,2,0,100,0,0
41962,-25,4,2,0,5,0,0

[Colours]
Combo1 : 200,111,113
Combo2 : 211,183,124
Combo3 : 204,171,243
Combo4 : 157,125,77

[HitObjects]
183,153,2456,5,0,0:0:0:0:
224,268,2631,1,0,0:0:0:0:
426,136,2805,6,0,B|334:116|367:45|251:20,1,200
64,91,3328,2,0,P|84:157|93:209,1,100
59,297,3677,1,0,0:0:0:0:
206,133,3852,2,0,P|280:150|300:187,1,100
272,376,4201,6,0,B|216:375|216:375|225:211,1,200
412,139,4724,1,0,0:0:0:0:
477,186,4898,2,0,P|439:218|390:218,1,100
188,28,5247,2,0,P|237:28|299:119,1,150
298,101,5596,5,0,0:0:0:0:
218,229,6294,5,0,0:0:0:0:
299,319,6991,5,0,0:0:0:0:
299,319,8038,6,0,L|272:322,2,16.6666666666667
202,329,8212,1,0,0:0:0:0:
33,239,8387,6,0,B|31:231|31:231|71:237|71:237|105:253|105:253|148:244|190:265,2,150.000005722046
33,239,8735,2,0,P|5:213|9:165,1,75.0000028610231
26,52,8910,2,0,P|52:24|100:28,1,75.0000028610231
97,37,9084,2,0,P|60:39|35:67,1,75.0000028610231
15,171,9259,2,0,P|17:207|45:232,1,75.0000028610231
260,101,9433,6,0,B|205:109|205:109|168:139|168:139|99:152,1,150.000005722046
305,280,9782,6,0,L|289:193,1,75.0000028610231
316,193,9956,2,0,L|329:266,1,75.0000028610231
234,341,10131,6,0,B|208:317|208:317|168:326,1,75.0000028610231
391,316,10305,2,0,B|417:340|417:340|457:331,1,75.0000028610231
146,300,10480,6,0,L|219:286,1,75.0000028610231
479,357,10654,2,0,L|405:370,1,75.0000028610231
353,76,10828,5,0,0:0:0:0:
369,115,10916,1,0,0:0:0:0:
236,154,11003,5,0,0:0:0:0:
251,115,11090,1,0,0:0:0:0:
316,193,11177,6,0,B|287:197|287:197|288:203|288:203|287:192|287:192|240:197|240:197|224:190|224:190|161:196,2,150.000005722046
316,193,11526,2,0,P|352:195|377:223,1,75.0000028610231
461,146,11701,2,0,P|463:109|491:85,1,75.0000028610231
512,96,11875,2,0,P|484:120|481:157,1,75.0000028610231
366,244,12049,2,0,P|341:216|304:213,1,75.0000028610231
383,352,12224,6,0,B|425:346|447:312|447:312|468:345|523:350,1,150.000005722046
163,346,12573,6,0,P|138:318|101:315,1,75.0000028610231
92,337,12747,2,0,P|116:364|153:367,1,75.0000028610231
217,215,12921,6,0,B|208:176|208:176|232:150,1,75.0000028610231
27,79,13096,2,0,B|51:105|51:105|42:145,1,75.0000028610231
143,228,13270,6,0,L|216:214,1,75.0000028610231
100,92,13445,2,0,L|26:78,1,75.0000028610231
0,240,13619,5,0,0:0:0:0:
0,240,13794,1,0,0:0:0:0:
321,196,13968,6,0,B|329:198|329:198|323:158|323:158|307:124|307:124|316:81|295:39,2,150.000005722046
321,196,14317,2,0,P|349:222|345:270,1,75.0000028610231
436,344,14491,2,0,P|410:372|362:368,1,75.0000028610231
365,359,14666,2,0,P|401:357|426:330,1,75.0000028610231
339,263,14840,2,0,P|336:227|309:203,1,75.0000028610231
134,374,15015,6,0,B|189:366|189:366|226:336|226:336|295:323,1,150.000005722046
174,116,15363,6,0,L|190:203,1,75.0000028610231
163,203,15538,2,0,L|150:130,1,75.0000028610231
260,110,15712,6,0,L|333:96,1,75.0000028610231
74,26,15887,2,0,L|0:39,1,75.0000028610231
309,70,16061,6,0,B|271:79|271:79|245:55,1,75.0000028610231
23,64,16235,2,0,B|62:56|62:56|88:80,1,75.0000028610231
126,320,16410,5,0,0:0:0:0:
110,281,16497,1,0,0:0:0:0:
243,242,16584,5,0,0:0:0:0:
228,281,16671,1,0,0:0:0:0:
176,384,16759,6,0,B|180:355|180:355|186:356|186:356|175:355|175:355|180:308|180:308|173:292|173:292|179:229,2,150.000005722046
176,384,17108,2,0,P|212:382|237:354,1,75.0000028610231
351,275,17282,2,0,P|388:277|412:305,1,75.0000028610231
401,326,17456,2,0,P|377:298|340:295,1,75.0000028610231
226,333,17631,2,0,P|201:361|164:364,1,75.0000028610231
15,243,17805,6,0,B|21:201|55:179|55:179|22:158|17:103,1,150.000005722046
172,1,18154,6,0,P|208:4|232:32,1,75.0000028610231
223,54,18328,2,0,P|186:51|161:24,1,75.0000028610231
442,88,18503,6,0,B|395:99|395:99|397:108|397:108|394:100|394:100|311:117,1,100
405,183,18677,2,0,B|452:172|452:172|450:163|450:163|453:171|453:171|487:165,1,100
319,17,18852,6,0,B|307:93|307:93|326:162|326:162|306:334,1,300
308,312,19201,1,0,0:0:0:0:
312,316,19549,6,0,B|324:278|324:278|271:295|271:295|270:289|270:289|272:295|272:295|214:314|214:314|246:334,2,200
312,316,19898,2,0,P|343:342|397:333,1,75.0000028610231
452,257,20073,5,0,0:0:0:0:
445,268,20160,1,0,0:0:0:0:
464,265,20247,1,0,0:0:0:0:
457,276,20334,1,0,0:0:0:0:
452,257,20421,5,0,0:0:0:0:
430,157,20509,1,0,0:0:0:0:
408,57,20596,1,0,0:0:0:0:
492,72,20683,6,0,B|440:57|440:57|402:31|402:31|340:17,1,150.000005722046
245,67,20945,6,0,P|277:82|287:120,1,75.0000028610231
317,226,21119,2,0,P|302:258|264:268,1,75.0000028610231
280,281,21294,6,0,P|315:271|331:238,1,75.0000028610231
300,104,21468,2,0,P|290:68|257:52,1,75.0000028610231
90,215,21642,6,0,L|205:224,1,75.0000028610231
167,141,21817,2,0,L|92:135,1,75.0000028610231
138,328,21991,5,0,0:0:0:0:
117,27,22166,1,0,0:0:0:0:
142,38,22340,5,0,0:0:0:0:
163,339,22515,1,0,0:0:0:0:
383,202,22689,6,0,P|346:204|318:229,1,75.0000028610231
402,308,22863,5,0,0:0:0:0:
413,311,22951,1,0,0:0:0:0:
424,314,23038,1,0,0:0:0:0:
435,317,23125,1,0,0:0:0:0:
462,296,23212,5,0,0:0:0:0:
363,331,23299,1,0,0:0:0:0:
264,366,23387,1,0,0:0:0:0:
227,285,23474,6,0,B|212:263|184:262|184:262|178:258|178:258|183:261|183:261|145:291|165:348,1,150.000005722046
47,360,23735,6,0,L|56:245,1,75.0000028610231
117,90,23910,2,0,L|126:205,1,75.0000028610231
139,153,24084,6,0,L|133:78,1,75.0000028610231
35,273,24259,2,0,L|30:348,1,75.0000028610231
222,359,24433,6,0,L|227:284,1,75.0000028610231
246,80,24608,2,0,L|251:5,1,75.0000028610231
237,179,24782,5,0,0:0:0:0:
237,179,24956,1,0,0:0:0:0:
418,142,25131,6,0,B|430:180|430:180|377:163|377:163|376:169|376:169|378:163|378:163|320:144|320:144|352:124,2,200
418,142,25480,2,0,P|449:116|503:125,1,75.0000028610231
378,327,25654,5,0,0:0:0:0:
371,338,25741,1,0,0:0:0:0:
390,335,25828,1,0,0:0:0:0:
383,346,25916,1,0,0:0:0:0:
378,327,26003,5,0,0:0:0:0:
356,227,26090,1,0,0:0:0:0:
334,127,26177,1,0,0:0:0:0:
418,142,26265,6,0,B|366:127|366:127|328:101|328:101|266:87,1,150.000005722046
180,245,26526,6,0,P|212:230|222:192,1,75.0000028610231
252,86,26701,2,0,P|237:54|199:44,1,75.0000028610231
215,31,26875,6,0,P|250:41|266:74,1,75.0000028610231
235,208,27049,2,0,P|225:244|192:260,1,75.0000028610231
25,126,27224,6,0,L|140:117,1,75.0000028610231
102,200,27398,2,0,L|27:206,1,75.0000028610231
66,35,27573,5,0,0:0:0:0:
45,336,27747,1,0,0:0:0:0:
156,300,27921,5,0,0:0:0:0:
154,292,28009,1,0,0:0:0:0:
147,288,28096,1,0,0:0:0:0:
140,291,28183,1,0,0:0:0:0:
149,376,28270,2,0,P|186:374|214:349,1,75.0000028610231
340,264,28445,5,0,0:0:0:0:
351,261,28532,1,0,0:0:0:0:
362,258,28619,1,0,0:0:0:0:
373,255,28706,1,0,0:0:0:0:
400,276,28794,5,0,0:0:0:0:
301,241,28881,1,0,0:0:0:0:
202,206,28968,2,0,L|177:49,1,150.000005722046
178,57,29230,1,0,0:0:0:0:
279,108,29317,5,0,0:0:0:0:
286,107,29404,1,0,0:0:0:0:
282,100,29491,1,0,0:0:0:0:
59,148,29666,6,0,B|38:135|38:135|108:139,1,75.0000028610231
285,290,29840,2,0,B|307:271|307:271|243:281|243:281|243:277|243:277|246:280|246:280|167:294,1,150.000005722046
101,311,30102,1,0,0:0:0:0:
111,309,30189,1,0,0:0:0:0:
101,297,30363,5,0,0:0:0:0:
91,299,30450,1,0,0:0:0:0:
81,301,30538,1,0,0:0:0:0:
81,301,30712,6,0,B|75:324|75:324|125:302|125:302|187:309|187:309|145:269|165:224,2,200
81,301,31061,2,0,L|63:186,1,75.0000028610231
109,78,31235,5,0,0:0:0:0:
102,75,31322,1,0,0:0:0:0:
95,79,31409,1,0,0:0:0:0:
93,87,31497,1,0,0:0:0:0:
114,106,31584,5,0,0:0:0:0:
209,94,31671,1,0,0:0:0:0:
304,82,31759,1,0,0:0:0:0:
247,22,31846,6,0,B|242:64|242:64|257:91|257:91|252:179,1,150.000005722046
262,259,32108,6,0,B|330:250|339:177|339:177|360:229|431:237,2,200
262,259,32456,6,0,L|273:333,1,75.0000028610231
249,346,32631,2,0,L|237:271,1,75.0000028610231
56,126,32805,6,0,L|44:200,1,75.0000028610231
133,237,32980,2,0,L|144:162,1,75.0000028610231
346,44,33154,1,0,0:0:0:0:
259,74,33241,6,0,P|303:54|330:76,1,75.0000028610231
411,173,33503,6,0,B|406:148|406:148|377:139|356:154|355:158|355:158|354:150|354:150|277:157|277:157|300:172|307:202,2,200
411,173,33852,2,0,L|399:247,1,75.0000028610231
361,381,34026,1,0,0:0:0:0:
355,376,34113,1,0,0:0:0:0:
358,369,34201,1,0,0:0:0:0:
352,364,34288,1,0,0:0:0:0:
391,344,34375,5,0,0:0:0:0:
296,319,34462,1,0,0:0:0:0:
201,294,34549,1,0,0:0:0:0:
143,364,34637,6,0,B|180:359|180:359|162:317|142:211,1,150.000005722046
73,137,34898,6,0,B|141:146|150:219|150:219|171:167|242:159,2,200
73,137,35247,6,0,P|109:55|134:58,1,75.0000028610231
116,73,35421,2,0,P|125:108|109:141,1,75.0000028610231
187,44,35596,6,0,P|168:12|133:0,1,75.0000028610231
0,158,35770,2,0,P|11:192|43:211,1,75.0000028610231
0,37,35945,5,0,0:0:0:0:
0,37,36119,1,0,0:0:0:0:
431,83,36294,6,0,B|437:60|437:60|387:82|387:82|325:75|325:75|367:115|347:160,2,200
431,83,36643,2,0,L|449:198,1,75.0000028610231
403,306,36817,5,0,0:0:0:0:
410,309,36904,1,0,0:0:0:0:
417,305,36991,1,0,0:0:0:0:
419,297,37079,1,0,0:0:0:0:
398,278,37166,5,0,0:0:0:0:
303,290,37253,1,0,0:0:0:0:
208,302,37341,1,0,0:0:0:0:
265,362,37428,6,0,B|270:320|270:320|255:293|255:293|260:205,1,150.000005722046
250,125,37690,6,0,B|182:134|173:207|173:207|152:155|81:147,2,200
250,125,38038,6,0,L|238:50,1,75.0000028610231
263,38,38213,2,0,L|274:112,1,75.0000028610231
456,258,38387,6,0,L|467:183,1,75.0000028610231
379,147,38562,2,0,L|367:221,1,75.0000028610231
286,352,38736,5,0,0:0:0:0:
286,352,38910,1,0,0:0:0:0:
101,211,39085,6,0,B|106:236|106:236|135:245|156:230|157:226|157:226|158:234|158:234|235:227|235:227|212:212|205:182,2,200
101,211,39346,1,0,0:0:0:0:
147,135,39433,5,0,0:0:0:0:
154,136,39520,1,0,0:0:0:0:
152,143,39608,1,0,0:0:0:0:
341,54,39782,5,0,0:0:0:0:
334,55,39869,1,0,0:0:0:0:
336,62,39957,1,0,0:0:0:0:
343,62,40044,1,0,0:0:0:0:
296,27,40131,5,0,0:0:0:0:
332,112,40218,1,0,0:0:0:0:
388,39,40305,1,0,0:0:0:0:
481,251,40480,5,0,0:0:0:0:
473,253,40567,1,0,0:0:0:0:
446,241,40654,5,0,0:0:0:0:
438,239,40741,1,0,0:0:0:0:
394,289,40828,5,0,0:0:0:0:
386,291,40915,1,0,0:0:0:0:
348,221,41003,5,0,0:0:0:0:
340,219,41090,1,0,0:0:0:0:
285,318,41177,5,0,0:0:0:0:
339,380,41265,2,0,P|304:339|215:376,1,150.000005722046
223,369,41526,5,0,0:0:0:0:
223,369,41875,6,0,B|220:372|220:372|220:257|220:257|213:257|213:257|220:257|220:257|220:192|220:192|219:245,2,200
