osu file format v14

[General]
AudioFilename: audio.mp3
AudioLeadIn: 0
PreviewTime: -1
Countdown: 1
SampleSet: Normal
StackLeniency: 0.7
Mode: 0
LetterboxInBreaks: 0
WidescreenStoryboard: 0

[Editor]
DistanceSpacing: 2.2
BeatDivisor: 4
GridSize: 16
TimelineZoom: 1

[Metadata]
Title:Hide and Seek
TitleUnicode:Hide and Seek
Artist:Lizz Robinett
ArtistUnicode:Lizz Robinett
Creator:Absolite
Version:Norm4l
Source:
Tags:English Vocal Scare Slow Jumps
BeatmapID:1164040
BeatmapSetID:549716

[Difficulty]
HPDrainRate:3
CircleSize:2.5
OverallDifficulty:3
ApproachRate:4
SliderMultiplier:1
SliderTickRate:2

[Events]
//Background and Video events
0,0,"maxresdefault.jpg",0,0
//Break Periods
//Storyboard Layer 0 (Background)
//Storyboard Layer 1 (Fail)
//Storyboard Layer 2 (Pass)
//Storyboard Layer 3 (Foreground)
//Storyboard Sound Samples

[TimingPoints]
5802,499.983680266445,4,1,0,100,1,0
5802,499.983680266445,4,1,0,100,1,0
69799,-71.4285714285714,4,1,0,100,0,1
85549,-100,4,1,0,100,0,0
119798,-71.4285714285714,4,1,0,100,0,1
122298,-100,4,1,0,100,0,1
123798,-71.4285714285714,4,1,0,100,0,1
126234,-100,4,1,0,100,0,1
127548,-71.4285714285714,4,1,0,100,0,1
130297,-100,4,1,0,100,0,1
131813,-71.4285714285714,4,1,0,100,0,1
133797,-71.4285714285714,4,1,0,100,0,0

[HitObjects]
56,144,5802,6,0,P|86:87|131:72,1,100
229,64,6801,2,0,P|282:56|342:69,2,100
123,94,8301,1,2,0:0:0:0:
62,189,8801,6,0,P|47:240|94:280,1,100
178,310,9551,1,8,0:0:0:0:
178,310,9801,1,8,0:0:0:0:
306,308,10551,5,0,0:0:0:0:
406,299,10801,2,0,P|455:264|438:220,1,100
394,135,11551,1,8,0:0:0:0:
305,82,11801,2,0,P|253:64|197:86,3,100,0|2|0|2,0:0|0:0|0:0|0:0,0:0:0:0:
107,124,13801,5,0,0:0:0:0:
89,221,14301,1,0,0:0:0:0:
153,312,14801,2,0,B|197:331|197:331|258:289,1,100
266,269,15551,1,8,0:0:0:0:
288,229,15801,2,0,B|336:213|336:213|382:234,1,100
432,329,16551,5,8,0:0:0:0:
479,238,16801,2,0,B|496:191|496:191|467:138,1,100
474,150,17551,1,0,0:0:0:0:
474,150,17801,1,2,0:0:0:0:
389,80,18551,6,0,B|344:51|282:51|245:88,1,150
216,104,19551,1,8,0:0:0:0:
178,132,19801,2,0,P|142:157|97:210,2,100,0|2|0,0:0|0:0|0:0,0:0:0:0:
289,107,21301,1,0,0:0:0:0:
394,142,21801,2,0,P|434:237|377:308,1,200
273,330,23301,1,8,0:0:0:0:
196,271,23801,1,8,0:0:0:0:
258,188,24301,1,8,0:0:0:0:
388,162,25801,6,0,P|298:88|209:114,1,200
127,165,27301,1,2,0:0:0:0:
197,250,27801,2,0,P|236:280|292:274,3,100,0|8|0|0,0:0|0:0|0:0|0:0,0:0:0:0:
375,218,29801,1,8,0:0:0:0:
432,114,30551,5,0,0:0:0:0:
432,114,30801,2,0,P|406:77|350:53,2,100,0|2|0,0:0|0:0|0:0,0:0:0:0:
471,216,32301,1,2,0:0:0:0:
458,275,33801,6,0,P|425:325|385:328,1,100
292,298,34551,1,8,0:0:0:0:
292,298,34801,1,8,0:0:0:0:
202,220,35301,5,0,0:0:0:0:
117,144,35801,1,0,0:0:0:0:
204,87,36301,2,0,B|245:58|245:58|300:71,2,100,0|2|0,0:0|0:0|0:0,0:0:0:0:
333,42,37800,5,8,0:0:0:0:
418,106,38300,1,0,0:0:0:0:
462,205,38800,2,0,P|475:310|399:339,1,200
304,285,40300,1,8,0:0:0:0:
383,204,40800,6,0,P|449:121|389:42,1,200,0|2,0:0|0:0,0:0:0:0:
297,51,42550,1,8,0:0:0:0:
297,51,42800,2,0,B|240:72|218:112|219:112,2,100
405,70,44300,1,2,0:0:0:0:
448,167,44800,2,0,B|467:212|467:212|448:262,1,100
361,325,45800,5,8,0:0:0:0:
258,330,46300,1,8,0:0:0:0:
151,338,46800,2,0,P|69:256|92:173,1,200
165,112,48300,1,8,0:0:0:0:
264,78,48800,2,0,P|371:77|438:152,1,200
459,242,50550,5,8,0:0:0:0:
459,242,50800,2,0,P|424:295|391:305,2,100
454,135,52300,1,8,0:0:0:0:
376,61,52800,1,8,0:0:0:0:
272,48,53300,2,0,P|211:58|181:82,1,100
111,168,54550,5,8,0:0:0:0:
111,168,54800,1,8,0:0:0:0:
96,271,55300,2,0,P|158:307|202:312,1,100
294,297,56300,1,4,0:0:0:0:
388,287,57800,6,8,P|440:196|391:102,1,200
311,66,59300,1,8,0:0:0:0:
207,72,59800,1,8,0:0:0:0:
118,124,60300,1,8,0:0:0:0:
105,221,60800,2,0,B|133:262|133:262|201:274,1,100
299,272,61800,5,0,0:0:0:0:
428,263,62550,1,0,0:0:0:0:
428,263,62800,1,0,0:0:0:0:
456,158,63300,1,2,0:0:0:0:
387,80,63800,2,2,B|348:52|348:52|288:68,1,100
298,66,64800,1,0,0:0:0:0:
205,62,65800,6,0,B|151:52|151:52|105:95,1,100
98,125,66550,1,0,0:0:0:0:
83,164,66800,2,0,P|57:225|113:338,1,200
226,324,68299,1,0,0:0:0:0:
317,258,68799,2,2,P|338:221|343:161,2,100
259,326,70299,5,0,0:0:0:0:
177,268,70799,1,8,0:0:0:0:
177,268,71049,1,8,0:0:0:0:
123,211,71299,2,0,P|90:137|129:66,1,139.999995727539
249,73,72299,1,8,0:0:0:0:
341,140,72799,1,8,0:0:0:0:
423,67,73299,1,8,0:0:0:0:
442,209,73799,5,0,0:0:0:0:
406,339,74299,1,0,0:0:0:0:
263,322,74799,1,8,0:0:0:0:
263,322,75049,1,8,0:0:0:0:
190,292,75299,2,0,P|108:230|110:178,1,139.999995727539
248,94,76299,1,2,0:0:0:0:
173,166,76799,1,2,0:0:0:0:
244,257,77299,1,2,0:0:0:0:
124,267,77799,5,0,0:0:0:0:
240,333,78299,1,0,0:0:0:0:
374,313,78799,2,0,P|413:290|413:262,2,69.9999978637696
240,333,79549,1,8,0:0:0:0:
312,213,79799,1,8,0:0:0:0:
259,70,80299,5,2,0:0:0:0:
162,128,80799,2,2,P|122:171|90:259,1,139.999995727539
49,367,81799,1,0,0:0:0:0:
180,324,82299,1,0,0:0:0:0:
91,213,82799,2,0,B|39:136|71:37|217:22,1,279.999991455078
331,68,84299,2,0,L|407:109,4,69.9999978637696
168,45,85799,5,8,0:0:0:0:
99,117,86299,1,8,0:0:0:0:
39,214,86799,2,0,P|80:301|188:327,1,200
284,322,88299,1,0,0:0:0:0:
380,269,88799,5,8,0:0:0:0:
380,269,89049,1,8,0:0:0:0:
426,201,89299,2,2,P|466:106|410:33,1,200
344,77,90549,1,8,0:0:0:0:
344,77,90799,1,8,0:0:0:0:
274,95,91049,2,0,P|217:86|181:113,1,100
184,108,91799,1,2,0:0:0:0:
135,176,92299,2,0,B|110:210|79:266|76:253,2,100
218,95,93799,5,8,0:0:0:0:
325,63,94299,1,8,0:0:0:0:
423,107,94799,2,0,P|463:204|423:295,1,200
344,355,96299,1,0,0:0:0:0:
246,296,96799,1,8,0:0:0:0:
246,296,97049,1,8,0:0:0:0:
196,235,97299,1,8,0:0:0:0:
196,235,97549,1,8,0:0:0:0:
137,179,97798,2,0,B|98:154|98:154|41:199,1,100
43,265,98548,5,8,0:0:0:0:
43,265,98798,1,8,0:0:0:0:
115,311,99048,1,0,0:0:0:0:
115,311,99298,2,0,P|222:269|218:179,1,200
133,143,100798,1,2,0:0:0:0:
193,49,101298,1,2,0:0:0:0:
276,113,101798,1,2,0:0:0:0:
419,133,102548,5,8,0:0:0:0:
419,133,102798,1,8,0:0:0:0:
446,206,103048,1,0,0:0:0:0:
446,206,103298,2,2,P|453:308|369:356,1,200
275,341,104798,1,0,0:0:0:0:
188,329,105798,6,0,P|81:269|80:194,1,200
130,110,107298,1,0,0:0:0:0:
224,60,107798,1,0,0:0:0:0:
331,34,108298,1,0,0:0:0:0:
421,93,108798,2,2,P|476:188|423:260,1,200
286,307,110548,5,8,0:0:0:0:
286,307,110798,1,8,0:0:0:0:
178,271,111298,1,0,0:0:0:0:
92,197,111798,2,2,P|70:144|103:104,2,100
168,295,113798,5,0,0:0:0:0:
274,329,114548,1,8,0:0:0:0:
274,329,114798,1,8,0:0:0:0:
373,288,115298,1,0,0:0:0:0:
442,210,115798,1,0,0:0:0:0:
399,117,116298,1,0,0:0:0:0:
302,70,116798,2,2,P|240:62|204:87,1,100
256,192,117798,12,4,119798,0:0:0:0:
257,184,120298,5,4,0:0:0:0:
129,157,120798,2,4,P|218:78|364:140,1,279.999991455078
361,262,122298,1,12,0:0:0:0:
243,321,122798,1,12,0:0:0:0:
145,220,123298,1,12,0:0:0:0:
201,91,123798,6,4,P|246:71|335:109,1,139.999995727539
330,224,124798,2,4,P|236:273|133:141,1,279.999991455078
224,59,126298,1,12,0:0:0:0:
315,74,126798,1,12,0:0:0:0:
391,129,127298,1,12,0:0:0:0:
443,218,127798,6,4,B|456:271|445:316|411:343|395:367,1,139.999995727539
272,336,128797,2,0,P|218:317|195:229,2,139.999995727539
351,331,130297,5,12,0:0:0:0:
413,278,130797,1,12,0:0:0:0:
413,200,131297,1,12,0:0:0:0:
349,120,131797,2,4,P|245:59|174:86,1,200
117,137,133047,1,12,0:0:0:0:
72,205,133297,2,4,L|48:296,2,69.9999978637696
245,191,135797,5,12,0:0:0:0:
310,192,136297,1,12,0:0:0:0:
379,190,136797,2,4,B|386:77|337:23|266:8|208:34,1,279.999991455078
175,100,138297,1,12,0:0:0:0:
143,135,138797,1,12,0:0:0:0:
125,175,139297,1,12,0:0:0:0:
111,216,139797,6,4,P|186:298|232:307,2,139.999995727539
115,135,141047,1,12,0:0:0:0:
115,135,141297,1,12,0:0:0:0:
430,304,141547,1,4,0:0:0:0:
430,304,141797,1,4,0:0:0:0:
