osu file format v14

[General]
AudioFilename: audio.mp3
AudioLeadIn: 0
PreviewTime: -1
Countdown: 1
SampleSet: Normal
StackLeniency: 0.7
Mode: 0
LetterboxInBreaks: 0
WidescreenStoryboard: 1

[Editor]
DistanceSpacing: 2.2
BeatDivisor: 4
GridSize: 16
TimelineZoom: 1

[Metadata]
Title:Hide and Seek
TitleUnicode:Hide and Seek
Artist:Lizz Robinett
ArtistUnicode:Lizz Robinett
Creator:Absolite
Version:H4rD
Source:
Tags:English Vocal Scare Slow Jumps
BeatmapID:1164039
BeatmapSetID:549716

[Difficulty]
HPDrainRate:4
CircleSize:3
OverallDifficulty:5
ApproachRate:7
SliderMultiplier:1.2
SliderTickRate:2

[Events]
//Background and Video events
0,0,"maxresdefault.jpg",0,0
//Break Periods
//Storyboard Layer 0 (Background)
//Storyboard Layer 1 (Fail)
//Storyboard Layer 2 (Pass)
//Storyboard Layer 3 (Foreground)
//Storyboard Sound Samples

[TimingPoints]
5802,499.983680266445,4,1,0,100,1,0
69799,-71.4285714285714,4,1,0,100,0,1
85549,-100,4,1,0,100,0,0
119798,-71.4285714285714,4,1,0,100,0,1
122298,-100,4,1,0,100,0,1
123798,-71.4285714285714,4,1,0,100,0,1
126234,-100,4,1,0,100,0,1
127548,-71.4285714285714,4,1,0,100,0,1
130297,-100,4,1,0,100,0,1
131813,-71.4285714285714,4,1,0,100,0,1
133797,-71.4285714285714,4,1,0,100,0,0

[HitObjects]
51,154,5802,5,0,0:0:0:0:
152,66,6301,1,0,0:0:0:0:
266,67,6801,2,0,P|306:71|331:83,2,60
159,54,7551,1,8,0:0:0:0:
74,126,7801,2,0,P|39:182|62:227,1,120
173,293,8801,5,8,0:0:0:0:
269,332,9051,2,2,P|338:320|366:269,1,120
403,187,9801,1,8,0:0:0:0:
345,97,10551,6,0,P|277:64|215:65,1,120
138,78,11301,1,8,0:0:0:0:
59,143,11551,1,8,0:0:0:0:
80,243,11801,2,2,P|133:294|196:288,3,120
343,293,13801,5,8,0:0:0:0:
451,205,14301,1,8,0:0:0:0:
386,90,14801,2,0,P|364:61|338:45,2,60
443,181,15551,1,8,0:0:0:0:
424,278,15801,2,0,P|368:313|309:315,1,120
213,310,16551,1,8,0:0:0:0:
135,244,16801,2,4,P|86:194|74:138,1,120
73,147,17551,1,8,0:0:0:0:
73,147,17801,1,8,0:0:0:0:
196,65,18551,5,0,0:0:0:0:
293,62,18801,1,0,0:0:0:0:
390,74,19051,1,0,0:0:0:0:
453,148,19301,1,0,0:0:0:0:
474,243,19551,1,0,0:0:0:0:
402,314,19801,2,2,P|326:331|277:307,2,120
404,312,21301,5,8,0:0:0:0:
461,225,21801,1,8,0:0:0:0:
392,119,22551,5,0,0:0:0:0:
310,66,22801,1,0,0:0:0:0:
187,42,23301,1,8,0:0:0:0:
84,121,23801,2,2,P|38:180|35:223,1,120
76,306,25801,6,0,P|148:343|190:318,2,120
43,211,27301,1,8,0:0:0:0:
99,123,27801,1,8,0:0:0:0:
192,71,28301,2,0,P|318:44|420:94,1,240
465,185,29801,1,0,0:0:0:0:
460,318,30551,5,8,0:0:0:0:
358,336,30801,2,2,P|286:312|253:274,1,120
156,193,31801,1,0,0:0:0:0:
253,108,32301,1,0,0:0:0:0:
340,156,32551,2,8,L|382:179,2,30
252,75,33801,6,0,P|179:61|80:124,1,180
43,207,34801,1,0,0:0:0:0:
107,328,35301,1,0,0:0:0:0:
188,225,35801,1,0,0:0:0:0:
291,147,36301,1,0,0:0:0:0:
415,194,36800,2,2,P|461:240|469:304,2,120
312,114,38300,5,0,0:0:0:0:
181,162,38800,1,0,0:0:0:0:
65,241,39050,1,0,0:0:0:0:
194,287,39300,2,0,P|235:285|261:260,1,60
319,163,39800,1,8,0:0:0:0:
434,48,40300,1,8,0:0:0:0:
435,183,40800,5,0,0:0:0:0:
356,77,41050,1,0,0:0:0:0:
394,199,41300,1,0,0:0:0:0:
384,74,41550,1,0,0:0:0:0:
361,203,41800,2,2,P|331:145|337:85,2,120
419,321,43050,1,0,0:0:0:0:
396,201,43300,1,0,0:0:0:0:
384,321,43550,1,0,0:0:0:0:
429,209,43800,2,2,P|449:269|431:335,1,120
345,326,44800,6,2,P|315:273|323:208,1,120
387,134,45800,5,0,0:0:0:0:
293,45,46300,1,0,0:0:0:0:
184,106,46800,1,0,0:0:0:0:
67,177,47050,1,0,0:0:0:0:
195,131,47300,1,0,0:0:0:0:
59,150,47550,1,0,0:0:0:0:
192,102,47800,2,2,P|269:73|327:88,1,120
437,134,48800,5,0,0:0:0:0:
480,264,49050,1,0,0:0:0:0:
473,133,49300,1,0,0:0:0:0:
442,262,49550,1,0,0:0:0:0:
501,143,49800,2,2,P|472:204|429:238,1,120
320,285,50550,6,0,L|264:250,1,60
168,170,51050,1,0,0:0:0:0:
73,83,51300,2,0,P|149:43|198:60,1,120
317,66,52300,1,8,0:0:0:0:
440,130,52800,1,8,0:0:0:0:
467,256,53300,2,0,P|409:300|340:291,1,120
209,253,54550,5,0,0:0:0:0:
116,158,54800,1,0,0:0:0:0:
246,50,55300,1,0,0:0:0:0:
408,56,55800,2,8,P|443:114|446:184,1,120
472,292,56550,1,8,0:0:0:0:
472,292,56800,1,8,0:0:0:0:
280,343,57800,6,2,P|169:270|173:167,1,240
240,25,59300,1,8,0:0:0:0:
295,172,59800,1,0,0:0:0:0:
153,254,60300,1,8,0:0:0:0:
61,163,60800,2,0,P|79:98|124:65,1,120
282,49,61800,5,0,0:0:0:0:
448,148,62550,1,8,0:0:0:0:
448,148,62800,1,8,0:0:0:0:
471,308,63300,1,0,0:0:0:0:
312,340,63800,1,0,0:0:0:0:
175,257,64300,1,0,0:0:0:0:
103,189,64550,2,2,L|63:153,2,30
207,282,65800,6,0,P|272:322|336:326,1,120
414,324,66550,1,0,0:0:0:0:
474,246,66800,2,0,P|485:178|446:133,1,120
320,52,67799,1,0,0:0:0:0:
165,85,68299,1,0,0:0:0:0:
52,192,68799,2,8,P|34:263|74:320,2,120
145,61,70299,5,0,0:0:0:0:
272,162,70799,1,8,0:0:0:0:
313,64,71049,1,8,0:0:0:0:
374,156,71299,1,8,0:0:0:0:
306,66,71549,1,8,0:0:0:0:
239,154,71799,2,0,P|198:207|197:252,1,83.9999974365235
125,302,72299,6,0,P|169:328|210:327,1,83.9999974365235
302,315,72799,2,0,P|346:296|361:256,1,83.9999974365235
389,194,73299,2,0,P|386:239|355:267,1,83.9999974365235
255,342,73799,5,0,0:0:0:0:
108,274,74299,1,0,0:0:0:0:
41,121,74799,1,8,0:0:0:0:
117,45,75049,1,8,0:0:0:0:
164,140,75299,1,8,0:0:0:0:
128,50,75549,1,8,0:0:0:0:
64,145,75799,2,0,P|30:216|43:247,1,83.9999974365235
78,306,76299,6,0,P|117:323|175:319,1,83.9999974365235
260,300,76799,2,0,P|303:277|317:235,1,83.9999974365235
281,150,77299,2,0,P|230:139|190:165,1,83.9999974365235
142,237,77799,5,0,0:0:0:0:
281,258,78299,2,0,P|326:229|345:192,1,83.9999974365235
259,129,78799,1,8,0:0:0:0:
152,109,79049,1,8,0:0:0:0:
194,193,79299,1,8,0:0:0:0:
159,108,79549,1,8,0:0:0:0:
262,121,79799,2,0,P|303:116|364:150,1,83.9999974365235
422,192,80299,6,0,P|435:245|417:275,1,83.9999974365235
333,325,80799,2,0,P|288:309|267:270,1,83.9999974365235
263,176,81299,2,0,P|313:161|347:175,1,83.9999974365235
424,247,81799,5,0,0:0:0:0:
310,328,82299,1,0,0:0:0:0:
191,260,82799,1,8,0:0:0:0:
172,156,83049,1,8,0:0:0:0:
251,228,83299,1,8,0:0:0:0:
177,152,83549,1,8,0:0:0:0:
141,253,83799,2,0,P|206:334|301:333,1,167.999994873047
431,238,85799,5,0,0:0:0:0:
474,79,86299,1,0,0:0:0:0:
317,96,86799,2,0,L|255:141,3,60
189,198,87799,1,8,0:0:0:0:
157,294,88299,1,8,0:0:0:0:
348,341,88799,6,2,P|451:251|465:140,1,240
334,62,90549,5,4,0:0:0:0:
234,71,90799,1,4,0:0:0:0:
249,166,91049,1,4,0:0:0:0:
354,152,91299,1,4,0:0:0:0:
451,134,91549,1,4,0:0:0:0:
475,230,91799,2,0,P|426:287|366:282,3,120
238,260,93799,5,0,0:0:0:0:
79,208,94299,1,0,0:0:0:0:
189,67,94799,1,4,0:0:0:0:
280,117,95049,1,4,0:0:0:0:
215,190,95299,1,4,0:0:0:0:
132,141,95549,1,4,0:0:0:0:
59,214,95799,2,0,P|106:270|167:298,1,120
307,337,96799,5,4,0:0:0:0:
413,351,97049,1,4,0:0:0:0:
442,252,97299,1,4,0:0:0:0:
332,233,97549,1,4,0:0:0:0:
367,137,97798,2,0,P|309:76|256:72,1,120
187,121,98548,5,4,0:0:0:0:
254,199,98798,1,4,0:0:0:0:
165,247,99048,1,4,0:0:0:0:
103,160,99298,1,4,0:0:0:0:
10,209,99548,1,4,0:0:0:0:
66,301,99798,2,0,P|141:324|199:319,3,120
348,323,101798,1,0,0:0:0:0:
442,204,102548,5,0,0:0:0:0:
376,129,102798,2,0,P|319:77|272:77,1,120
117,71,103798,1,0,0:0:0:0:
28,205,104298,1,0,0:0:0:0:
125,293,105798,6,2,P|256:328|370:282,1,240
476,196,107298,1,0,0:0:0:0:
378,61,107798,1,0,0:0:0:0:
221,108,108298,2,8,P|169:144|118:202,2,120
389,101,109798,2,0,P|450:214|403:315,1,240
252,338,111298,1,0,0:0:0:0:
98,290,111798,1,0,0:0:0:0:
225,178,112298,1,0,0:0:0:0:
340,53,113798,6,2,B|425:77|469:137|447:264,1,240
320,341,115298,1,0,0:0:0:0:
199,230,115798,1,0,0:0:0:0:
370,196,116298,1,0,0:0:0:0:
194,209,116798,1,0,0:0:0:0:
369,221,117298,1,0,0:0:0:0:
433,187,119798,6,4,P|450:120|418:98,2,83.9999974365235
453,189,120798,1,0,0:0:0:0:
354,253,121048,1,4,0:0:0:0:
458,219,121298,1,4,0:0:0:0:
346,215,121548,1,4,0:0:0:0:
454,250,121798,2,6,P|480:180|424:109,1,167.999994873047
332,49,122798,5,4,0:0:0:0:
173,87,123298,5,4,0:0:0:0:
73,214,123798,2,4,P|65:300|131:352,1,167.999994873047
252,326,124798,1,12,0:0:0:0:
310,247,125048,1,12,0:0:0:0:
352,338,125298,1,12,0:0:0:0:
301,247,125548,1,12,0:0:0:0:
247,333,125798,2,4,P|176:280|172:197,3,167.999994873047
216,86,127798,5,4,0:0:0:0:
335,18,128298,1,4,0:0:0:0:
447,91,128797,1,4,0:0:0:0:
483,178,129047,1,4,0:0:0:0:
412,245,129297,1,4,0:0:0:0:
336,184,129547,1,4,0:0:0:0:
255,243,129797,2,6,P|265:292|381:319,3,167.999994873047
480,306,131797,5,4,0:0:0:0:
391,168,132297,1,12,0:0:0:0:
292,81,132797,2,4,P|242:76|208:88,1,83.9999974365235
149,131,133297,1,12,0:0:0:0:
234,88,133547,2,4,P|277:80|332:95,1,83.9999974365235
400,80,135797,5,2,0:0:0:0:
304,208,136297,1,2,0:0:0:0:
