osu file format v14

[General]
AudioFilename: audio.mp3
AudioLeadIn: 0
PreviewTime: 203035
Countdown: 0
SampleSet: Soft
StackLeniency: 0.5
Mode: 0
LetterboxInBreaks: 0
WidescreenStoryboard: 1

[Editor]
DistanceSpacing: 1.3
BeatDivisor: 8
GridSize: 32
TimelineZoom: 1.8

[Metadata]
Title:Shinde Shimau towa Nasakenai!
TitleUnicode:しんでしまうとはなさけない!
Artist:Lizean
ArtistUnicode:リゼアン
Creator:Yugu
Version:Insane
Source:
Tags:リゼ・ヘルエスタ アンジュ・カトリーナ Lize Helesta Ange Katrina Jesus-P じーざすP 鏡音リン 鏡音レン Kagamine Rin Kagamine Len WONDERFUL★OPPORTUNITY vtuber virtual youtuber バーチャルyoutuber にじさんじ 2434 japanese pop vocaloid
BeatmapID:2201137
BeatmapSetID:1052264

[Difficulty]
HPDrainRate:5
CircleSize:4
OverallDifficulty:7
ApproachRate:7.5
SliderMultiplier:1.6
SliderTickRate:1

[Events]
//Background and Video events
0,0,"241.png",0,0
Video,-35,"Video.avi"
//Break Periods
2,98363,119407
//Storyboard Layer 0 (Background)
//Storyboard Layer 1 (Fail)
//Storyboard Layer 2 (Pass)
//Storyboard Layer 3 (Foreground)
//Storyboard Layer 4 (Overlay)
//Storyboard Sound Samples

[TimingPoints]
1612,344.827586206897,4,2,1,50,1,0
1612,-200,4,2,1,50,0,0
12301,-66.6666666666667,4,2,1,60,0,0
12646,-100,4,2,1,70,0,0
30060,-100,4,2,11,70,0,0
30577,-100,4,2,1,70,0,0
31267,-100,4,2,11,70,0,0
31956,-100,4,2,1,70,0,0
32905,-100,4,2,11,70,0,0
33336,-100,4,2,1,70,0,0
34543,-100,4,2,11,70,0,0
34715,-100,4,2,1,60,0,0
44715,-133.333333333333,4,2,1,60,0,0
45749,-100,4,2,1,80,0,0
67818,-133.333333333333,4,2,1,60,0,0
72818,-133.333333333333,4,2,1,50,0,0
72991,-200,4,2,1,50,0,0
73336,-83.3333333333333,4,2,1,90,0,1
94025,-200,4,2,1,90,0,0
95405,-200,4,2,1,50,0,0
98163,-200,4,2,1,40,0,0
120232,-100,4,2,1,70,0,0
133508,-100,4,2,11,70,0,0
134025,-100,4,2,1,70,0,0
137646,-100,4,2,11,70,0,0
138163,-100,4,2,1,70,0,0
140491,-100,4,2,11,70,0,0
140922,-100,4,2,1,70,0,0
142129,-100,4,2,11,70,0,0
142301,-100,4,2,1,60,0,0
151956,-133.333333333333,4,2,1,60,0,0
163680,-83.3333333333333,4,2,1,60,0,0
164370,-133.333333333333,4,2,1,60,0,0
165749,-100,4,2,1,60,0,0
167129,-80,4,2,1,65,0,0
168508,-66.6666666666667,4,2,1,65,0,0
169887,-57.1428571428571,4,2,1,70,0,0
171267,-50,4,2,1,70,0,0
172646,-83.3333333333333,4,2,1,50,0,0
174715,-83.3333333333333,4,2,11,50,0,0
174887,-83.3333333333333,4,2,11,60,0,0
175060,-83.3333333333333,4,2,11,70,0,0
175232,-83.3333333333333,4,2,11,80,0,0
175405,-100,4,2,1,90,0,1
197474,-133.333333333333,4,2,1,50,0,0
202646,-200,4,2,1,50,0,0
202991,-83.3333333333333,4,2,1,90,0,0
205749,-83.3333333333333,4,2,1,90,0,1
223680,-83.3333333333333,4,2,1,90,0,0
225060,-83.3333333333333,4,2,1,95,0,1
245749,-133.333333333333,4,2,1,70,0,0

[Colours]
Combo1 : 157,55,87
Combo2 : 200,60,53
Combo3 : 66,255,255

[HitObjects]
32,32,1612,6,0,L|32:128,1,80,2|8,0:0|0:0,0:0:0:0:
112,32,2129,1,0,3:0:0:0:
112,32,2215,1,0,3:0:0:0:
112,32,2301,2,0,L|112:112,1,80,2|8,0:0|0:0,0:0:0:0:
112,192,2818,1,0,3:0:0:0:
112,192,2905,1,0,3:0:0:0:
112,192,2991,6,0,L|112:240,1,40,2|2,0:0|0:0,0:0:0:0:
192,192,3336,2,0,L|192:240,1,40,8|0,0:0|3:0,0:0:0:0:
192,352,3680,2,0,L|192:304,1,40,2|2,0:0|0:0,0:0:0:0:
272,352,4025,2,0,L|272:304,1,40,8|0,0:0|3:0,0:0:0:0:
352,352,4370,6,0,L|352:256,1,80,2|8,0:0|0:0,0:0:0:0:
352,192,4887,1,0,3:0:0:0:
432,192,5060,6,0,L|432:96,1,80,2|8,0:0|0:0,0:0:0:0:
512,112,5577,1,0,3:0:0:0:
512,192,5749,2,0,L|512:272,1,80,2|8,0:0|1:2,0:0:0:0:
512,352,6267,1,0,1:0:0:0:
352,352,6612,1,0,1:0:0:0:
352,352,6784,1,8,1:2:0:0:
352,352,6956,1,0,1:0:0:0:
352,352,7129,6,0,L|352:256,1,80,2|8,0:0|1:2,0:0:0:0:
352,192,7646,1,0,1:0:0:0:
112,192,8163,1,8,1:2:0:0:
112,192,8336,1,0,1:0:0:0:
112,192,8508,6,0,L|112:272,1,80,2|8,0:0|1:2,0:0:0:0:
112,352,9025,1,0,1:0:0:0:
256,160,9543,1,8,1:2:0:0:
256,160,9715,1,0,1:0:0:0:
256,160,9887,2,0,L|256:64,1,80,2|8,0:0|1:2,0:0:0:0:
256,0,10405,1,0,1:0:0:0:
256,240,10922,1,8,1:2:0:0:
256,240,11094,1,0,1:0:0:0:
256,240,11267,5,2,0:1:0:0:
336,384,11612,1,10,0:1:0:0:
176,384,11956,1,2,0:1:0:0:
256,240,12301,2,0,L|256:48,1,180.000006866455,4|0,0:0|0:0,0:0:0:0:
256,32,12646,5,6,0:0:0:0:
176,32,12818,1,2,0:0:0:0:
96,32,12991,1,8,0:0:0:0:
16,32,13163,2,0,L|16:80,4,40,0|0|2|0|2,3:0|3:0|3:2|3:0|3:2,0:0:0:0:
16,192,13680,1,8,0:0:0:0:
96,192,13853,1,0,3:0:0:0:
96,192,13939,1,0,3:0:0:0:
96,192,14025,6,0,L|96:288,1,80,2|2,0:0|0:0,0:0:0:0:
176,272,14370,2,0,L|176:192,1,80,8|0,0:0|3:0,0:0:0:0:
216,192,14629,1,0,3:0:0:0:
256,192,14715,2,0,L|256:144,4,40,2|0|2|0|8,3:2|3:0|3:2|0:0|0:0,0:0:0:0:
336,192,15232,1,0,3:0:0:0:
416,192,15405,5,2,0:0:0:0:
416,272,15577,1,2,0:0:0:0:
416,352,15749,1,8,0:0:0:0:
336,352,15922,2,0,L|336:312,4,40,0|0|2|0|2,3:0|3:0|3:2|3:0|3:2,0:0:0:0:
256,352,16439,1,8,0:0:0:0:
176,352,16612,1,0,3:0:0:0:
176,352,16698,1,0,3:0:0:0:
176,352,16784,6,0,L|176:256,1,80,2|2,0:0|0:0,0:0:0:0:
96,272,17129,2,0,L|96:352,1,80,8|0,0:0|3:0,0:0:0:0:
56,352,17387,1,0,3:0:0:0:
16,352,17474,2,0,L|16:304,4,40,2|0|2|0|8,3:2|3:0|3:2|0:0|0:0,0:0:0:0:
16,240,17991,1,0,3:0:0:0:
16,160,18163,5,2,0:0:0:0:
96,160,18336,1,2,0:0:0:0:
176,160,18508,1,8,0:0:0:0:
256,160,18680,2,0,L|256:112,4,40,0|0|2|0|2,3:0|3:0|3:2|3:0|3:2,0:0:0:0:
256,240,19198,1,8,0:0:0:0:
336,240,19370,1,0,3:0:0:0:
336,240,19456,1,0,3:0:0:0:
336,240,19543,6,0,L|336:320,1,80,2|2,0:0|0:0,0:0:0:0:
416,320,19887,2,0,L|416:240,1,80,8|0,0:0|3:0,0:0:0:0:
456,240,20146,1,0,3:0:0:0:
496,240,20232,2,0,L|496:192,4,40,2|0|2|0|8,3:2|3:0|3:2|0:0|0:0,0:0:0:0:
496,320,20749,1,0,3:0:0:0:
416,320,20922,5,2,0:0:0:0:
336,320,21094,1,2,0:0:0:0:
256,320,21267,1,8,0:0:0:0:
176,320,21439,2,0,L|176:272,4,40,0|0|2|0|2,3:0|3:0|3:2|3:0|3:2,0:0:0:0:
96,320,21956,1,8,0:0:0:0:
96,240,22129,1,0,3:0:0:0:
96,240,22215,1,0,3:0:0:0:
96,240,22301,5,2,0:0:0:0:
96,160,22474,2,0,L|96:112,1,40,0|0,3:0|3:0,0:0:0:0:
96,80,22646,2,0,L|96:32,1,40,8|0,3:2|0:0,0:0:0:0:
96,0,22818,1,0,3:0:0:0:
176,0,22991,2,0,L|176:40,2,40,0|0|2,3:0|3:0|3:2,0:0:0:0:
256,0,23336,2,0,L|256:40,2,40,8|2|0,3:2|3:2|3:0,0:0:0:0:
336,0,23680,5,2,0:0:0:0:
336,80,23853,1,8,0:0:0:0:
336,112,23939,1,8,0:0:0:0:
336,144,24025,1,8,0:0:0:0:
336,224,24198,1,2,0:0:0:0:
336,224,24543,6,0,L|336:304,1,80,0|0,0:0|0:0,0:0:0:0:
256,80,25060,5,2,0:0:0:0:
256,160,25232,1,8,0:0:0:0:
256,192,25318,1,8,0:0:0:0:
256,224,25405,1,8,0:0:0:0:
256,304,25577,2,0,L|256:384,1,80,2|0,0:0|0:0,0:0:0:0:
176,304,25922,2,0,L|176:384,2,80,2|2|2,0:0|0:0|0:0,0:0:0:0:
96,304,26439,5,2,0:0:0:0:
96,224,26612,1,8,0:0:0:0:
96,192,26698,1,8,0:0:0:0:
96,160,26784,1,8,0:0:0:0:
96,80,26956,1,2,0:0:0:0:
96,80,27301,6,0,L|96:16,2,40,8|0|0,0:3|0:0|0:0,0:0:0:0:
16,80,27646,1,0,0:0:0:0:
16,160,27818,6,0,L|16:256,1,80,8|2,0:0|0:0,0:0:0:0:
96,160,28163,2,0,L|96:256,1,80,8|2,0:0|0:0,0:0:0:0:
176,160,28508,2,0,L|176:256,1,80,8|2,0:0|0:0,0:0:0:0:
256,160,28853,2,0,L|256:256,1,80,12|0,3:0|0:0,0:0:0:0:
256,240,29198,5,2,0:0:0:0:
336,240,29370,1,8,0:0:0:0:
368,240,29456,1,8,0:0:0:0:
400,240,29543,1,8,0:0:0:0:
480,240,29715,1,2,0:0:0:0:
480,240,30060,6,0,L|480:192,2,40,2|2|2,0:0|0:0|0:0,0:0:0:0:
256,160,30577,5,2,0:0:0:0:
336,160,30749,1,8,0:0:0:0:
368,160,30836,1,8,0:0:0:0:
400,160,30922,1,8,0:0:0:0:
480,160,31094,1,2,0:0:0:0:
480,80,31267,2,0,L|480:32,6,40,2|2|2|2|2|2|2,0:0|0:0|0:0|0:0|0:0|0:0|0:0,0:0:0:0:
400,80,31956,5,2,0:0:0:0:
320,80,32129,1,8,0:0:0:0:
288,80,32215,1,8,0:0:0:0:
256,80,32301,1,8,0:0:0:0:
176,80,32474,1,2,0:0:0:0:
16,80,32905,5,2,0:0:0:0:
16,80,32991,1,2,0:0:0:0:
16,160,33163,1,2,0:0:0:0:
16,240,33336,6,0,L|16:336,1,80,8|2,0:0|0:0,0:0:0:0:
96,160,33680,2,0,L|96:256,1,80,8|2,0:0|0:0,0:0:0:0:
176,80,34025,2,0,L|176:176,1,80,8|2,0:0|0:0,0:0:0:0:
256,0,34370,2,0,L|256:96,1,80,12|2,0:0|0:0,0:0:0:0:
336,80,34715,6,0,L|336:160,1,80,2|0,0:0|3:0,0:0:0:0:
416,80,35060,2,0,L|416:32,2,40,8|0|2,0:0|0:0|0:0,0:0:0:0:
496,80,35405,2,0,L|496:32,2,40,2|0|2,0:3|0:0|0:0,0:0:0:0:
496,160,35749,1,8,0:0:0:0:
496,192,35836,1,0,0:0:0:0:
496,224,35922,1,0,3:0:0:0:
496,256,36008,1,0,0:0:0:0:
496,288,36094,6,0,L|496:336,2,40,2|0|0,0:0|0:0|3:0,0:0:0:0:
416,288,36439,2,0,L|416:336,2,40,8|0|2,0:0|0:0|0:0,0:0:0:0:
336,288,36784,2,0,L|336:336,2,40,2|0|2,0:3|0:0|0:0,0:0:0:0:
256,288,37129,1,8,0:0:0:0:
256,288,37301,1,0,0:0:0:0:
256,208,37474,5,2,0:0:0:0:
256,208,37560,1,0,0:0:0:0:
256,208,37646,1,2,0:3:0:0:
176,208,37818,2,0,L|176:168,2,40,8|0|2,0:0|0:0|0:0,0:0:0:0:
96,208,38163,1,0,3:0:0:0:
96,208,38249,1,0,0:0:0:0:
96,208,38336,1,2,0:0:0:0:
16,208,38508,2,0,L|16:168,2,40,8|0|0,0:0|0:0|3:0,0:0:0:0:
96,208,38853,5,2,0:0:0:0:
96,128,39025,2,0,L|96:48,2,80,2|8|2,0:3|0:0|0:0,0:0:0:0:
176,128,39543,2,0,L|176:32,1,80,2|2,0:3|0:0,0:0:0:0:
256,48,39887,2,0,L|256:128,1,80,8|2,0:0|0:0,0:0:0:0:
256,208,40232,5,2,0:0:0:0:
256,288,40405,1,2,0:3:0:0:
256,320,40491,1,2,0:0:0:0:
256,352,40577,1,8,0:0:0:0:
336,352,40749,1,2,0:0:0:0:
336,352,40836,2,0,L|336:272,1,80,0|0,0:0|0:0,0:0:0:0:
376,272,41094,1,2,0:0:0:0:
416,272,41180,2,0,L|416:224,3,40,0|8|0|0,0:0|0:0|0:0|3:0,0:0:0:0:
496,272,41612,6,0,L|496:224,2,40,2|0|2,0:0|0:0|0:3,0:0:0:0:
496,160,41956,2,0,L|496:120,2,40,8|0|2,0:0|0:0|0:0,0:0:0:0:
416,160,42301,2,0,L|416:80,1,80,2|2,0:3|0:0,0:0:0:0:
336,160,42646,2,0,L|336:80,1,80,8|2,0:0|0:0,0:0:0:0:
256,160,42991,5,2,0:0:0:0:
224,160,43077,1,0,0:0:0:0:
192,160,43163,1,2,0:3:0:0:
192,80,43336,1,8,0:0:0:0:
192,0,43508,1,2,0:0:0:0:
272,0,43680,1,2,0:3:0:0:
304,0,43767,1,0,0:0:0:0:
336,0,43853,1,2,0:0:0:0:
336,80,44025,1,8,0:0:0:0:
336,112,44112,1,0,0:0:0:0:
336,144,44198,1,0,3:0:0:0:
416,144,44370,5,2,0:3:0:0:
416,144,44715,2,0,L|416:16,2,120.000004577637,2|2|2,0:1|0:1|0:1,0:0:0:0:
416,352,45749,6,0,L|416:208,1,120,6|0,0:0|0:0,0:0:0:0:
416,208,46094,2,0,L|416:112,1,80,8|0,0:0|3:0,0:0:0:0:
336,128,46439,6,0,L|336:272,1,120,2|0,0:0|0:0,0:0:0:0:
336,272,46784,2,0,L|336:368,1,80,8|0,0:0|3:0,0:0:0:0:
256,352,47129,6,0,L|256:208,1,120,2|0,0:0|0:0,0:0:0:0:
256,208,47474,2,0,L|256:112,1,80,8|0,0:0|3:0,0:0:0:0:
176,128,47818,6,0,L|176:208,1,80,2|0,0:0|3:0,0:0:0:0:
136,208,48077,1,0,3:0:0:0:
96,208,48163,2,0,L|96:128,1,80,8|0,0:0|3:0,0:0:0:0:
96,48,48508,5,2,0:0:0:0:
176,48,48680,1,0,3:0:0:0:
256,48,48853,1,8,0:0:0:0:
336,48,49025,1,0,3:0:0:0:
336,48,49112,1,0,3:0:0:0:
336,48,49198,6,0,L|336:176,1,120,2|0,0:0|0:0,0:0:0:0:
336,192,49543,2,0,L|336:288,1,80,8|0,0:0|3:0,0:0:0:0:
416,272,49887,6,0,L|416:144,1,120,2|0,0:0|0:0,0:0:0:0:
416,128,50232,2,0,L|416:32,1,80,8|0,0:0|3:0,0:0:0:0:
496,48,50577,2,0,L|496:128,1,80,2|0,0:0|3:0,0:0:0:0:
496,168,50836,1,0,3:0:0:0:
496,208,50922,2,0,L|496:288,1,80,8|0,0:0|3:0,0:0:0:0:
496,368,51267,5,6,0:0:0:0:
416,368,51439,2,0,L|416:272,1,80,0|8,3:0|0:0,0:0:0:0:
416,208,51784,1,0,3:0:0:0:
336,208,51956,2,0,L|336:288,1,80,2|0,0:0|3:0,0:0:0:0:
256,288,52301,2,0,L|256:368,1,80,8|0,0:0|3:0,0:0:0:0:
176,368,52646,5,2,0:0:0:0:
176,208,52991,1,8,0:0:0:0:
96,208,53163,1,0,3:0:0:0:
96,208,53249,1,0,3:0:0:0:
96,208,53336,1,2,0:0:0:0:
16,208,53508,1,0,3:0:0:0:
16,128,53680,2,0,L|16:48,1,80,8|0,0:0|3:0,0:0:0:0:
96,48,54025,5,2,0:0:0:0:
176,48,54198,1,0,3:0:0:0:
208,48,54284,1,0,0:0:0:0:
240,48,54370,1,8,0:0:0:0:
320,48,54543,1,0,3:0:0:0:
400,48,54715,2,0,L|400:160,1,80,2|0,0:0|3:0,0:0:0:0:
400,208,55060,2,0,L|400:320,1,80,8|0,0:0|3:0,0:0:0:0:
400,368,55405,5,2,0:0:0:0:
320,368,55577,1,0,3:0:0:0:
240,368,55749,2,0,L|240:256,1,80,8|0,0:0|3:0,0:0:0:0:
160,288,56094,1,2,0:0:0:0:
160,208,56267,1,8,0:0:0:0:
80,208,56439,1,2,0:0:0:0:
80,288,56612,1,8,0:0:0:0:
0,288,56784,6,0,L|0:160,1,120,6|0,0:0|0:0,0:0:0:0:
0,144,57129,2,0,L|0:64,1,80,8|0,0:0|3:0,0:0:0:0:
80,64,57474,6,0,L|80:192,1,120,2|0,0:0|0:0,0:0:0:0:
80,208,57818,2,0,L|80:288,1,80,8|0,0:0|3:0,0:0:0:0:
160,288,58163,6,0,L|160:160,1,120,2|0,0:0|0:0,0:0:0:0:
160,144,58508,2,0,L|160:64,1,80,8|0,0:0|3:0,0:0:0:0:
240,64,58853,2,0,L|240:144,1,80,2|0,0:0|3:0,0:0:0:0:
280,144,59112,1,0,3:0:0:0:
320,144,59198,2,0,L|320:64,1,80,8|0,0:0|3:0,0:0:0:0:
400,64,59543,5,2,0:0:0:0:
480,64,59715,1,0,3:0:0:0:
480,144,59887,1,8,0:0:0:0:
400,160,60060,1,0,3:0:0:0:
400,160,60146,1,0,3:0:0:0:
400,160,60232,6,0,L|400:288,1,120,2|0,0:0|0:0,0:0:0:0:
400,304,60577,2,0,L|400:384,1,80,8|0,0:0|3:0,0:0:0:0:
320,384,60922,6,0,L|320:256,1,120,2|0,0:0|0:0,0:0:0:0:
320,240,61267,2,0,L|320:160,1,80,8|0,0:0|3:0,0:0:0:0:
240,160,61612,6,0,L|240:256,1,80,2|0,0:0|3:0,0:0:0:0:
200,240,61870,1,0,3:0:0:0:
160,240,61956,2,0,L|160:160,1,80,8|0,0:0|3:0,0:0:0:0:
160,120,62215,1,0,0:0:0:0:
160,80,62301,5,2,0:0:0:0:
80,80,62474,2,0,L|80:160,1,80,0|8,3:0|0:0,0:0:0:0:
80,240,62818,1,0,3:0:0:0:
0,240,62991,2,0,L|0:320,1,80,2|0,0:0|3:0,0:0:0:0:
80,320,63336,2,0,L|80:240,1,80,8|0,0:0|3:0,0:0:0:0:
160,240,63680,5,2,0:0:0:0:
320,240,64025,1,8,0:0:0:0:
480,240,64370,1,2,0:0:0:0:
400,240,64543,1,0,3:0:0:0:
320,240,64715,6,0,L|320:80,1,160,8|2,0:0|0:0,0:0:0:0:
320,0,65232,1,0,3:0:0:0:
288,0,65318,1,0,0:0:0:0:
256,0,65405,1,8,0:0:0:0:
176,0,65577,1,0,3:0:0:0:
176,80,65749,2,0,L|176:176,1,80,2|0,0:0|3:0,0:0:0:0:
176,240,66094,2,0,L|176:320,1,80,8|0,0:0|3:0,0:0:0:0:
256,320,66439,5,2,0:0:0:0:
336,320,66612,2,0,L|336:128,1,160,0|0,3:0|3:0,0:0:0:0:
256,160,67129,1,2,0:0:0:0:
176,160,67301,2,0,L|176:320,1,160,8|2,0:0|0:0,0:0:0:0:
176,320,67818,6,0,L|176:384,1,60.0000022888184,8|2,0:0|0:0,0:0:0:0:
256,320,68163,2,0,L|256:384,1,60.0000022888184,8|2,0:0|0:0,0:0:0:0:
336,320,68508,2,0,L|336:384,1,60.0000022888184,8|2,0:0|0:0,0:0:0:0:
416,320,68853,2,0,L|416:384,1,60.0000022888184,8|2,0:0|0:0,0:0:0:0:
416,240,69198,6,0,L|416:160,1,60.0000022888184,8|2,0:0|0:0,0:0:0:0:
336,240,69543,2,0,L|336:160,1,60.0000022888184,8|2,0:0|0:0,0:0:0:0:
256,240,69887,2,0,L|256:160,1,60.0000022888184,8|2,0:0|0:0,0:0:0:0:
176,240,70232,2,0,L|176:160,1,60.0000022888184,8|2,0:0|0:0,0:0:0:0:
176,96,70577,6,0,L|176:16,1,60.0000022888184,8|2,0:0|0:0,0:0:0:0:
256,96,70922,2,0,L|256:16,1,60.0000022888184,8|2,0:0|0:0,0:0:0:0:
336,96,71267,2,0,L|336:16,1,60.0000022888184,8|2,0:0|0:0,0:0:0:0:
416,96,71612,2,0,L|416:16,1,60.0000022888184,8|2,0:0|0:0,0:0:0:0:
496,96,71956,6,0,L|496:176,1,60.0000022888184,8|2,0:0|0:0,0:0:0:0:
496,240,72301,2,0,L|496:320,1,60.0000022888184,8|2,0:0|0:0,0:0:0:0:
496,384,72646,1,8,0:0:0:0:
416,384,72818,1,2,0:0:0:0:
416,384,72905,1,2,0:0:0:0:
416,384,72991,2,0,L|416:320,1,60,2|0,0:0|0:0,0:0:0:0:
416,288,73336,5,6,0:0:0:0:
336,288,73508,1,2,0:0:0:0:
336,208,73680,2,0,L|336:112,1,95.9999970703126,8|0,0:0|3:0,0:0:0:0:
256,112,74025,2,0,L|256:208,1,95.9999970703126,2|2,0:0|0:0,0:0:0:0:
256,288,74370,2,0,L|256:384,1,95.9999970703126,8|0,0:0|3:0,0:0:0:0:
176,384,74715,5,2,0:0:0:0:
96,384,74887,1,2,0:0:0:0:
96,304,75060,1,8,0:0:0:0:
16,304,75232,1,0,3:0:0:0:
16,224,75405,2,0,L|16:128,1,95.9999970703126,2|2,0:0|0:0,0:0:0:0:
96,128,75749,2,0,L|96:32,1,95.9999970703126,8|0,0:0|3:0,0:0:0:0:
96,0,76008,1,0,3:0:0:0:
96,0,76094,5,2,0:0:0:0:
176,0,76267,1,2,0:0:0:0:
208,0,76353,1,0,0:0:0:0:
240,0,76439,1,8,0:0:0:0:
320,0,76612,1,0,3:0:0:0:
320,80,76784,2,0,L|320:192,1,95.9999970703126,2|2,0:0|0:0,0:0:0:0:
240,176,77129,2,0,L|240:80,1,95.9999970703126,8|0,0:0|3:0,0:0:0:0:
320,80,77474,5,2,0:0:0:0:
400,80,77646,1,2,0:0:0:0:
400,0,77818,1,8,0:0:0:0:
480,0,77991,1,0,3:0:0:0:
480,80,78163,2,0,L|480:192,1,95.9999970703126,2|2,0:0|0:0,0:0:0:0:
480,256,78508,2,0,L|480:368,1,95.9999970703126,8|0,0:0|3:0,0:0:0:0:
400,352,78853,5,6,0:0:0:0:
320,352,79025,1,2,0:0:0:0:
320,352,79112,1,0,0:0:0:0:
320,352,79198,2,0,L|320:256,1,95.9999970703126,8|0,0:0|3:0,0:0:0:0:
240,256,79543,2,0,L|240:352,1,95.9999970703126,2|2,0:0|0:0,0:0:0:0:
160,352,79887,2,0,L|160:256,1,95.9999970703126,8|0,0:0|3:0,0:0:0:0:
160,176,80232,5,2,0:0:0:0:
80,176,80405,1,2,0:0:0:0:
80,96,80577,1,8,0:0:0:0:
160,96,80749,1,0,3:0:0:0:
240,96,80922,2,0,L|240:208,1,95.9999970703126,2|2,0:0|0:0,0:0:0:0:
320,192,81267,2,0,L|320:96,1,95.9999970703126,8|0,0:0|3:0,0:0:0:0:
320,64,81525,1,0,3:0:0:0:
320,64,81612,5,2,0:0:0:0:
400,64,81784,1,2,0:0:0:0:
432,64,81870,1,0,0:0:0:0:
464,64,81956,1,8,0:0:0:0:
464,144,82129,1,0,3:0:0:0:
464,224,82301,2,0,L|464:336,1,95.9999970703126,2|2,0:0|0:0,0:0:0:0:
384,320,82646,2,0,L|384:224,1,95.9999970703126,8|0,0:0|3:0,0:0:0:0:
384,144,82991,5,2,0:0:0:0:
304,144,83163,1,0,0:0:0:0:
304,224,83336,1,8,0:0:0:0:
224,224,83508,1,0,0:0:0:0:
224,304,83680,2,0,L|224:352,2,47.9999985351563,0|8|2,3:0|0:0|0:0,0:0:0:0:
144,304,84025,2,0,L|144:352,3,47.9999985351563,8|0|0|0,0:0|1:0|1:0|1:0,0:0:0:0:
144,224,84370,5,6,0:0:0:0:
64,224,84543,1,2,0:0:0:0:
64,144,84715,2,0,L|64:48,1,95.9999970703126,8|0,0:0|3:0,0:0:0:0:
144,48,85060,2,0,L|144:144,1,95.9999970703126,2|2,0:0|0:0,0:0:0:0:
144,224,85405,2,0,L|144:320,1,95.9999970703126,8|0,0:0|3:0,0:0:0:0:
224,320,85749,5,2,0:0:0:0:
304,320,85922,1,2,0:0:0:0:
304,240,86094,1,8,0:0:0:0:
384,240,86267,1,0,3:0:0:0:
464,240,86439,2,0,L|464:128,1,95.9999970703126,2|2,0:0|0:0,0:0:0:0:
384,144,86784,2,0,L|384:240,1,95.9999970703126,8|0,0:0|3:0,0:0:0:0:
384,272,87043,1,0,3:0:0:0:
384,272,87129,5,2,0:0:0:0:
384,352,87301,1,2,0:0:0:0:
352,352,87387,1,0,0:0:0:0:
320,352,87474,1,8,0:0:0:0:
240,352,87646,1,0,3:0:0:0:
240,272,87818,2,0,L|240:160,1,95.9999970703126,2|2,0:0|0:0,0:0:0:0:
160,176,88163,2,0,L|160:64,1,95.9999970703126,8|0,0:0|3:0,0:0:0:0:
240,80,88508,5,2,0:0:0:0:
320,80,88680,1,2,0:0:0:0:
320,0,88853,1,8,0:0:0:0:
400,0,89025,1,0,3:0:0:0:
400,80,89198,2,0,L|400:176,1,95.9999970703126,2|2,0:0|0:0,0:0:0:0:
480,176,89543,2,0,L|480:80,1,95.9999970703126,8|0,0:0|3:0,0:0:0:0:
400,80,89887,5,6,0:0:0:0:
320,80,90060,1,2,0:0:0:0:
320,160,90232,2,0,L|320:272,1,95.9999970703126,8|0,0:0|3:0,0:0:0:0:
240,256,90577,2,0,L|240:368,1,95.9999970703126,2|2,0:0|0:0,0:0:0:0:
160,352,90922,2,0,L|160:256,1,95.9999970703126,8|0,0:0|3:0,0:0:0:0:
160,176,91267,5,2,0:0:0:0:
80,176,91439,1,2,0:0:0:0:
80,256,91612,1,8,0:0:0:0:
160,256,91784,1,0,3:0:0:0:
240,256,91956,2,0,L|240:160,1,95.9999970703126,2|2,0:0|0:0,0:0:0:0:
320,160,92301,2,0,L|320:64,1,95.9999970703126,8|0,0:0|3:0,0:0:0:0:
320,32,92560,1,0,3:0:0:0:
320,32,92646,5,8,0:0:0:0:
400,32,92818,1,0,3:0:0:0:
400,112,92991,1,8,0:0:0:0:
480,112,93163,1,0,0:0:0:0:
480,192,93336,1,8,0:0:0:0:
400,192,93508,1,0,3:0:0:0:
400,272,93680,1,8,0:0:0:0:
320,272,93853,1,0,0:0:0:0:
240,272,94025,6,0,L|240:336,2,60,2|2|2,0:0|0:0|0:0,0:0:0:0:
160,272,94715,2,0,L|160:96,1,160,12|2,0:0|0:0,0:0:0:0:
160,32,95577,6,0,L|160:0,1,20,2|2,0:0|0:0,0:0:0:0:
240,32,95836,2,0,L|240:0,1,20,2|2,0:0|0:0,0:0:0:0:
320,32,96094,2,0,L|320:0,1,20,2|2,0:0|0:0,0:0:0:0:
400,32,96353,1,2,0:0:0:0:
400,32,96439,2,0,L|400:80,1,40,2|2,0:0|0:0,0:0:0:0:
480,32,96784,6,0,L|480:64,3,20,2|2|2|2,0:0|0:0|0:0|0:0,0:0:0:0:
480,128,97215,2,0,L|480:160,1,20,2|2,0:0|0:0,0:0:0:0:
480,224,97474,2,0,L|480:256,1,20,2|2,0:0|0:0,0:0:0:0:
480,320,97732,1,2,0:0:0:0:
480,320,97818,2,0,L|480:368,1,40,2|2,0:0|0:0,0:0:0:0:
400,320,98163,5,0,3:0:0:0:
256,32,120232,5,6,0:0:0:0:
336,32,120405,1,2,0:0:0:0:
416,32,120577,1,8,0:0:0:0:
496,32,120749,2,0,L|496:96,4,40,0|0|2|0|2,3:0|3:0|3:2|3:0|3:2,0:0:0:0:
496,192,121267,1,8,0:0:0:0:
416,192,121439,1,0,3:0:0:0:
416,192,121525,1,0,3:0:0:0:
416,192,121612,6,0,L|416:288,1,80,2|2,0:0|0:0,0:0:0:0:
336,272,121956,2,0,L|336:192,1,80,8|0,0:0|3:0,0:0:0:0:
296,192,122215,1,0,3:0:0:0:
256,192,122301,2,0,L|256:144,4,40,2|0|2|0|8,3:2|3:0|3:2|0:0|0:0,0:0:0:0:
176,192,122818,1,0,3:0:0:0:
96,192,122991,5,2,0:0:0:0:
96,272,123163,1,2,0:0:0:0:
96,352,123336,1,8,0:0:0:0:
176,352,123508,2,0,L|176:312,4,40,0|0|2|0|2,3:0|3:0|3:2|3:0|3:2,0:0:0:0:
256,352,124025,1,8,0:0:0:0:
336,352,124198,1,0,3:0:0:0:
336,352,124284,1,0,3:0:0:0:
336,352,124370,6,0,L|336:256,1,80,2|2,0:0|0:0,0:0:0:0:
416,272,124715,2,0,L|416:352,1,80,8|0,0:0|3:0,0:0:0:0:
456,352,124974,1,0,3:0:0:0:
496,352,125060,2,0,L|496:304,4,40,2|0|2|0|8,3:2|3:0|3:2|0:0|0:0,0:0:0:0:
496,240,125577,1,0,3:0:0:0:
496,160,125749,5,2,0:0:0:0:
416,160,125922,1,2,0:0:0:0:
336,160,126094,1,8,0:0:0:0:
256,160,126267,2,0,L|256:112,4,40,0|0|2|0|2,3:0|3:0|3:2|3:0|3:2,0:0:0:0:
256,240,126784,1,8,0:0:0:0:
176,240,126956,1,0,3:0:0:0:
176,240,127043,1,0,3:0:0:0:
176,240,127129,6,0,L|176:320,1,80,2|2,0:0|0:0,0:0:0:0:
96,320,127474,2,0,L|96:240,1,80,8|0,0:0|3:0,0:0:0:0:
56,240,127732,1,0,3:0:0:0:
16,240,127818,2,0,L|16:192,4,40,2|0|2|0|8,3:2|3:0|3:2|0:0|0:0,0:0:0:0:
16,320,128336,1,0,3:0:0:0:
96,320,128508,5,2,0:0:0:0:
176,320,128680,1,2,0:0:0:0:
256,320,128853,1,8,0:0:0:0:
336,320,129025,2,0,L|336:272,4,40,0|0|2|0|2,3:0|3:0|3:2|3:0|3:2,0:0:0:0:
416,320,129543,1,8,0:0:0:0:
416,240,129715,1,0,3:0:0:0:
416,240,129801,1,0,3:0:0:0:
416,240,129887,5,2,0:0:0:0:
416,160,130060,2,0,L|416:112,1,40,0|0,3:0|3:0,0:0:0:0:
416,80,130232,2,0,L|416:32,1,40,8|2,3:2|0:0,0:0:0:0:
416,0,130405,1,0,3:0:0:0:
336,0,130577,2,0,L|336:40,2,40,0|0|2,3:0|3:0|3:2,0:0:0:0:
256,0,130922,2,0,L|256:40,2,40,8|2|0,3:2|3:2|3:0,0:0:0:0:
176,0,131267,5,2,0:0:0:0:
176,80,131439,1,8,0:0:0:0:
176,112,131525,1,8,0:0:0:0:
176,144,131612,1,8,0:0:0:0:
176,224,131784,1,2,0:0:0:0:
176,224,132129,6,0,L|176:320,2,80,0|0|0,1:0|1:0|1:0,0:0:0:0:
256,80,132646,5,2,0:0:0:0:
256,160,132818,1,8,0:0:0:0:
256,192,132905,1,8,0:0:0:0:
256,224,132991,1,8,0:0:0:0:
256,304,133163,2,0,L|256:384,1,80,2|0,0:0|0:0,0:0:0:0:
336,384,133508,2,0,L|336:328,4,40,2|2|2|2|2,0:0|0:0|0:0|0:0|0:0,0:0:0:0:
416,384,134025,5,2,0:0:0:0:
416,304,134198,1,8,0:0:0:0:
416,272,134284,1,8,0:0:0:0:
416,240,134370,1,8,0:0:0:0:
416,160,134543,1,2,0:0:0:0:
416,160,134887,6,0,L|416:96,2,40,8|0|0,0:3|0:0|0:0,0:0:0:0:
496,160,135232,1,0,0:0:0:0:
496,240,135405,6,0,L|496:336,1,80,8|2,0:0|0:0,0:0:0:0:
416,240,135749,2,0,L|416:336,1,80,8|2,0:0|0:0,0:0:0:0:
336,240,136094,2,0,L|336:336,1,80,8|2,0:0|0:0,0:0:0:0:
256,240,136439,2,0,L|256:336,1,80,12|0,0:0|0:0,0:0:0:0:
256,320,136784,5,2,0:0:0:0:
176,320,136956,1,8,0:0:0:0:
144,320,137043,1,8,0:0:0:0:
112,320,137129,1,8,0:0:0:0:
32,320,137301,1,2,0:0:0:0:
32,320,137646,6,0,L|32:272,2,40,2|2|2,0:0|0:0|0:0,0:0:0:0:
256,240,138163,5,2,0:0:0:0:
176,240,138336,1,8,0:0:0:0:
144,240,138422,1,8,0:0:0:0:
112,240,138508,1,8,0:0:0:0:
32,240,138680,1,2,0:0:0:0:
32,80,139025,5,0,1:0:0:0:
32,80,139198,1,4,1:2:0:0:
192,80,139543,5,2,0:0:0:0:
272,80,139715,1,8,0:0:0:0:
304,80,139801,1,8,0:0:0:0:
336,80,139887,1,8,0:0:0:0:
416,80,140060,1,2,0:0:0:0:
416,256,140491,5,2,0:0:0:0:
416,256,140577,1,2,0:0:0:0:
416,336,140749,1,2,0:0:0:0:
336,336,140922,6,0,L|336:256,1,80,8|2,0:0|0:0,0:0:0:0:
256,256,141267,2,0,L|256:176,1,80,8|2,0:0|0:0,0:0:0:0:
176,176,141612,2,0,L|176:96,1,80,8|2,0:0|0:0,0:0:0:0:
96,96,141956,2,0,L|96:16,1,80,12|2,0:0|0:0,0:0:0:0:
96,176,142301,6,0,L|96:256,1,80,2|0,0:0|3:0,0:0:0:0:
96,288,142560,1,2,0:0:0:0:
96,320,142646,1,8,0:0:0:0:
176,320,142818,2,0,L|176:368,2,40,2|0|2,0:0|0:0|0:3,0:0:0:0:
256,320,143163,1,2,0:0:0:0:
288,320,143249,1,0,0:0:0:0:
320,320,143336,1,8,0:0:0:0:
352,320,143422,1,0,0:0:0:0:
384,320,143508,1,0,3:0:0:0:
416,320,143594,1,0,0:0:0:0:
448,320,143680,6,0,L|448:224,1,80,2|0,0:0|3:0,0:0:0:0:
448,208,143939,1,2,0:0:0:0:
448,176,144025,2,0,L|448:80,1,80,8|2,0:0|0:0,0:0:0:0:
368,96,144370,2,0,L|368:48,2,40,2|0|2,0:3|0:0|0:0,0:0:0:0:
288,96,144715,1,8,0:0:0:0:
288,96,144887,1,0,0:0:0:0:
208,96,145060,6,0,L|208:192,1,80,2|2,0:0|0:3,0:0:0:0:
208,208,145318,1,2,0:0:0:0:
208,240,145405,2,0,L|208:336,1,80,8|2,0:0|0:0,0:0:0:0:
128,320,145749,2,0,L|128:240,1,80,0|2,3:0|0:0,0:0:0:0:
128,160,146094,2,0,L|128:120,2,40,8|0|0,0:0|0:0|3:0,0:0:0:0:
48,160,146439,5,2,0:0:0:0:
48,80,146612,2,0,L|48:0,2,80,2|8|2,0:3|0:0|0:0,0:0:0:0:
48,160,147129,2,0,L|48:240,1,80,2|2,0:3|0:0,0:0:0:0:
48,272,147387,1,0,0:0:0:0:
48,304,147474,2,0,L|48:384,1,80,8|2,0:0|0:0,0:0:0:0:
128,384,147818,5,2,0:0:0:0:
208,384,147991,1,2,0:3:0:0:
208,352,148077,1,2,0:0:0:0:
208,320,148163,1,8,0:0:0:0:
208,240,148336,1,2,0:0:0:0:
208,240,148422,2,0,L|208:160,1,80,0|0,0:0|0:0,0:0:0:0:
248,160,148680,1,2,0:0:0:0:
288,160,148767,2,0,L|288:112,3,40,0|8|0|0,0:0|0:0|0:0|3:0,0:0:0:0:
368,160,149198,5,2,0:0:0:0:
368,160,149284,2,0,L|368:240,1,80,0|2,0:0|0:0,0:0:0:0:
368,272,149543,2,0,L|368:312,2,40,8|0|2,0:0|0:0|0:0,0:0:0:0:
448,272,149887,2,0,L|448:312,2,40,2|0|2,0:3|0:0|0:0,0:0:0:0:
448,192,150232,2,0,L|448:112,1,80,8|2,0:0|0:0,0:0:0:0:
368,112,150577,6,0,L|368:16,1,80,2|2,0:0|0:3,0:0:0:0:
328,32,150836,1,2,0:0:0:0:
288,32,150922,2,0,L|288:112,1,80,8|2,0:0|0:0,0:0:0:0:
208,112,151267,2,0,L|208:32,1,80,2|2,0:3|0:0,0:0:0:0:
128,32,151612,1,8,0:0:0:0:
128,64,151698,1,0,0:0:0:0:
128,96,151784,1,0,3:0:0:0:
128,176,151956,5,2,0:3:0:0:
128,176,152301,2,0,L|128:304,2,120.000004577637,2|2|2,0:1|0:1|0:1,0:0:0:0:
208,176,153336,6,0,L|208:272,3,90.0000034332277,8|8|8|8,0:0|0:0|0:0|0:0,0:0:0:0:
208,352,154370,1,12,0:0:0:0:
208,352,154715,6,0,L|208:262,3,90.0000034332277,8|8|8|8,0:0|0:0|0:0|0:0,0:0:0:0:
208,176,155749,1,12,0:0:0:0:
208,176,156094,6,0,L|208:288,3,90.0000034332277,8|8|8|8,0:0|0:0|0:0|0:0,0:0:0:0:
208,352,157129,1,12,0:0:0:0:
208,352,157474,5,2,0:0:0:0:
368,352,157732,1,2,0:0:0:0:
368,352,157818,1,8,0:0:0:0:
448,352,157991,1,2,0:0:0:0:
448,272,158163,1,2,0:0:0:0:
448,272,158249,1,2,0:0:0:0:
368,272,158422,1,2,0:0:0:0:
368,272,158508,1,8,0:0:0:0:
288,272,158680,1,0,0:0:0:0:
288,192,158853,6,0,L|288:80,3,90.0000034332277,8|8|8|8,0:0|0:0|0:0|0:0,0:0:0:0:
288,16,159887,1,12,0:0:0:0:
288,16,160232,6,0,L|288:128,3,90.0000034332277,8|8|8|8,0:0|0:0|0:0|0:0,0:0:0:0:
288,192,161267,1,12,0:0:0:0:
288,192,161612,2,0,L|288:96,3,90.0000034332277,8|8|8|8,0:0|0:0|0:0|0:0,0:0:0:0:
288,16,162646,1,12,0:0:0:0:
288,16,162991,5,2,0:0:0:0:
96,16,163249,1,2,0:0:0:0:
96,16,163336,1,8,0:0:0:0:
16,16,163508,1,2,0:0:0:0:
16,96,163680,2,2,L|16:384,1,287.999991210938,2|0,0:1|0:0,0:1:0:0:
96,384,164370,6,0,L|96:320,7,60.0000022888184,6|8|2|8|2|8|2|8,0:0|0:0|0:0|0:0|0:0|0:0|0:0|0:0,0:0:0:0:
176,384,165749,6,0,L|176:288,7,80,2|8|2|8|2|8|2|8,0:0|0:0|0:0|0:0|0:0|0:0|0:0|0:0,0:0:0:0:
256,384,167129,6,0,L|256:272,7,100,2|8|2|8|2|8|2|8,0:0|0:0|0:0|0:0|0:0|0:0|0:0|0:0,0:0:0:0:
336,384,168508,6,0,L|336:208,7,120.000004577637,2|8|2|8|2|8|2|8,0:0|0:0|0:0|0:0|0:0|0:0|3:2|3:2,0:0:0:0:
416,384,169887,6,0,L|416:240,7,140.000001335144,6|8|2|8|2|8|2|8,3:2|0:0|0:0|0:0|0:0|0:0|0:0|0:0,0:0:0:0:
496,384,171267,6,0,L|496:224,7,160,2|8|2|8|2|8|2|8,0:0|0:0|0:0|0:0|0:0|0:0|0:0|0:0,0:0:0:0:
496,144,172646,6,0,L|496:48,1,95.9999970703126,6|8,0:0|0:0,0:0:0:0:
416,144,172991,1,8,0:0:0:0:
416,144,173163,2,0,L|416:48,1,95.9999970703126,8|2,0:0|0:0,0:0:0:0:
336,144,173508,1,8,0:0:0:0:
256,144,173680,1,8,0:0:0:0:
176,144,173853,1,8,0:0:0:0:
96,144,174025,6,0,L|96:16,1,95.9999970703126,2|8,0:0|0:0,0:0:0:0:
16,144,174370,2,0,L|16:16,1,95.9999970703126,2|0,0:0|0:0,0:0:0:0:
16,224,174715,1,2,0:0:0:0:
16,256,174801,1,2,0:0:0:0:
16,288,174887,1,2,0:0:0:0:
16,320,174974,1,2,0:0:0:0:
16,352,175060,1,2,0:0:0:0:
48,352,175146,1,2,0:0:0:0:
80,352,175232,1,2,0:0:0:0:
112,352,175318,1,2,0:0:0:0:
144,352,175405,6,0,L|144:208,1,120,6|0,0:0|0:0,0:0:0:0:
144,208,175749,2,0,L|144:112,1,80,8|0,0:0|3:0,0:0:0:0:
224,128,176094,6,0,L|224:272,1,120,2|0,0:0|0:0,0:0:0:0:
224,272,176439,2,0,L|224:368,1,80,8|0,0:0|3:0,0:0:0:0:
304,352,176784,6,0,L|304:208,1,120,2|0,0:0|0:0,0:0:0:0:
304,208,177129,2,0,L|304:112,1,80,8|0,0:0|3:0,0:0:0:0:
384,128,177474,6,0,L|384:208,1,80,2|0,0:0|3:0,0:0:0:0:
424,208,177732,1,0,3:0:0:0:
464,208,177818,2,0,L|464:128,1,80,8|0,0:0|3:0,0:0:0:0:
464,48,178163,5,2,0:0:0:0:
384,48,178336,1,0,3:0:0:0:
304,48,178508,1,8,0:0:0:0:
224,48,178680,1,0,3:0:0:0:
224,48,178767,1,0,3:0:0:0:
224,48,178853,6,0,L|224:176,1,120,2|0,0:0|0:0,0:0:0:0:
224,192,179198,2,0,L|224:288,1,80,8|0,0:0|3:0,0:0:0:0:
144,272,179543,6,0,L|144:144,1,120,2|0,0:0|0:0,0:0:0:0:
144,128,179887,2,0,L|144:32,1,80,8|0,0:0|3:0,0:0:0:0:
64,48,180232,6,0,L|64:128,1,80,2|0,0:0|3:0,0:0:0:0:
64,168,180491,1,0,3:0:0:0:
64,208,180577,2,0,L|64:288,1,80,8|0,0:0|3:0,0:0:0:0:
64,368,180922,5,6,0:0:0:0:
144,368,181094,2,0,L|144:272,1,80,0|8,3:0|0:0,0:0:0:0:
144,208,181439,1,0,3:0:0:0:
224,208,181612,2,0,L|224:288,1,80,2|0,0:0|3:0,0:0:0:0:
304,288,181956,2,0,L|304:368,1,80,8|0,0:0|3:0,0:0:0:0:
384,368,182301,5,2,0:0:0:0:
384,288,182474,1,0,3:0:0:0:
384,208,182646,1,8,0:0:0:0:
464,208,182818,1,0,3:0:0:0:
464,208,182905,1,0,3:0:0:0:
464,208,182991,1,2,0:0:0:0:
464,128,183163,1,0,3:0:0:0:
384,128,183336,2,0,L|384:48,1,80,8|0,0:0|3:0,0:0:0:0:
304,48,183680,5,2,0:0:0:0:
224,48,183853,1,0,3:0:0:0:
192,48,183939,1,0,0:0:0:0:
160,48,184025,1,8,0:0:0:0:
80,48,184198,1,0,3:0:0:0:
0,48,184370,2,0,L|0:160,1,80,2|0,0:0|3:0,0:0:0:0:
0,208,184715,2,0,L|0:320,1,80,8|0,0:0|3:0,0:0:0:0:
0,368,185060,5,2,0:0:0:0:
80,368,185232,1,0,3:0:0:0:
160,368,185405,2,0,L|160:256,1,80,8|0,0:0|3:0,0:0:0:0:
240,288,185749,5,2,0:0:0:0:
240,208,185922,1,8,0:0:0:0:
320,208,186094,1,2,0:0:0:0:
320,288,186267,1,8,0:0:0:0:
400,288,186439,6,0,L|400:160,1,120,6|0,0:0|0:0,0:0:0:0:
400,144,186784,2,0,L|400:64,1,80,8|0,0:0|3:0,0:0:0:0:
320,64,187129,6,0,L|320:192,1,120,2|0,0:0|0:0,0:0:0:0:
320,208,187474,2,0,L|320:288,1,80,8|0,0:0|3:0,0:0:0:0:
240,288,187818,6,0,L|240:160,1,120,2|0,0:0|0:0,0:0:0:0:
240,144,188163,2,0,L|240:64,1,80,8|0,0:0|3:0,0:0:0:0:
160,64,188508,2,0,L|160:144,1,80,2|0,0:0|3:0,0:0:0:0:
120,144,188767,1,0,3:0:0:0:
80,144,188853,2,0,L|80:64,1,80,8|0,0:0|3:0,0:0:0:0:
0,64,189198,5,2,0:0:0:0:
0,144,189370,1,0,3:0:0:0:
0,224,189543,1,8,0:0:0:0:
80,224,189715,1,0,3:0:0:0:
80,224,189801,1,0,0:0:0:0:
80,224,189887,6,0,L|80:96,1,120,2|0,0:0|0:0,0:0:0:0:
80,80,190232,2,0,L|80:0,1,80,8|0,0:0|3:0,0:0:0:0:
160,0,190577,6,0,L|160:128,1,120,2|0,0:0|0:0,0:0:0:0:
160,144,190922,2,0,L|160:224,1,80,8|0,0:0|3:0,0:0:0:0:
240,240,191267,6,0,L|240:336,1,80,2|0,0:0|3:0,0:0:0:0:
280,320,191525,1,0,3:0:0:0:
320,320,191612,2,0,L|320:240,1,80,8|0,0:0|3:0,0:0:0:0:
320,200,191870,1,0,0:0:0:0:
320,160,191956,5,2,0:0:0:0:
416,160,192129,2,0,L|416:240,1,80,0|8,3:0|0:0,0:0:0:0:
416,320,192474,1,0,3:0:0:0:
496,320,192646,2,0,L|496:240,1,80,2|0,0:0|3:0,0:0:0:0:
496,160,192991,2,0,L|496:80,1,80,8|0,0:0|3:0,0:0:0:0:
416,80,193336,6,0,L|416:160,1,80,2|0,0:0|3:0,0:0:0:0:
336,160,193680,2,0,L|336:80,1,80,8|0,0:0|3:0,0:0:0:0:
256,80,194025,1,2,0:0:0:0:
176,80,194198,1,0,3:0:0:0:
96,80,194370,6,0,L|96:240,1,160,8|2,0:0|0:0,0:0:0:0:
96,320,194887,1,0,3:0:0:0:
128,320,194974,1,0,0:0:0:0:
160,320,195060,1,8,0:0:0:0:
240,320,195232,1,0,3:0:0:0:
320,320,195405,2,0,L|320:240,1,80,2|0,0:0|3:0,0:0:0:0:
320,160,195749,2,0,L|320:80,1,80,8|0,0:0|3:0,0:0:0:0:
400,80,196094,5,2,0:0:0:0:
480,80,196267,2,0,L|480:176,2,80,0|8|0,3:0|0:0|3:0,0:0:0:0:
400,80,196784,1,2,0:0:0:0:
320,80,196956,2,0,L|320:176,2,80,8|8|2,0:0|0:0|0:0,0:0:0:0:
240,80,197474,5,8,0:0:0:0:
240,80,197646,1,2,0:0:0:0:
160,80,197818,1,8,0:0:0:0:
160,80,197991,1,2,0:0:0:0:
80,80,198163,2,0,L|80:224,1,120.000004577637,8|8,0:0|0:0,0:0:0:0:
80,272,198680,1,2,0:0:0:0:
80,352,198853,5,8,0:0:0:0:
80,352,199025,1,2,0:0:0:0:
160,352,199198,1,8,0:0:0:0:
160,352,199370,2,0,L|160:272,1,60.0000022888184,2|8,0:0|0:0,0:0:0:0:
240,352,199715,1,2,0:0:0:0:
240,272,199887,1,8,0:0:0:0:
240,192,200060,1,2,0:0:0:0:
240,112,200232,5,8,0:0:0:0:
240,112,200405,1,2,0:0:0:0:
320,112,200577,1,8,0:0:0:0:
400,112,200749,2,0,L|400:256,1,120.000004577637,2|2,0:0|0:0,0:0:0:0:
400,304,201267,1,8,0:0:0:0:
400,304,201439,1,2,0:0:0:0:
480,304,201612,5,8,0:0:0:0:
480,304,201784,1,2,0:0:0:0:
480,224,201956,1,8,0:0:0:0:
480,224,202129,2,0,L|480:160,1,60.0000022888184,2|8,0:0|0:0,0:0:0:0:
400,224,202474,1,2,3:2:0:0:
368,224,202560,1,0,3:0:0:0:
336,224,202646,6,0,L|336:160,1,60,0|0,3:0|0:0,0:0:0:0:
336,144,202991,5,6,0:0:0:0:
176,144,203680,1,6,0:0:0:0:
256,272,204370,5,6,0:0:0:0:
256,352,204543,1,0,3:0:0:0:
224,352,204629,1,0,3:0:0:0:
192,352,204715,1,0,3:0:0:0:
160,352,204801,1,0,3:0:0:0:
128,352,204887,1,0,3:0:0:0:
128,272,205060,1,0,3:0:0:0:
96,272,205146,1,0,3:0:0:0:
64,272,205232,1,0,3:0:0:0:
32,272,205318,1,0,3:0:0:0:
0,272,205405,2,0,L|0:112,1,143.999995605469,12|0,3:2|0:0,0:0:0:0:
0,96,205749,5,2,0:0:0:0:
0,16,205922,1,2,0:0:0:0:
32,16,206008,1,0,0:0:0:0:
64,16,206094,1,8,0:0:0:0:
144,16,206267,1,0,3:0:0:0:
224,16,206439,2,0,L|224:128,1,95.9999970703126,2|2,0:0|0:0,0:0:0:0:
304,112,206784,2,0,L|304:16,1,95.9999970703126,8|0,0:0|3:0,0:0:0:0:
384,16,207129,5,2,0:0:0:0:
464,16,207301,1,2,0:0:0:0:
464,96,207474,1,8,0:0:0:0:
464,176,207646,1,0,3:0:0:0:
384,176,207818,2,0,L|384:272,1,95.9999970703126,2|2,0:0|0:0,0:0:0:0:
464,272,208163,2,0,L|464:384,1,95.9999970703126,8|0,0:0|3:0,0:0:0:0:
384,368,208508,5,2,0:0:0:0:
304,368,208680,1,2,0:0:0:0:
304,368,208767,1,0,0:0:0:0:
304,368,208853,2,0,L|304:272,1,95.9999970703126,8|0,0:0|3:0,0:0:0:0:
224,272,209198,2,0,L|224:368,1,95.9999970703126,2|2,0:0|0:0,0:0:0:0:
144,368,209543,2,0,L|144:272,1,95.9999970703126,8|0,0:0|3:0,0:0:0:0:
144,192,209887,5,2,0:0:0:0:
64,192,210060,1,2,0:0:0:0:
64,112,210232,1,8,0:0:0:0:
144,112,210405,1,0,3:0:0:0:
224,112,210577,2,0,L|224:16,1,95.9999970703126,2|2,0:0|0:0,0:0:0:0:
304,16,210922,2,0,L|304:112,1,95.9999970703126,8|0,0:0|3:0,0:0:0:0:
304,144,211180,1,0,3:0:0:0:
304,144,211267,5,2,0:0:0:0:
304,224,211439,1,2,0:0:0:0:
304,256,211525,1,0,0:0:0:0:
304,288,211612,1,8,0:0:0:0:
384,288,211784,1,0,3:0:0:0:
464,288,211956,2,0,L|464:192,1,95.9999970703126,2|2,0:0|0:0,0:0:0:0:
464,112,212301,2,0,L|464:16,1,95.9999970703126,8|0,0:0|3:0,0:0:0:0:
384,16,212646,5,2,0:0:0:0:
304,16,212818,1,0,0:0:0:0:
304,96,212991,1,8,0:0:0:0:
224,96,213163,1,0,0:0:0:0:
224,176,213336,2,0,L|224:224,2,47.9999985351563,0|8|2,3:0|0:0|0:0,0:0:0:0:
144,176,213680,2,0,L|144:224,3,47.9999985351563,8|2|0|8,0:0|0:0|0:0|0:0,0:0:0:0:
144,96,214025,5,6,0:0:0:0:
64,96,214198,1,2,0:0:0:0:
64,176,214370,2,0,L|64:272,1,95.9999970703126,8|0,0:0|3:0,0:0:0:0:
144,272,214715,2,0,L|144:368,1,95.9999970703126,2|2,0:0|0:0,0:0:0:0:
224,368,215060,2,0,L|224:272,1,95.9999970703126,8|0,0:0|3:0,0:0:0:0:
304,368,215405,5,2,0:0:0:0:
384,368,215577,1,2,0:0:0:0:
384,288,215749,1,8,0:0:0:0:
464,288,215922,1,0,3:0:0:0:
464,208,216094,2,0,L|464:96,1,95.9999970703126,2|2,0:0|0:0,0:0:0:0:
384,112,216439,2,0,L|384:208,1,95.9999970703126,8|0,0:0|3:0,0:0:0:0:
384,240,216698,1,0,3:0:0:0:
384,240,216784,5,2,0:0:0:0:
304,240,216956,1,2,0:0:0:0:
272,240,217043,1,0,0:0:0:0:
240,240,217129,1,8,0:0:0:0:
160,240,217301,1,0,3:0:0:0:
160,160,217474,2,0,L|160:48,1,95.9999970703126,2|2,0:0|0:0,0:0:0:0:
80,64,217818,2,0,L|80:160,1,95.9999970703126,8|0,0:0|3:0,0:0:0:0:
80,240,218163,5,2,0:0:0:0:
0,240,218336,1,2,0:0:0:0:
0,320,218508,1,8,0:0:0:0:
80,320,218680,1,0,3:0:0:0:
160,320,218853,2,0,L|160:224,1,95.9999970703126,2|2,0:0|0:0,0:0:0:0:
240,224,219198,2,0,L|240:128,1,95.9999970703126,8|0,0:0|3:0,0:0:0:0:
240,48,219543,5,2,0:0:0:0:
320,48,219715,1,2,0:0:0:0:
320,128,219887,2,0,L|320:240,1,95.9999970703126,8|0,0:0|3:0,0:0:0:0:
400,224,220232,2,0,L|400:336,1,95.9999970703126,2|2,0:0|0:0,0:0:0:0:
480,320,220577,2,0,L|480:224,1,95.9999970703126,8|0,0:0|3:0,0:0:0:0:
480,144,220922,5,2,0:0:0:0:
480,64,221094,1,2,0:0:0:0:
400,64,221267,1,8,0:0:0:0:
320,64,221439,1,0,3:0:0:0:
240,64,221612,2,0,L|240:160,1,95.9999970703126,2|2,0:0|0:0,0:0:0:0:
240,240,221956,2,0,L|240:336,1,95.9999970703126,8|0,0:0|3:0,0:0:0:0:
240,368,222215,1,0,3:0:0:0:
240,368,222301,5,6,0:0:0:0:
320,368,222474,1,2,0:0:0:0:
400,368,222646,1,8,0:0:0:0:
400,288,222818,1,0,3:0:0:0:
480,288,222991,1,6,0:0:0:0:
480,208,223163,1,2,0:0:0:0:
400,208,223336,1,8,0:0:0:0:
320,208,223508,1,0,3:0:0:0:
240,208,223680,5,12,0:0:0:0:
240,160,223767,1,8,0:0:0:0:
240,112,223853,1,0,3:0:0:0:
240,64,223939,1,8,0:0:0:0:
240,16,224025,1,8,0:0:0:0:
160,16,224198,5,8,0:0:0:0:
160,64,224284,1,8,0:0:0:0:
160,160,224456,1,8,0:0:0:0:
160,208,224543,1,6,0:0:0:0:
160,288,224715,5,8,0:0:0:0:
208,288,224801,1,8,0:0:0:0:
256,288,224887,1,8,0:0:0:0:
304,288,224974,1,8,0:0:0:0:
352,288,225060,5,6,0:0:0:0:
352,368,225232,1,8,0:0:0:0:
432,368,225405,2,0,L|432:256,1,95.9999970703126,2|8,0:0|0:0,0:0:0:0:
432,192,225749,2,0,L|432:96,1,95.9999970703126,2|8,0:0|0:0,0:0:0:0:
384,96,226008,1,8,0:0:0:0:
336,96,226094,2,0,L|336:-16,1,95.9999970703126,2|8,0:0|0:0,0:0:0:0:
256,0,226439,5,2,0:0:0:0:
256,80,226612,1,8,0:0:0:0:
176,80,226784,1,2,0:0:0:0:
176,0,226956,1,8,0:0:0:0:
96,0,227129,1,2,0:0:0:0:
96,80,227301,1,8,0:0:0:0:
16,80,227474,2,0,L|16:192,1,95.9999970703126,2|8,0:0|0:0,0:0:0:0:
16,256,227818,5,2,0:0:0:0:
96,256,227991,1,8,0:0:0:0:
96,208,228077,1,0,0:0:0:0:
96,160,228163,1,2,0:0:0:0:
176,160,228336,1,8,0:0:0:0:
176,240,228508,1,2,0:0:0:0:
256,240,228680,1,8,0:0:0:0:
256,160,228853,1,2,0:0:0:0:
336,160,229025,1,8,0:0:0:0:
336,240,229198,6,0,L|336:368,1,95.9999970703126,2|8,0:0|0:0,0:0:0:0:
416,336,229543,2,0,L|416:240,1,95.9999970703126,2|8,0:0|0:0,0:0:0:0:
416,160,229887,1,2,0:0:0:0:
496,160,230060,1,8,0:0:0:0:
496,208,230146,1,8,0:0:0:0:
496,256,230232,1,2,0:0:0:0:
496,336,230405,1,8,0:0:0:0:
416,336,230577,5,2,0:0:0:0:
336,336,230749,1,8,0:0:0:0:
256,336,230922,2,0,L|256:224,1,95.9999970703126,2|8,0:0|0:0,0:0:0:0:
176,240,231267,2,0,L|176:336,1,95.9999970703126,2|8,0:0|0:0,0:0:0:0:
96,336,231612,2,0,L|96:240,1,95.9999970703126,2|8,0:0|0:0,0:0:0:0:
16,240,231956,6,0,L|16:352,1,95.9999970703126,2|8,0:0|0:0,0:0:0:0:
16,160,232301,2,0,L|16:64,1,95.9999970703126,2|8,0:0|0:0,0:0:0:0:
96,64,232646,2,0,L|96:160,1,95.9999970703126,2|8,0:0|0:0,0:0:0:0:
176,160,232991,2,0,L|176:64,1,95.9999970703126,2|8,0:0|0:0,0:0:0:0:
256,64,233336,5,2,0:0:0:0:
256,144,233508,1,8,0:0:0:0:
256,192,233594,1,0,3:0:0:0:
256,240,233680,1,2,0:0:0:0:
256,320,233853,1,8,0:0:0:0:
336,320,234025,1,2,0:0:0:0:
336,240,234198,1,8,0:0:0:0:
416,240,234370,1,2,0:0:0:0:
416,320,234543,1,8,0:0:0:0:
496,320,234715,5,2,0:0:0:0:
496,240,234887,2,0,L|496:192,2,47.9999985351563,8|8|2,0:0|0:0|0:0,0:0:0:0:
496,320,235232,1,8,0:0:0:0:
416,320,235405,1,2,0:0:0:0:
416,240,235577,2,0,L|416:192,2,47.9999985351563,8|8|2,0:0|0:0|0:0,0:0:0:0:
416,320,235922,1,12,0:0:0:0:
336,320,236094,5,6,0:0:0:0:
336,240,236267,2,0,L|336:128,1,95.9999970703126,8|2,0:0|0:0,0:0:0:0:
336,64,236612,1,8,0:0:0:0:
256,64,236784,2,0,L|256:176,1,95.9999970703126,2|8,0:0|0:0,0:0:0:0:
256,240,237129,1,2,0:0:0:0:
256,320,237301,1,8,0:0:0:0:
176,320,237474,6,0,L|176:208,1,95.9999970703126,2|8,0:0|0:0,0:0:0:0:
176,144,237818,1,2,0:0:0:0:
176,64,237991,1,8,0:0:0:0:
96,64,238163,1,2,0:0:0:0:
96,144,238336,1,8,0:0:0:0:
96,224,238508,2,0,L|96:320,1,95.9999970703126,2|8,0:0|0:0,0:0:0:0:
16,320,238853,5,2,0:0:0:0:
16,240,239025,1,8,0:0:0:0:
16,192,239112,1,0,0:0:0:0:
16,144,239198,1,2,0:0:0:0:
16,64,239370,1,8,0:0:0:0:
96,64,239543,2,0,L|96:176,1,95.9999970703126,2|8,0:0|0:0,0:0:0:0:
176,160,239887,1,2,0:0:0:0:
176,80,240060,1,8,0:0:0:0:
256,80,240232,6,0,L|256:176,1,95.9999970703126,2|8,0:0|0:0,0:0:0:0:
336,176,240577,2,0,L|336:80,1,95.9999970703126,2|8,0:0|0:0,0:0:0:0:
416,80,240922,1,2,0:0:0:0:
416,160,241094,1,8,0:0:0:0:
416,208,241180,1,8,0:0:0:0:
416,256,241267,1,2,0:0:0:0:
416,336,241439,1,8,0:0:0:0:
496,336,241612,5,2,0:0:0:0:
496,256,241784,1,8,0:0:0:0:
416,256,241956,1,2,0:0:0:0:
416,336,242129,1,8,0:0:0:0:
336,336,242301,2,0,L|336:240,1,95.9999970703126,2|8,0:0|0:0,0:0:0:0:
256,240,242646,2,0,L|256:336,1,95.9999970703126,2|8,0:0|0:0,0:0:0:0:
176,336,242991,5,2,0:0:0:0:
176,256,243163,1,8,0:0:0:0:
176,176,243336,1,2,0:0:0:0:
176,96,243508,1,8,0:0:0:0:
96,96,243680,1,2,0:0:0:0:
96,176,243853,1,8,0:0:0:0:
96,256,244025,2,0,L|96:368,1,95.9999970703126,2|8,0:0|0:0,0:0:0:0:
16,352,244370,5,2,0:0:0:0:
16,272,244543,1,8,0:0:0:0:
16,224,244629,1,8,0:0:0:0:
16,176,244715,1,8,0:0:0:0:
16,96,244887,1,8,0:0:0:0:
96,96,245060,1,2,0:0:0:0:
96,16,245232,1,8,0:0:0:0:
176,16,245405,1,8,0:0:0:0:
176,96,245577,1,8,0:0:0:0:
256,96,245749,6,0,L|256:176,1,60.0000022888184,2|0,0:0|0:0,0:0:0:0:
256,192,246008,2,0,L|256:272,1,60.0000022888184,2|0,0:0|0:0,0:0:0:0:
256,288,246267,1,2,0:0:0:0:
256,384,246439,1,12,0:0:0:0:
