osu file format v14

[General]
AudioFilename: audio.mp3
AudioLeadIn: 0
PreviewTime: 203035
Countdown: 0
SampleSet: Soft
StackLeniency: 0.7
Mode: 0
LetterboxInBreaks: 0
WidescreenStoryboard: 1

[Editor]
DistanceSpacing: 1.3
BeatDivisor: 8
GridSize: 32
TimelineZoom: 1.8

[Metadata]
Title:Shinde Shimau towa Nasakenai!
TitleUnicode:しんでしまうとはなさけない!
Artist:Lizean
ArtistUnicode:リゼアン
Creator:Yugu
Version:Hard
Source:
Tags:リゼ・ヘルエスタ アンジュ・カトリーナ Lize Helesta Ange Katrina Jesus-P じーざすP 鏡音リン 鏡音レン Kagamine Rin Kagamine Len WONDERFUL★OPPORTUNITY vtuber virtual youtuber バーチャルyoutuber にじさんじ 2434 japanese pop vocaloid
BeatmapID:2201169
BeatmapSetID:1052264

[Difficulty]
HPDrainRate:5
CircleSize:4
OverallDifficulty:6
ApproachRate:7
SliderMultiplier:1.28
SliderTickRate:1

[Events]
//Background and Video events
0,0,"241.png",0,0
Video,-35,"Video.avi"
//Break Periods
2,98363,119332
//Storyboard Layer 0 (Background)
//Storyboard Layer 1 (Fail)
//Storyboard Layer 2 (Pass)
//Storyboard Layer 3 (Foreground)
//Storyboard Layer 4 (Overlay)
//Storyboard Sound Samples

[TimingPoints]
1612,344.827586206897,4,2,1,50,1,0
1612,-100,4,2,1,50,0,0
12301,-100,4,2,1,60,0,0
12646,-100,4,2,1,70,0,0
30060,-100,4,2,11,70,0,0
30577,-100,4,2,1,70,0,0
31267,-100,4,2,11,70,0,0
31956,-100,4,2,1,70,0,0
32905,-100,4,2,11,70,0,0
33336,-100,4,2,1,70,0,0
34543,-100,4,2,11,70,0,0
34715,-100,4,2,1,60,0,0
44715,-100,4,2,1,60,0,0
45749,-100,4,2,1,80,0,0
67818,-100,4,2,1,60,0,0
72818,-100,4,2,1,50,0,0
72991,-100,4,2,1,50,0,0
73336,-100,4,2,1,90,0,1
94025,-100,4,2,1,90,0,0
95405,-100,4,2,1,50,0,0
98163,-100,4,2,1,40,0,0
120232,-100,4,2,1,70,0,0
133508,-100,4,2,11,70,0,0
134025,-100,4,2,1,70,0,0
137646,-100,4,2,11,70,0,0
138163,-100,4,2,1,70,0,0
140491,-100,4,2,11,70,0,0
140922,-100,4,2,1,70,0,0
142129,-100,4,2,11,70,0,0
142301,-100,4,2,1,60,0,0
151956,-100,4,2,1,60,0,0
163680,-100,4,2,1,60,0,0
164370,-100,4,2,1,60,0,0
165749,-100,4,2,1,60,0,0
167129,-100,4,2,1,65,0,0
168508,-100,4,2,1,65,0,0
169887,-100,4,2,1,70,0,0
171267,-100,4,2,1,70,0,0
172646,-100,4,2,1,50,0,0
174715,-100,4,2,11,50,0,0
174887,-100,4,2,11,60,0,0
175060,-100,4,2,11,70,0,0
175232,-100,4,2,11,80,0,0
175405,-100,4,2,1,90,0,1
197474,-100,4,2,1,50,0,0
202646,-100,4,2,1,50,0,0
202991,-100,4,2,1,90,0,0
205749,-100,4,2,1,90,0,1
223680,-100,4,2,1,90,0,0
225060,-100,4,2,1,95,0,1
245749,-100,4,2,1,70,0,0

[Colours]
Combo1 : 157,55,87
Combo2 : 200,60,53
Combo3 : 66,255,255

[HitObjects]
112,80,6094,6,0,L|176:80,1,64,8|0,1:2|1:0,0:0:0:0:
336,80,6612,2,0,L|400:80,2,64,0|8|0,1:0|1:2|1:0,0:0:0:0:
336,160,7129,6,0,L|464:160,1,128,2|8,0:0|1:2,0:0:0:0:
464,160,7646,1,0,1:0:0:0:
256,240,8163,2,0,L|176:240,1,64,8|0,1:2|1:0,0:0:0:0:
192,320,8508,6,0,L|64:320,1,128,2|8,0:0|1:2,0:0:0:0:
64,320,9025,1,0,1:0:0:0:
0,128,9543,2,0,L|64:128,1,64,8|0,1:2|1:0,0:0:0:0:
144,128,9887,6,0,L|272:128,1,128,2|8,0:0|1:2,0:0:0:0:
272,128,10405,1,0,1:0:0:0:
448,16,10922,2,0,L|512:16,1,64,8|0,1:2|1:0,0:0:0:0:
512,96,11267,6,0,L|384:96,2,128,2|10|2,0:1|0:1|0:1,0:0:0:0:
512,256,12301,1,4,0:0:0:0:
352,256,12646,6,0,L|272:256,1,64,6|2,0:0|0:0,0:0:0:0:
208,256,12991,1,8,0:0:0:0:
128,256,13163,2,0,L|-16:256,1,128,0|2,3:0|3:2,0:0:0:0:
0,256,13680,1,8,0:0:0:0:
0,128,14025,6,0,L|80:128,1,64,2|2,0:0|0:0,0:0:0:0:
144,128,14370,2,0,L|224:128,1,64,8|0,0:0|3:0,0:0:0:0:
288,128,14715,2,0,L|352:128,3,64,2|2|8|0,3:2|3:2|0:0|3:0,0:0:0:0:
352,48,15405,6,0,L|288:48,1,64,2|2,0:0|0:0,0:0:0:0:
208,48,15749,1,8,0:0:0:0:
128,48,15922,2,0,L|0:48,1,128,0|2,3:0|3:2,0:0:0:0:
0,48,16439,1,8,0:0:0:0:
0,176,16784,6,0,L|64:176,1,64,2|2,0:0|0:0,0:0:0:0:
144,176,17129,2,0,L|208:176,1,64,8|0,0:0|3:0,0:0:0:0:
288,176,17474,2,0,L|352:176,3,64,2|2|8|0,3:2|3:2|0:0|3:0,0:0:0:0:
432,176,18163,6,0,L|496:176,1,64,2|2,0:0|0:0,0:0:0:0:
496,256,18508,1,8,0:0:0:0:
496,336,18680,2,0,L|368:336,1,128,0|2,3:0|3:2,0:0:0:0:
368,336,19198,1,8,0:0:0:0:
240,336,19543,6,0,L|176:336,1,64,2|2,0:0|0:0,0:0:0:0:
96,336,19887,2,0,L|32:336,1,64,8|0,0:0|3:0,0:0:0:0:
32,256,20232,2,0,L|96:256,3,64,2|2|8|0,3:2|3:2|0:0|3:0,0:0:0:0:
176,256,20922,6,0,L|256:256,1,64,2|2,0:0|0:0,0:0:0:0:
320,256,21267,1,8,0:0:0:0:
320,176,21439,2,0,L|448:176,1,128,0|2,3:0|3:2,0:0:0:0:
448,176,21956,1,8,0:0:0:0:
448,48,22301,5,2,0:0:0:0:
368,48,22474,1,0,3:0:0:0:
368,48,22560,1,0,3:0:0:0:
368,48,22646,2,0,L|336:48,2,32,8|0|0,3:2|0:0|3:0,0:0:0:0:
256,48,22991,2,0,L|176:48,1,64,0|2,3:0|3:2,0:0:0:0:
112,48,23336,2,0,L|32:48,1,64,8|0,3:2|3:0,0:0:0:0:
48,128,23680,5,2,0:0:0:0:
48,208,23853,1,8,0:0:0:0:
48,208,23939,1,8,0:0:0:0:
48,208,24025,2,0,L|128:208,1,64,8|2,0:0|0:0,0:0:0:0:
256,352,25060,5,2,0:0:0:0:
336,352,25232,1,8,0:0:0:0:
336,352,25318,1,8,0:0:0:0:
336,352,25405,2,0,L|416:352,1,64,8|2,0:0|0:0,0:0:0:0:
464,128,26439,5,2,0:0:0:0:
464,208,26612,1,8,0:0:0:0:
464,208,26698,1,8,0:0:0:0:
464,208,26784,2,0,L|384:208,1,64,8|2,0:0|0:0,0:0:0:0:
272,208,27301,2,0,L|240:208,2,32,8|0|0,0:3|0:0|0:0,0:0:0:0:
272,288,27646,1,0,0:0:0:0:
272,368,27818,6,0,L|208:368,1,64,8|2,0:0|0:0,0:0:0:0:
128,368,28163,2,0,L|64:368,1,64,8|2,0:0|0:0,0:0:0:0:
64,288,28508,2,0,L|128:288,1,64,8|2,0:0|0:0,0:0:0:0:
208,288,28853,2,0,L|272:288,1,64,12|0,3:0|0:0,0:0:0:0:
352,288,29198,5,2,0:0:0:0:
432,288,29370,1,8,0:0:0:0:
432,288,29456,1,8,0:0:0:0:
432,288,29543,2,0,L|496:288,1,64,8|2,0:0|0:0,0:0:0:0:
352,128,30577,5,2,0:0:0:0:
272,128,30749,1,8,0:0:0:0:
272,128,30836,1,8,0:0:0:0:
272,128,30922,2,0,L|208:128,1,64,8|2,0:0|0:0,0:0:0:0:
64,288,31956,5,2,0:0:0:0:
144,288,32129,1,8,0:0:0:0:
144,288,32215,1,8,0:0:0:0:
144,288,32301,2,0,L|208:288,1,64,8|2,0:0|0:0,0:0:0:0:
0,128,33336,6,0,L|64:128,1,64,8|2,0:0|0:0,0:0:0:0:
144,64,33680,2,0,L|208:64,1,64,8|2,0:0|0:0,0:0:0:0:
304,64,34025,2,0,L|368:64,1,64,8|2,0:0|0:0,0:0:0:0:
448,128,34370,2,0,L|512:128,1,64,12|2,0:0|0:0,0:0:0:0:
512,208,34715,5,2,0:0:0:0:
512,288,34887,1,0,3:0:0:0:
512,288,35060,2,0,L|384:288,1,128,8|2,0:0|0:3,0:0:0:0:
304,288,35577,1,2,0:0:0:0:
224,288,35749,2,0,L|160:288,1,64,8|0,0:0|3:0,0:0:0:0:
160,208,36094,6,0,L|32:208,1,128,2|8,0:0|0:0,0:0:0:0:
32,128,36612,1,2,0:0:0:0:
32,48,36784,2,0,L|96:48,1,64,2|2,0:3|0:0,0:0:0:0:
176,48,37129,1,8,0:0:0:0:
176,48,37301,1,0,0:0:0:0:
256,48,37474,6,0,L|384:48,1,128,2|8,0:0|0:0,0:0:0:0:
512,144,38163,2,0,L|384:144,1,128,0|8,3:0|0:0,0:0:0:0:
272,240,38853,5,2,0:0:0:0:
192,240,39025,2,0,L|128:240,2,64,2|8|2,0:3|0:0|0:0,0:0:0:0:
272,240,39543,2,0,L|400:240,1,128,2|8,0:3|0:0,0:0:0:0:
480,368,40232,5,2,0:0:0:0:
400,368,40405,1,2,0:3:0:0:
400,368,40577,2,0,L|272:368,1,128,8|2,0:0|0:3,0:0:0:0:
192,368,41094,1,2,0:0:0:0:
112,368,41267,2,0,L|32:368,1,64,8|0,0:0|3:0,0:0:0:0:
48,288,41612,6,0,L|176:288,1,128,2|8,0:0|0:0,0:0:0:0:
176,208,42129,1,2,0:0:0:0:
176,128,42301,2,0,L|96:128,1,64,2|2,0:3|0:0,0:0:0:0:
32,128,42646,1,8,0:0:0:0:
176,48,42991,6,0,L|304:48,1,128,2|8,0:0|0:0,0:0:0:0:
384,48,43508,1,2,0:0:0:0:
464,48,43680,2,0,L|496:48,2,32,2|0|2,0:3|0:0|0:0,0:0:0:0:
464,128,44025,2,0,L|496:128,2,32,8|0|0,0:0|0:0|3:0,0:0:0:0:
464,208,44370,1,2,0:3:0:0:
464,368,44715,6,0,L|320:368,2,128,2|2|2,0:1|0:1|0:1,0:0:0:0:
464,208,45749,6,0,L|352:208,2,96,6|0|0,0:0|0:0|3:0,0:0:0:0:
464,128,46439,2,0,L|352:128,2,96,2|0|0,0:0|0:0|3:0,0:0:0:0:
464,48,47129,2,0,L|352:48,2,96,2|0|0,0:0|0:0|3:0,0:0:0:0:
464,128,47818,1,2,0:0:0:0:
304,128,48163,1,8,0:0:0:0:
144,128,48508,5,2,0:0:0:0:
144,48,48680,1,0,3:0:0:0:
144,48,48853,2,0,L|224:48,1,64,8|0,0:0|3:0,0:0:0:0:
288,48,49198,2,0,L|384:48,2,96,2|0|0,0:0|0:0|3:0,0:0:0:0:
288,128,49887,2,0,L|384:128,2,96,2|0|0,0:0|0:0|3:0,0:0:0:0:
288,208,50577,1,2,0:0:0:0:
288,368,50922,1,8,0:0:0:0:
128,368,51267,6,0,L|48:368,1,64,6|0,0:0|3:0,0:0:0:0:
64,288,51612,2,0,L|0:288,1,64,8|0,0:0|3:0,0:0:0:0:
64,208,51956,1,2,0:0:0:0:
64,208,52129,2,0,L|0:208,2,64,0|8|0,3:0|0:0|3:0,0:0:0:0:
144,208,52646,6,0,L|288:208,1,128,2|8,0:0|0:0,0:0:0:0:
352,208,53163,1,0,3:0:0:0:
352,128,53336,2,0,L|496:128,1,128,2|8,0:0|0:0,0:0:0:0:
352,48,54025,5,2,0:0:0:0:
272,48,54198,1,0,3:0:0:0:
272,48,54284,1,0,0:0:0:0:
272,48,54370,2,0,L|192:48,1,64,8|0,0:0|3:0,0:0:0:0:
128,48,54715,1,2,0:0:0:0:
128,48,54887,2,0,L|48:48,2,64,0|8|0,3:0|0:0|3:0,0:0:0:0:
128,128,55405,5,2,0:0:0:0:
128,208,55577,2,0,L|48:208,1,64,0|8,3:0|0:0,0:0:0:0:
0,352,56094,2,0,L|80:352,1,64,2|8,0:0|0:0,0:0:0:0:
144,352,56439,2,0,L|224:352,1,64,2|8,0:0|0:0,0:0:0:0:
288,352,56784,6,0,L|384:352,2,96,6|0|0,0:0|0:0|3:0,0:0:0:0:
288,272,57474,2,0,L|384:272,2,96,2|0|0,0:0|0:0|3:0,0:0:0:0:
288,192,58163,2,0,L|384:192,2,96,2|0|0,0:0|0:0|3:0,0:0:0:0:
288,112,58853,1,2,0:0:0:0:
448,112,59198,1,8,0:0:0:0:
448,272,59543,5,2,0:0:0:0:
448,352,59715,1,0,3:0:0:0:
448,352,59887,2,0,L|384:352,1,64,8|0,0:0|3:0,0:0:0:0:
304,352,60232,2,0,L|208:352,2,96,2|0|0,0:0|0:0|3:0,0:0:0:0:
304,272,60922,6,0,L|208:272,2,96,2|0|0,0:0|0:0|3:0,0:0:0:0:
304,192,61612,1,2,0:0:0:0:
304,32,61956,1,8,0:0:0:0:
144,32,62301,6,0,L|80:32,1,64,2|0,0:0|3:0,0:0:0:0:
80,112,62646,2,0,L|16:112,1,64,8|0,0:0|3:0,0:0:0:0:
80,192,62991,1,2,0:0:0:0:
80,192,63163,2,0,L|16:192,2,64,0|8|0,3:0|0:0|3:0,0:0:0:0:
80,272,63680,6,0,L|208:272,1,128,2|8,0:0|0:0,0:0:0:0:
288,272,64198,1,0,3:0:0:0:
368,272,64370,2,0,L|432:272,2,64,2|0|8,0:0|3:0|0:0,0:0:0:0:
368,112,65060,5,2,0:0:0:0:
288,112,65232,1,0,3:0:0:0:
288,112,65318,1,0,0:0:0:0:
288,112,65405,2,0,L|208:112,1,64,8|0,0:0|3:0,0:0:0:0:
144,112,65749,1,2,0:0:0:0:
144,112,65922,2,0,L|80:112,2,64,0|8|0,3:0|0:0|3:0,0:0:0:0:
144,32,66439,5,2,0:0:0:0:
144,32,66612,2,0,L|288:32,1,128,0|0,3:0|3:0,0:0:0:0:
352,32,67129,1,2,0:0:0:0:
352,32,67301,2,0,L|496:32,1,128,8|2,0:0|0:0,0:0:0:0:
480,112,67818,5,8,0:0:0:0:
480,240,68163,1,8,0:0:0:0:
352,240,68508,1,8,0:0:0:0:
352,112,68853,1,8,0:0:0:0:
224,112,69198,5,8,0:0:0:0:
224,240,69543,1,8,0:0:0:0:
96,240,69887,1,8,0:0:0:0:
96,112,70232,1,8,0:0:0:0:
224,112,70577,6,0,L|224:240,1,128,8|8,0:0|0:0,0:0:0:0:
352,240,71267,2,0,L|352:112,1,128,8|8,0:0|0:0,0:0:0:0:
480,112,71956,2,0,L|480:240,1,128,8|8,0:0|0:0,0:0:0:0:
480,368,72646,1,8,0:0:0:0:
400,368,72818,1,2,0:0:0:0:
400,368,72905,1,2,0:0:0:0:
400,368,72991,1,2,0:0:0:0:
400,208,73336,5,6,0:0:0:0:
400,208,73508,2,0,L|320:208,1,64,2|8,0:0|0:0,0:0:0:0:
176,208,74025,2,0,L|48:208,1,128,2|8,0:0|0:0,0:0:0:0:
32,48,74715,5,2,0:0:0:0:
112,48,74887,1,2,0:0:0:0:
192,48,75060,2,0,L|272:48,1,64,8|0,0:0|3:0,0:0:0:0:
336,48,75405,2,0,L|416:48,2,64,2|2|8,0:0|0:0|0:0,0:0:0:0:
336,208,76094,5,2,0:0:0:0:
336,288,76267,1,2,0:0:0:0:
336,288,76353,1,0,0:0:0:0:
336,288,76439,2,0,L|416:288,1,64,8|0,0:0|3:0,0:0:0:0:
400,368,76784,2,0,L|272:368,1,128,2|8,0:0|0:0,0:0:0:0:
112,368,77474,6,0,L|32:368,1,64,2|2,0:0|0:0,0:0:0:0:
48,288,77818,2,0,L|112:288,1,64,8|0,0:0|3:0,0:0:0:0:
192,288,78163,1,2,0:0:0:0:
192,288,78336,2,0,L|256:288,2,64,2|8|0,0:0|0:0|3:0,0:0:0:0:
192,208,78853,5,6,0:0:0:0:
192,128,79025,1,2,0:0:0:0:
192,128,79112,1,0,0:0:0:0:
192,128,79198,2,0,L|272:128,1,64,8|0,0:0|3:0,0:0:0:0:
336,128,79543,2,0,L|416:128,1,64,2|2,0:0|0:0,0:0:0:0:
400,208,79887,2,0,L|464:208,1,64,8|0,0:0|3:0,0:0:0:0:
464,288,80232,5,2,0:0:0:0:
384,288,80405,1,2,0:0:0:0:
304,288,80577,2,0,L|240:288,1,64,8|0,0:0|3:0,0:0:0:0:
160,288,80922,2,0,L|96:288,2,64,2|2|8,0:0|0:0|0:0,0:0:0:0:
176,128,81612,5,2,0:0:0:0:
96,128,81784,1,2,0:0:0:0:
96,128,81870,1,0,0:0:0:0:
96,128,81956,2,0,L|32:128,1,64,8|0,0:0|3:0,0:0:0:0:
32,48,82301,2,0,L|176:48,1,128,2|8,0:0|0:0,0:0:0:0:
240,48,82818,1,0,3:0:0:0:
320,48,82991,6,0,L|384:48,1,64,2|0,0:0|0:0,0:0:0:0:
384,128,83336,2,0,L|448:128,1,64,8|0,0:0|0:0,0:0:0:0:
448,208,83680,2,0,L|512:208,1,64,0|2,3:0|0:0,0:0:0:0:
448,288,84025,2,0,L|352:288,1,96,8|0,0:0|1:0,0:0:0:0:
320,288,84370,5,6,0:0:0:0:
240,288,84543,2,0,L|176:288,2,64,2|8|0,0:0|0:0|3:0,0:0:0:0:
240,208,85060,2,0,L|176:208,1,64,2|2,0:0|0:0,0:0:0:0:
96,208,85405,2,0,L|32:208,1,64,8|0,0:0|3:0,0:0:0:0:
32,128,85749,5,2,0:0:0:0:
32,48,85922,1,2,0:0:0:0:
112,48,86094,2,0,L|176:48,1,64,8|0,0:0|3:0,0:0:0:0:
256,48,86439,2,0,L|320:48,2,64,2|2|8,0:0|0:0|0:0,0:0:0:0:
256,208,87129,5,2,0:0:0:0:
256,288,87301,1,2,0:0:0:0:
256,288,87387,1,0,0:0:0:0:
256,288,87474,2,0,L|320:288,1,64,8|0,0:0|3:0,0:0:0:0:
400,288,87818,2,0,L|464:288,3,64,2|2|8|0,0:0|0:0|0:0|3:0,0:0:0:0:
464,208,88508,6,0,L|320:208,1,128,2|8,0:0|0:0,0:0:0:0:
336,128,89025,1,0,3:0:0:0:
336,48,89198,2,0,L|400:48,2,64,2|2|8,0:0|0:0|0:0,0:0:0:0:
256,48,89715,1,0,3:0:0:0:
256,48,89801,1,0,3:0:0:0:
256,48,89887,5,6,0:0:0:0:
176,48,90060,2,0,L|112:48,1,64,2|8,0:0|0:0,0:0:0:0:
32,48,90405,1,0,3:0:0:0:
32,128,90577,2,0,L|112:128,1,64,2|2,0:0|0:0,0:0:0:0:
176,128,90922,2,0,L|256:128,1,64,8|0,0:0|3:0,0:0:0:0:
320,128,91267,6,0,L|384:128,3,64,2|2|8|0,0:0|0:0|0:0|3:0,0:0:0:0:
384,208,91956,2,0,L|256:208,1,128,2|8,0:0|0:0,0:0:0:0:
256,288,92474,1,0,3:0:0:0:
256,288,92560,1,0,3:0:0:0:
256,288,92646,6,0,L|128:288,3,128,8|8|8|8,0:0|0:0|0:0|0:0,0:0:0:0:
128,128,94025,2,0,L|32:128,2,96,2|2|2,0:0|0:0|0:0,0:0:0:0:
208,128,94715,1,12,0:0:0:0:
256,192,95405,12,0,98163,3:0:0:0:
160,256,120232,6,0,L|240:256,1,64,6|2,0:0|0:0,0:0:0:0:
304,256,120577,1,8,0:0:0:0:
384,256,120749,2,0,L|528:256,1,128,0|2,3:0|3:2,0:0:0:0:
512,256,121267,1,8,0:0:0:0:
512,128,121612,6,0,L|432:128,1,64,2|2,0:0|0:0,0:0:0:0:
368,128,121956,2,0,L|288:128,1,64,8|0,0:0|3:0,0:0:0:0:
224,128,122301,2,0,L|160:128,3,64,2|2|8|0,3:2|3:2|0:0|3:0,0:0:0:0:
160,48,122991,6,0,L|224:48,1,64,2|2,0:0|0:0,0:0:0:0:
304,48,123336,1,8,0:0:0:0:
384,48,123508,2,0,L|512:48,1,128,0|2,3:0|3:2,0:0:0:0:
512,48,124025,1,8,0:0:0:0:
512,176,124370,6,0,L|448:176,1,64,2|2,0:0|0:0,0:0:0:0:
368,176,124715,2,0,L|304:176,1,64,8|0,0:0|3:0,0:0:0:0:
224,176,125060,2,0,L|160:176,3,64,2|2|8|0,3:2|3:2|0:0|3:0,0:0:0:0:
80,176,125749,6,0,L|16:176,1,64,2|2,0:0|0:0,0:0:0:0:
16,256,126094,1,8,0:0:0:0:
16,336,126267,2,0,L|144:336,1,128,0|2,3:0|3:2,0:0:0:0:
144,336,126784,1,8,0:0:0:0:
272,336,127129,6,0,L|336:336,1,64,2|2,0:0|0:0,0:0:0:0:
416,336,127474,2,0,L|480:336,1,64,8|0,0:0|3:0,0:0:0:0:
480,256,127818,2,0,L|416:256,3,64,2|2|8|0,3:2|3:2|0:0|3:0,0:0:0:0:
336,256,128508,6,0,L|256:256,1,64,2|2,0:0|0:0,0:0:0:0:
192,256,128853,1,8,0:0:0:0:
192,176,129025,2,0,L|64:176,1,128,0|2,3:0|3:2,0:0:0:0:
64,176,129543,1,8,0:0:0:0:
64,48,129887,5,2,0:0:0:0:
144,48,130060,1,0,3:0:0:0:
144,48,130146,1,0,3:0:0:0:
144,48,130232,2,0,L|176:48,2,32,8|2|0,3:2|0:0|3:0,0:0:0:0:
256,48,130577,2,0,L|336:48,1,64,0|2,3:0|3:2,0:0:0:0:
400,48,130922,2,0,L|480:48,1,64,8|0,3:2|3:0,0:0:0:0:
464,128,131267,5,2,0:0:0:0:
464,208,131439,1,8,0:0:0:0:
464,208,131525,1,8,0:0:0:0:
464,208,131612,2,0,L|384:208,1,64,8|2,0:0|0:0,0:0:0:0:
256,352,132646,5,2,0:0:0:0:
176,352,132818,1,8,0:0:0:0:
176,352,132905,1,8,0:0:0:0:
176,352,132991,2,0,L|96:352,1,64,8|2,0:0|0:0,0:0:0:0:
48,128,134025,5,2,0:0:0:0:
48,208,134198,1,8,0:0:0:0:
48,208,134284,1,8,0:0:0:0:
48,208,134370,2,0,L|128:208,1,64,8|2,0:0|0:0,0:0:0:0:
240,208,134887,2,0,L|272:208,2,32,8|0|0,0:3|0:0|0:0,0:0:0:0:
240,288,135232,1,0,0:0:0:0:
240,368,135405,6,0,L|304:368,1,64,8|2,0:0|0:0,0:0:0:0:
384,368,135749,2,0,L|448:368,1,64,8|2,0:0|0:0,0:0:0:0:
448,288,136094,2,0,L|384:288,1,64,8|2,0:0|0:0,0:0:0:0:
304,288,136439,2,0,L|240:288,1,64,12|0,0:0|0:0,0:0:0:0:
160,288,136784,5,2,0:0:0:0:
80,288,136956,1,8,0:0:0:0:
80,288,137043,1,8,0:0:0:0:
80,288,137129,2,0,L|16:288,1,64,8|2,0:0|0:0,0:0:0:0:
160,128,138163,5,2,0:0:0:0:
240,128,138336,1,8,0:0:0:0:
240,128,138422,1,8,0:0:0:0:
240,128,138508,2,0,L|304:128,1,64,8|2,0:0|0:0,0:0:0:0:
448,288,139543,5,2,0:0:0:0:
368,288,139715,1,8,0:0:0:0:
368,288,139801,1,8,0:0:0:0:
368,288,139887,2,0,L|304:288,1,64,8|2,0:0|0:0,0:0:0:0:
512,128,140922,6,0,L|448:128,1,64,8|2,0:0|0:0,0:0:0:0:
368,64,141267,2,0,L|304:64,1,64,8|2,0:0|0:0,0:0:0:0:
208,64,141612,2,0,L|144:64,1,64,8|2,0:0|0:0,0:0:0:0:
64,128,141956,2,0,L|0:128,1,64,12|2,0:0|0:0,0:0:0:0:
0,208,142301,5,2,0:0:0:0:
0,288,142474,1,0,3:0:0:0:
0,288,142646,2,0,L|128:288,1,128,8|2,0:0|0:3,0:0:0:0:
208,288,143163,1,2,0:0:0:0:
288,288,143336,2,0,L|352:288,1,64,8|0,0:0|3:0,0:0:0:0:
352,208,143680,6,0,L|480:208,1,128,2|8,0:0|0:0,0:0:0:0:
480,128,144198,1,2,0:0:0:0:
480,48,144370,2,0,L|416:48,1,64,2|2,0:3|0:0,0:0:0:0:
336,48,144715,1,8,0:0:0:0:
336,48,144887,1,0,0:0:0:0:
256,48,145060,6,0,L|128:48,1,128,2|8,0:0|0:0,0:0:0:0:
128,128,145577,1,2,0:0:0:0:
128,128,145749,2,0,L|64:128,1,64,0|2,3:0|0:0,0:0:0:0:
64,208,146094,2,0,L|0:208,1,64,8|0,0:0|3:0,0:0:0:0:
64,288,146439,5,2,0:0:0:0:
144,288,146612,2,0,L|208:288,2,64,2|8|2,0:3|0:0|0:0,0:0:0:0:
144,368,147129,2,0,L|272:368,1,128,2|8,0:3|0:0,0:0:0:0:
272,208,147818,5,2,0:0:0:0:
352,208,147991,1,2,0:3:0:0:
352,208,148163,2,0,L|480:208,1,128,8|2,0:0|0:3,0:0:0:0:
480,128,148680,1,2,0:0:0:0:
480,48,148853,2,0,L|416:48,1,64,8|0,0:0|3:0,0:0:0:0:
336,48,149198,6,0,L|208:48,1,128,2|8,0:0|0:0,0:0:0:0:
208,128,149715,1,2,0:0:0:0:
128,128,149887,2,0,L|64:128,1,64,2|2,0:3|0:0,0:0:0:0:
64,208,150232,1,8,0:0:0:0:
64,208,150405,1,2,0:0:0:0:
64,208,150577,6,0,L|208:208,1,128,2|8,0:0|0:0,0:0:0:0:
192,288,151094,1,2,0:0:0:0:
272,288,151267,2,0,L|352:288,3,64,2|2|8|0,0:3|0:0|0:0|3:0,0:0:0:0:
416,288,151956,1,2,0:3:0:0:
416,128,152301,6,0,L|288:128,2,128,2|2|2,0:1|0:1|0:1,0:0:0:0:
416,288,153336,6,0,L|304:288,3,96,8|8|8|8,0:0|0:0|0:0|0:0,0:0:0:0:
208,288,154370,1,12,0:0:0:0:
80,192,154715,6,0,L|192:192,3,96,8|8|8|8,0:0|0:0|0:0|0:0,0:0:0:0:
288,192,155749,1,12,0:0:0:0:
416,96,156094,6,0,L|304:96,3,96,8|8|8|8,0:0|0:0|0:0|0:0,0:0:0:0:
208,96,157129,1,12,0:0:0:0:
80,0,157474,6,0,L|208:0,1,128,2|8,0:0|0:0,0:0:0:0:
288,0,157991,1,2,0:0:0:0:
368,0,158163,2,0,L|512:0,1,128,2|8,0:0|0:0,0:0:0:0:
480,160,158853,6,0,L|368:160,3,96,8|8|8|8,0:0|0:0|0:0|0:0,0:0:0:0:
272,160,159887,1,12,0:0:0:0:
144,256,160232,6,0,L|256:256,3,96,8|8|8|8,0:0|0:0|0:0|0:0,0:0:0:0:
352,256,161267,1,12,0:0:0:0:
480,352,161612,6,0,L|368:352,3,96,8|8|8|8,0:0|0:0|0:0|0:0,0:0:0:0:
272,352,162646,1,12,0:0:0:0:
144,256,162991,2,0,L|0:256,1,128,2|8,0:0|0:0,0:0:0:0:
16,176,163508,1,2,0:0:0:0:
16,96,163680,2,2,L|256:96,1,224,2|0,0:1|0:0,0:1:0:0:
272,96,164370,6,0,L|336:96,1,64,6|8,0:0|0:0,0:0:0:0:
336,176,164715,1,2,0:0:0:0:
336,176,164887,2,0,L|480:176,1,128,8|8,0:0|0:0,0:0:0:0:
464,256,165405,2,0,L|400:256,1,64,2|8,0:0|0:0,0:0:0:0:
320,256,165749,6,0,L|240:256,2,64,2|8|2,0:0|0:0|0:0,0:0:0:0:
320,336,166267,2,0,L|192:336,1,128,8|8,0:0|0:0,0:0:0:0:
32,336,166956,1,8,0:0:0:0:
32,256,167129,6,0,L|96:256,1,64,2|8,0:0|0:0,0:0:0:0:
112,176,167474,1,2,0:0:0:0:
192,176,167646,2,0,L|320:176,1,128,8|8,0:0|0:0,0:0:0:0:
320,96,168163,2,0,L|400:96,1,64,2|8,0:0|0:0,0:0:0:0:
384,16,168508,6,0,L|320:16,1,64,2|8,0:0|0:0,0:0:0:0:
240,16,168853,1,2,0:0:0:0:
160,16,169025,2,0,L|32:16,1,128,8|8,0:0|0:0,0:0:0:0:
32,176,169715,1,8,3:2:0:0:
112,176,169887,6,0,L|176:176,1,64,6|8,3:2|0:0,0:0:0:0:
256,176,170232,1,2,0:0:0:0:
336,176,170405,2,0,L|480:176,1,128,8|8,0:0|0:0,0:0:0:0:
464,256,170922,2,0,L|384:256,1,64,2|8,0:0|0:0,0:0:0:0:
400,336,171267,5,2,0:0:0:0:
320,336,171439,2,0,L|240:336,1,64,8|2,0:0|0:0,0:0:0:0:
176,336,171784,2,0,L|48:336,1,128,8|8,0:0|0:0,0:0:0:0:
48,256,172301,2,0,L|128:256,1,64,2|8,0:0|0:0,0:0:0:0:
192,256,172646,6,0,L|336:256,1,128,6|8,0:0|0:0,0:0:0:0:
400,256,173163,2,0,L|480:256,1,64,8|2,0:0|0:0,0:0:0:0:
464,176,173508,1,8,0:0:0:0:
464,96,173680,2,0,L|400:96,1,64,8|8,0:0|0:0,0:0:0:0:
320,96,174025,6,0,L|176:96,1,128,2|2,0:0|0:0,0:0:0:0:
32,96,174715,1,2,0:0:0:0:
32,256,175060,1,2,0:0:0:0:
192,256,175405,6,0,L|304:256,2,96,6|0|0,0:0|0:0|3:0,0:0:0:0:
192,176,176094,2,0,L|304:176,2,96,2|0|0,0:0|0:0|3:0,0:0:0:0:
192,96,176784,2,0,L|304:96,2,96,2|0|0,0:0|0:0|3:0,0:0:0:0:
176,16,177474,1,2,0:0:0:0:
336,16,177818,1,8,0:0:0:0:
496,16,178163,5,2,0:0:0:0:
496,96,178336,1,0,3:0:0:0:
496,96,178508,2,0,L|416:96,1,64,8|0,0:0|3:0,0:0:0:0:
352,96,178853,6,0,L|256:96,2,96,2|0|0,0:0|0:0|3:0,0:0:0:0:
352,176,179543,2,0,L|256:176,2,96,2|0|0,0:0|0:0|3:0,0:0:0:0:
352,256,180232,1,2,0:0:0:0:
512,256,180577,1,8,0:0:0:0:
352,256,180922,6,0,L|272:256,1,64,6|0,0:0|3:0,0:0:0:0:
208,256,181267,2,0,L|144:256,1,64,8|0,0:0|3:0,0:0:0:0:
64,256,181612,1,2,0:0:0:0:
64,256,181784,2,0,L|0:256,2,64,0|8|0,3:0|0:0|3:0,0:0:0:0:
64,176,182301,5,2,0:0:0:0:
64,176,182474,2,0,L|144:176,1,64,0|8,3:0|0:0,0:0:0:0:
208,176,182818,1,0,3:0:0:0:
288,176,182991,2,0,L|432:176,1,128,2|8,0:0|0:0,0:0:0:0:
416,16,183680,5,2,0:0:0:0:
336,16,183853,1,0,3:0:0:0:
336,16,183939,1,0,0:0:0:0:
336,16,184025,2,0,L|256:16,1,64,8|0,0:0|3:0,0:0:0:0:
192,16,184370,1,2,0:0:0:0:
192,16,184543,2,0,L|112:16,2,64,0|8|0,3:0|0:0|3:0,0:0:0:0:
192,96,185060,5,2,0:0:0:0:
192,176,185232,2,0,L|112:176,1,64,0|8,3:0|0:0,0:0:0:0:
48,176,185577,1,0,3:0:0:0:
48,256,185749,2,0,L|128:256,1,64,2|8,0:0|0:0,0:0:0:0:
192,256,186094,2,0,L|272:256,1,64,2|8,0:0|0:0,0:0:0:0:
336,256,186439,6,0,L|432:256,2,96,6|0|0,0:0|0:0|3:0,0:0:0:0:
336,176,187129,2,0,L|432:176,2,96,2|0|0,0:0|0:0|3:0,0:0:0:0:
336,96,187818,2,0,L|432:96,2,96,2|0|0,0:0|0:0|3:0,0:0:0:0:
336,16,188508,1,2,0:0:0:0:
176,16,188853,1,8,0:0:0:0:
176,176,189198,5,2,0:0:0:0:
176,256,189370,1,0,3:0:0:0:
176,256,189543,2,0,L|112:256,1,64,8|0,0:0|3:0,0:0:0:0:
112,336,189887,2,0,L|16:336,2,96,2|0|0,0:0|0:0|3:0,0:0:0:0:
112,256,190577,6,0,L|16:256,2,96,2|0|0,0:0|0:0|3:0,0:0:0:0:
112,176,191267,1,2,0:0:0:0:
272,176,191612,1,8,0:0:0:0:
272,16,191956,6,0,L|336:16,1,64,2|0,0:0|3:0,0:0:0:0:
416,16,192301,2,0,L|480:16,1,64,8|0,0:0|3:0,0:0:0:0:
480,96,192646,1,2,0:0:0:0:
480,96,192818,2,0,L|416:96,2,64,0|8|0,3:0|0:0|3:0,0:0:0:0:
480,176,193336,6,0,L|390:176,1,64,2|0,0:0|3:0,0:0:0:0:
336,176,193680,2,0,L|246:176,1,64,8|0,0:0|3:0,0:0:0:0:
192,176,194025,2,0,L|48:176,1,128,2|8,0:0|0:0,0:0:0:0:
48,336,194715,5,2,0:0:0:0:
128,336,194887,1,0,3:0:0:0:
128,336,194974,1,0,0:0:0:0:
128,336,195060,2,0,L|208:336,1,64,8|0,0:0|3:0,0:0:0:0:
272,336,195405,1,2,0:0:0:0:
272,336,195577,2,0,L|336:336,2,64,0|8|0,3:0|0:0|3:0,0:0:0:0:
272,256,196094,5,2,0:0:0:0:
272,256,196267,2,0,L|352:256,2,64,0|8|0,3:0|0:0|3:0,0:0:0:0:
272,176,196784,2,0,L|192:176,1,64,2|8,0:0|0:0,0:0:0:0:
128,176,197129,2,0,L|48:176,1,64,8|2,0:0|0:0,0:0:0:0:
64,96,197474,6,0,L|192:96,1,128,8|8,0:0|0:0,0:0:0:0:
320,96,198163,2,0,L|448:96,1,128,8|8,0:0|0:0,0:0:0:0:
448,224,198853,2,0,L|320:224,1,128,8|8,0:0|0:0,0:0:0:0:
192,224,199543,2,0,L|64:224,1,128,8|8,0:0|0:0,0:0:0:0:
64,352,200232,6,0,L|192:352,1,128,8|8,0:0|0:0,0:0:0:0:
320,352,200922,2,0,L|448:352,1,128,8|8,0:0|0:0,0:0:0:0:
448,224,201612,2,0,L|320:224,1,128,8|8,0:0|0:0,0:0:0:0:
192,224,202301,1,8,0:0:0:0:
112,224,202474,1,2,3:2:0:0:
112,224,202560,1,0,3:0:0:0:
112,224,202646,2,0,L|0:224,1,96,0|0,3:0|0:0,0:0:0:0:
0,224,202991,5,6,0:0:0:0:
256,64,203680,1,6,0:0:0:0:
512,224,204370,1,6,0:0:0:0:
432,224,204543,2,0,L|304:224,1,128,0|0,3:0|3:0,0:0:0:0:
224,224,205060,2,0,L|96:224,1,128,0|12,3:0|3:2,0:0:0:0:
0,352,205749,5,2,0:0:0:0:
80,352,205922,1,2,0:0:0:0:
80,352,206008,1,0,0:0:0:0:
80,352,206094,2,0,L|160:352,1,64,8|0,0:0|3:0,0:0:0:0:
224,352,206439,2,0,L|352:352,1,128,2|8,0:0|0:0,0:0:0:0:
496,280,207129,6,0,L|432:280,1,64,2|2,0:0|0:0,0:0:0:0:
352,280,207474,2,0,L|288:280,1,64,8|0,0:0|3:0,0:0:0:0:
208,280,207818,1,2,0:0:0:0:
208,280,207991,2,0,L|144:280,2,64,2|8|0,0:0|0:0|3:0,0:0:0:0:
208,200,208508,5,2,0:0:0:0:
208,120,208680,1,2,0:0:0:0:
208,120,208767,1,0,0:0:0:0:
208,120,208853,2,0,L|288:120,1,64,8|0,0:0|3:0,0:0:0:0:
272,40,209198,2,0,L|208:40,1,64,2|2,0:0|0:0,0:0:0:0:
128,40,209543,2,0,L|64:40,1,64,8|0,0:0|3:0,0:0:0:0:
64,120,209887,5,2,0:0:0:0:
64,200,210060,1,2,0:0:0:0:
144,200,210232,2,0,L|208:200,1,64,8|0,0:0|3:0,0:0:0:0:
288,200,210577,2,0,L|352:200,2,64,2|2|8,0:0|0:0|0:0,0:0:0:0:
432,272,211267,5,2,0:0:0:0:
352,272,211439,1,2,0:0:0:0:
352,272,211525,1,0,0:0:0:0:
352,272,211612,2,0,L|288:272,1,64,8|0,0:0|3:0,0:0:0:0:
208,272,211956,2,0,L|64:272,1,128,2|8,0:0|0:0,0:0:0:0:
0,272,212474,1,0,3:0:0:0:
0,192,212646,6,0,L|64:192,1,64,2|0,0:0|0:0,0:0:0:0:
64,112,212991,2,0,L|0:112,1,64,8|0,0:0|0:0,0:0:0:0:
0,32,213336,2,0,L|64:32,1,64,0|2,3:0|0:0,0:0:0:0:
144,32,213680,2,0,L|240:32,1,96,8|8,0:0|0:0,0:0:0:0:
272,32,214025,5,6,0:0:0:0:
272,112,214198,2,0,L|336:112,2,64,2|8|0,0:0|0:0|3:0,0:0:0:0:
272,192,214715,2,0,L|336:192,1,64,2|2,0:0|0:0,0:0:0:0:
416,192,215060,2,0,L|480:192,1,64,8|0,0:0|3:0,0:0:0:0:
472,272,215405,5,2,0:0:0:0:
472,352,215577,1,2,0:0:0:0:
392,352,215749,2,0,L|328:352,1,64,8|0,0:0|3:0,0:0:0:0:
248,352,216094,2,0,L|184:352,2,64,2|2|8,0:0|0:0|0:0,0:0:0:0:
288,192,216784,5,2,0:0:0:0:
208,192,216956,1,2,0:0:0:0:
208,192,217043,1,0,0:0:0:0:
208,192,217129,2,0,L|144:192,1,64,8|0,0:0|3:0,0:0:0:0:
64,192,217474,2,0,L|0:192,3,64,2|2|8|0,0:0|0:0|0:0|3:0,0:0:0:0:
0,112,218163,6,0,L|76:112,1,64,2|2,0:0|0:0,0:0:0:0:
144,112,218508,2,0,L|220:112,1,64,8|0,0:0|3:0,0:0:0:0:
288,112,218853,2,0,L|352:112,2,64,2|2|8,0:0|0:0|0:0,0:0:0:0:
288,32,219370,1,0,3:0:0:0:
288,32,219456,1,0,3:0:0:0:
288,32,219543,5,2,0:0:0:0:
208,32,219715,2,0,L|144:32,1,64,2|8,0:0|0:0,0:0:0:0:
64,32,220060,1,0,3:0:0:0:
64,112,220232,2,0,L|144:112,1,64,2|2,0:0|0:0,0:0:0:0:
128,192,220577,2,0,L|208:192,1,64,8|0,0:0|3:0,0:0:0:0:
192,272,220922,6,0,L|256:272,3,64,2|2|8|0,0:0|0:0|0:0|3:0,0:0:0:0:
256,352,221612,2,0,L|384:352,1,128,2|8,0:0|0:0,0:0:0:0:
384,272,222129,1,0,3:0:0:0:
384,272,222215,1,0,3:0:0:0:
384,272,222301,6,0,L|512:272,3,128,6|8|6|8,0:0|0:0|0:0|0:0,0:0:0:0:
512,112,223680,5,12,0:0:0:0:
512,112,223767,1,8,0:0:0:0:
512,112,223853,2,0,L|448:112,1,64,0|8,3:0|0:0,0:0:0:0:
368,112,224198,1,8,0:0:0:0:
368,112,224284,1,8,0:0:0:0:
368,112,224370,2,0,L|304:112,1,64,0|6,0:0|0:0,0:0:0:0:
224,112,224715,6,0,L|192:112,4,32,8|8|8|8|6,0:0|0:0|0:0|0:0|0:0,0:0:0:0:
224,192,225232,1,8,0:0:0:0:
224,192,225405,2,0,L|144:192,1,64,2|8,0:0|0:0,0:0:0:0:
160,272,225749,2,0,L|16:272,1,128,2|2,0:0|0:0,0:0:0:0:
32,192,226267,1,8,0:0:0:0:
32,112,226439,6,0,L|96:112,1,64,2|8,0:0|0:0,0:0:0:0:
96,32,226784,2,0,L|160:32,1,64,2|8,0:0|0:0,0:0:0:0:
240,32,227129,1,2,0:0:0:0:
320,32,227301,1,8,0:0:0:0:
400,32,227474,2,0,L|464:32,1,64,2|8,0:0|0:0,0:0:0:0:
464,112,227818,5,2,0:0:0:0:
464,192,227991,1,8,0:0:0:0:
464,192,228077,1,0,0:0:0:0:
464,192,228163,2,0,L|400:192,1,64,2|8,0:0|0:0,0:0:0:0:
320,192,228508,2,0,L|256:192,3,64,2|8|2|8,0:0|0:0|0:0|0:0,0:0:0:0:
176,192,229198,5,2,0:0:0:0:
176,272,229370,1,8,0:0:0:0:
96,272,229543,2,0,L|32:272,1,64,2|8,0:0|0:0,0:0:0:0:
32,352,229887,2,0,L|160:352,1,128,2|2,0:0|0:0,0:0:0:0:
320,352,230577,5,2,0:0:0:0:
320,272,230749,1,8,0:0:0:0:
320,272,230922,2,0,L|384:272,1,64,2|8,0:0|0:0,0:0:0:0:
384,192,231267,2,0,L|528:192,1,128,2|2,0:0|0:0,0:0:0:0:
512,32,231956,6,0,L|384:32,1,128,2|2,0:0|0:0,0:0:0:0:
224,32,232646,2,0,L|96:32,1,128,2|2,0:0|0:0,0:0:0:0:
96,192,233336,5,2,0:0:0:0:
176,192,233508,1,8,0:0:0:0:
176,192,233594,1,0,3:0:0:0:
176,192,233680,2,0,L|256:192,1,64,2|8,0:0|0:0,0:0:0:0:
320,192,234025,2,0,L|400:192,1,64,2|8,0:0|0:0,0:0:0:0:
384,272,234370,2,0,L|320:272,1,64,2|8,0:0|0:0,0:0:0:0:
240,272,234715,5,2,0:0:0:0:
240,352,234887,1,8,0:0:0:0:
160,352,235060,2,0,L|80:352,1,64,2|8,0:0|0:0,0:0:0:0:
160,272,235405,2,0,L|32:272,1,128,2|2,0:0|0:0,0:0:0:0:
32,128,236094,5,6,0:0:0:0:
112,128,236267,2,0,L|176:128,1,64,8|2,0:0|0:0,0:0:0:0:
256,128,236612,1,8,0:0:0:0:
256,48,236784,2,0,L|384:48,1,128,2|2,0:0|0:0,0:0:0:0:
464,48,237301,1,8,0:0:0:0:
464,128,237474,6,0,L|336:128,1,128,2|2,0:0|0:0,0:0:0:0:
256,128,237991,1,8,0:0:0:0:
256,208,238163,2,0,L|320:208,2,64,2|8|2,0:0|0:0|0:0,0:0:0:0:
256,368,238853,5,2,0:0:0:0:
336,368,239025,1,8,0:0:0:0:
336,368,239112,1,0,0:0:0:0:
336,368,239198,2,0,L|400:368,1,64,2|8,0:0|0:0,0:0:0:0:
400,288,239543,2,0,L|272:288,1,128,2|2,0:0|0:0,0:0:0:0:
192,288,240060,1,8,0:0:0:0:
112,288,240232,6,0,L|32:288,1,64,2|8,0:0|0:0,0:0:0:0:
48,208,240577,1,2,0:0:0:0:
48,128,240749,1,8,0:0:0:0:
48,48,240922,2,0,L|192:48,1,128,2|2,0:0|0:0,0:0:0:0:
336,48,241612,5,2,0:0:0:0:
416,48,241784,2,0,L|480:48,2,64,8|2|8,0:0|0:0|0:0,0:0:0:0:
416,128,242301,2,0,L|496:128,1,64,2|8,0:0|0:0,0:0:0:0:
480,208,242646,2,0,L|416:208,1,64,2|8,0:0|0:0,0:0:0:0:
416,288,242991,5,2,0:0:0:0:
336,288,243163,1,8,0:0:0:0:
336,368,243336,2,0,L|256:368,1,64,2|8,0:0|0:0,0:0:0:0:
192,368,243680,2,0,L|112:368,2,64,2|8|2,0:0|0:0|0:0,0:0:0:0:
192,208,244370,5,2,0:0:0:0:
112,208,244543,1,8,0:0:0:0:
112,208,244629,1,8,0:0:0:0:
112,208,244715,2,0,L|48:208,1,64,8|8,0:0|0:0,0:0:0:0:
48,128,245060,2,0,L|112:128,1,64,2|8,0:0|0:0,0:0:0:0:
192,128,245405,2,0,L|256:128,1,64,8|8,0:0|0:0,0:0:0:0:
336,128,245749,6,0,L|448:128,2,96,2|2|2,0:0|0:0|0:0,0:0:0:0:
256,128,246439,1,12,0:0:0:0:
