osu file format v14

[General]
AudioFilename: audio.mp3
AudioLeadIn: 0
PreviewTime: 18186
Countdown: 0
SampleSet: None
StackLeniency: 0.7
Mode: 1
LetterboxInBreaks: 0
WidescreenStoryboard: 1

[Editor]
Bookmarks: 18186,66995,87477,115368,164613,199476,213422
DistanceSpacing: 0.1
BeatDivisor: 4
GridSize: 32
TimelineZoom: 3.349999

[Metadata]
Title:A piece of magicmix
TitleUnicode:A piece of magicmix
Artist:Lizardking
ArtistUnicode:Lizardking
Creator:RuinedChicken
Version:Part 2
Source:
Tags:
BeatmapID:1650660
BeatmapSetID:786321

[Difficulty]
HPDrainRate:5
CircleSize:5
OverallDifficulty:6
ApproachRate:5
SliderMultiplier:1.4
SliderTickRate:1

[Events]
//Background and Video events
0,0,"maxresdefault.jpg",0,0
//Break Periods
//Storyboard Layer 0 (Background)
//Storyboard Layer 1 (Fail)
//Storyboard Layer 2 (Pass)
//Storyboard Layer 3 (Foreground)
//Storyboard Sound Samples

[TimingPoints]
755,435.793143521209,4,1,0,15,1,0
220394,-76.9230769230769,4,1,0,15,0,0
222137,-75.7575757575758,4,1,0,15,0,0
224752,-75.187969924812,4,1,0,15,0,0
225624,-74.6268656716418,4,1,0,15,0,0
227367,-74.0740740740741,4,1,0,15,0,0
229110,-73.5294117647059,4,1,0,15,0,0
230853,-72.992700729927,4,1,0,15,0,0
231725,-72.463768115942,4,1,0,15,0,0
232596,-71.9424460431655,4,1,0,15,0,0
234340,-66.6666666666667,4,1,0,15,0,1
236083,-66.2251655629139,4,1,0,15,0,1
237826,-65.7894736842105,4,1,0,15,0,1
238698,-65.359477124183,4,1,0,15,0,1
239569,-64.9350649350649,4,1,0,15,0,1
241312,-64.5161290322581,4,1,0,15,0,1
243055,-64.1025641025641,4,1,0,15,0,1
244799,-63.6942675159236,4,1,0,15,0,1
245670,-63.2911392405063,4,1,0,15,0,1
246542,-62.8930817610063,4,1,0,15,0,1
248285,-58.8235294117647,4,1,0,15,0,1
248394,-62.5,4,1,0,15,0,0
248721,-86.9565217391304,4,1,0,15,0,0

[HitObjects]
256,192,199476,5,0,0:0:0:0:
256,192,199694,1,0,0:0:0:0:
256,192,199912,1,8,0:0:0:0:
256,192,200129,1,8,0:0:0:0:
256,192,200347,1,0,0:0:0:0:
256,192,200565,1,0,0:0:0:0:
256,192,200783,1,8,0:0:0:0:
256,192,201001,1,8,0:0:0:0:
256,192,201219,1,0,0:0:0:0:
256,192,201437,1,8,0:0:0:0:
256,192,201655,1,8,0:0:0:0:
256,192,201873,1,8,0:0:0:0:
256,192,202090,1,0,0:0:0:0:
256,192,202308,1,0,0:0:0:0:
256,192,202526,1,8,0:0:0:0:
256,192,202744,1,8,0:0:0:0:
256,192,202963,1,0,0:0:0:0:
256,192,203181,1,0,0:0:0:0:
256,192,203399,1,8,0:0:0:0:
256,192,203616,1,8,0:0:0:0:
256,192,203834,1,0,0:0:0:0:
256,192,204052,1,0,0:0:0:0:
256,192,204270,1,8,0:0:0:0:
256,192,204488,1,8,0:0:0:0:
256,192,204706,1,0,0:0:0:0:
256,192,204924,1,8,0:0:0:0:
256,192,205142,1,8,0:0:0:0:
256,192,205360,1,8,0:0:0:0:
256,192,205577,1,0,0:0:0:0:
256,192,205795,1,0,0:0:0:0:
256,192,206013,1,8,0:0:0:0:
256,192,206231,1,8,0:0:0:0:
256,192,206449,1,0,0:0:0:0:
256,192,206667,1,0,0:0:0:0:
256,192,206885,1,8,0:0:0:0:
256,192,207102,1,8,0:0:0:0:
256,192,207320,1,0,0:0:0:0:
256,192,207538,1,0,0:0:0:0:
256,192,207756,1,8,0:0:0:0:
256,192,207974,1,8,0:0:0:0:
256,192,208192,1,0,0:0:0:0:
256,192,208410,1,8,0:0:0:0:
256,192,208628,1,8,0:0:0:0:
256,192,208846,1,8,0:0:0:0:
256,192,209063,1,0,0:0:0:0:
256,192,209281,1,0,0:0:0:0:
256,192,209499,1,8,0:0:0:0:
256,192,209717,1,8,0:0:0:0:
256,192,209935,1,0,0:0:0:0:
256,192,210153,1,0,0:0:0:0:
256,192,210371,1,8,0:0:0:0:
256,192,210588,1,8,0:0:0:0:
256,192,210806,1,0,0:0:0:0:
256,192,211024,1,0,0:0:0:0:
256,192,211242,1,8,0:0:0:0:
256,192,211460,1,8,0:0:0:0:
256,192,211678,1,0,0:0:0:0:
256,192,211896,1,8,0:0:0:0:
256,192,212114,1,8,0:0:0:0:
256,192,212332,1,8,0:0:0:0:
256,192,212549,1,0,0:0:0:0:
256,192,212767,1,0,0:0:0:0:
256,192,212985,1,8,0:0:0:0:
256,192,213203,1,8,0:0:0:0:
256,192,213422,1,12,0:0:0:0:
256,192,213858,1,8,0:0:0:0:
256,192,214294,1,8,0:0:0:0:
256,192,214403,1,8,0:0:0:0:
256,192,214511,1,8,0:0:0:0:
256,192,214620,1,8,0:0:0:0:
256,192,214729,1,0,0:0:0:0:
256,192,214947,1,0,0:0:0:0:
256,192,216473,1,0,0:0:0:0:
256,192,216581,1,8,0:0:0:0:
256,192,216690,1,8,0:0:0:0:
256,192,216799,1,8,0:0:0:0:
256,192,216908,1,0,0:0:0:0:
256,192,217017,1,8,0:0:0:0:
256,192,217126,1,8,0:0:0:0:
256,192,217344,1,0,0:0:0:0:
256,192,217780,1,0,0:0:0:0:
256,192,217889,1,8,0:0:0:0:
256,192,217998,1,8,0:0:0:0:
256,192,218107,1,0,0:0:0:0:
256,192,218216,1,0,0:0:0:0:
256,192,218434,1,0,0:0:0:0:
256,192,220394,1,0,0:0:0:0:
256,192,220503,1,0,0:0:0:0:
256,192,220612,1,8,0:0:0:0:
256,192,220721,1,0,0:0:0:0:
256,192,220830,1,8,0:0:0:0:
256,192,220939,1,0,0:0:0:0:
256,192,221048,1,0,0:0:0:0:
256,192,221157,1,8,0:0:0:0:
256,192,222137,1,0,0:0:0:0:
256,192,222246,1,0,0:0:0:0:
256,192,222355,1,8,0:0:0:0:
256,192,222464,1,0,0:0:0:0:
256,192,222573,1,8,0:0:0:0:
256,192,222682,1,8,0:0:0:0:
256,192,222791,1,0,0:0:0:0:
256,192,222900,1,8,0:0:0:0:
256,192,223881,1,0,0:0:0:0:
256,192,223990,1,0,0:0:0:0:
256,192,224099,1,8,0:0:0:0:
256,192,224208,1,0,0:0:0:0:
256,192,224317,1,8,0:0:0:0:
256,192,224426,1,0,0:0:0:0:
256,192,224535,1,0,0:0:0:0:
256,192,224644,1,8,0:0:0:0:
256,192,224752,1,0,0:0:0:0:
256,192,224861,1,0,0:0:0:0:
256,192,224970,1,8,0:0:0:0:
256,192,225079,1,0,0:0:0:0:
256,192,225188,1,8,0:0:0:0:
256,192,225297,1,0,0:0:0:0:
256,192,225406,1,0,0:0:0:0:
256,192,225515,1,8,0:0:0:0:
256,192,225624,1,0,0:0:0:0:
256,192,225733,1,0,0:0:0:0:
256,192,225842,1,8,0:0:0:0:
256,192,225951,1,0,0:0:0:0:
256,192,226060,1,8,0:0:0:0:
256,192,226169,1,8,0:0:0:0:
256,192,226278,1,0,0:0:0:0:
256,192,226387,1,8,0:0:0:0:
256,192,227367,1,0,0:0:0:0:
256,192,227476,1,0,0:0:0:0:
256,192,227585,1,8,0:0:0:0:
256,192,227694,1,0,0:0:0:0:
256,192,227803,1,8,0:0:0:0:
256,192,227912,1,0,0:0:0:0:
256,192,228021,1,0,0:0:0:0:
256,192,228130,1,8,0:0:0:0:
256,192,229110,1,0,0:0:0:0:
256,192,229219,1,0,0:0:0:0:
256,192,229328,1,8,0:0:0:0:
256,192,229437,1,0,0:0:0:0:
256,192,229546,1,8,0:0:0:0:
256,192,229655,1,8,0:0:0:0:
256,192,229764,1,0,0:0:0:0:
256,192,229873,1,8,0:0:0:0:
256,192,230853,1,0,0:0:0:0:
256,192,230962,1,0,0:0:0:0:
256,192,231071,1,8,0:0:0:0:
256,192,231180,1,0,0:0:0:0:
256,192,231289,1,8,0:0:0:0:
256,192,231398,1,0,0:0:0:0:
256,192,231507,1,0,0:0:0:0:
256,192,231616,1,8,0:0:0:0:
256,192,231725,1,0,0:0:0:0:
256,192,231834,1,0,0:0:0:0:
256,192,231943,1,8,0:0:0:0:
256,192,232052,1,0,0:0:0:0:
256,192,232161,1,8,0:0:0:0:
256,192,232270,1,0,0:0:0:0:
256,192,232379,1,0,0:0:0:0:
256,192,232488,1,8,0:0:0:0:
256,192,232596,1,0,0:0:0:0:
256,192,232705,1,0,0:0:0:0:
256,192,232814,1,8,0:0:0:0:
256,192,232923,1,0,0:0:0:0:
256,192,233032,1,8,0:0:0:0:
256,192,233141,1,0,0:0:0:0:
256,192,233250,1,0,0:0:0:0:
256,192,233359,1,8,0:0:0:0:
256,192,233468,1,8,0:0:0:0:
256,192,233577,1,0,0:0:0:0:
256,192,233686,1,8,0:0:0:0:
256,192,233795,1,0,0:0:0:0:
256,192,233904,1,8,0:0:0:0:
256,192,234013,1,0,0:0:0:0:
256,192,234122,1,0,0:0:0:0:
256,192,234231,1,8,0:0:0:0:
256,192,234340,1,0,0:0:0:0:
256,192,234449,1,0,0:0:0:0:
256,192,234558,1,8,0:0:0:0:
256,192,234667,1,0,0:0:0:0:
256,192,234776,1,8,0:0:0:0:
256,192,234885,1,0,0:0:0:0:
256,192,234994,1,0,0:0:0:0:
256,192,235103,1,8,0:0:0:0:
256,192,236083,1,0,0:0:0:0:
256,192,236192,1,0,0:0:0:0:
256,192,236301,1,8,0:0:0:0:
256,192,236410,1,0,0:0:0:0:
256,192,236519,1,8,0:0:0:0:
256,192,236628,1,8,0:0:0:0:
256,192,236737,1,0,0:0:0:0:
256,192,236846,1,8,0:0:0:0:
256,192,237826,1,0,0:0:0:0:
256,192,237935,1,0,0:0:0:0:
256,192,238044,1,8,0:0:0:0:
256,192,238153,1,0,0:0:0:0:
256,192,238262,1,8,0:0:0:0:
256,192,238371,1,0,0:0:0:0:
256,192,238480,1,0,0:0:0:0:
256,192,238589,1,8,0:0:0:0:
256,192,238697,1,0,0:0:0:0:
256,192,238806,1,0,0:0:0:0:
256,192,238915,1,8,0:0:0:0:
256,192,239024,1,0,0:0:0:0:
256,192,239133,1,8,0:0:0:0:
256,192,239242,1,0,0:0:0:0:
256,192,239351,1,0,0:0:0:0:
256,192,239460,1,8,0:0:0:0:
256,192,239569,1,0,0:0:0:0:
256,192,239678,1,0,0:0:0:0:
256,192,239787,1,8,0:0:0:0:
256,192,239896,1,0,0:0:0:0:
256,192,240005,1,8,0:0:0:0:
256,192,240114,1,8,0:0:0:0:
256,192,240223,1,0,0:0:0:0:
256,192,240332,1,8,0:0:0:0:
256,192,241312,1,0,0:0:0:0:
256,192,241421,1,0,0:0:0:0:
256,192,241530,1,8,0:0:0:0:
256,192,241639,1,0,0:0:0:0:
256,192,241748,1,8,0:0:0:0:
256,192,241857,1,0,0:0:0:0:
256,192,241966,1,0,0:0:0:0:
256,192,242075,1,8,0:0:0:0:
256,192,243055,1,0,0:0:0:0:
256,192,243164,1,0,0:0:0:0:
256,192,243273,1,8,0:0:0:0:
256,192,243382,1,0,0:0:0:0:
256,192,243491,1,8,0:0:0:0:
256,192,243600,1,8,0:0:0:0:
256,192,243709,1,0,0:0:0:0:
256,192,243818,1,8,0:0:0:0:
256,192,244799,1,0,0:0:0:0:
256,192,244908,1,0,0:0:0:0:
256,192,245017,1,8,0:0:0:0:
256,192,245126,1,0,0:0:0:0:
256,192,245235,1,8,0:0:0:0:
256,192,245344,1,0,0:0:0:0:
256,192,245453,1,0,0:0:0:0:
256,192,245562,1,8,0:0:0:0:
256,192,245671,1,0,0:0:0:0:
256,192,245780,1,0,0:0:0:0:
256,192,245889,1,8,0:0:0:0:
256,192,245998,1,0,0:0:0:0:
256,192,246107,1,8,0:0:0:0:
256,192,246216,1,0,0:0:0:0:
256,192,246325,1,0,0:0:0:0:
256,192,246434,1,8,0:0:0:0:
256,192,246542,1,0,0:0:0:0:
256,192,246651,1,0,0:0:0:0:
256,192,246760,1,8,0:0:0:0:
256,192,246869,1,0,0:0:0:0:
256,192,246978,1,8,0:0:0:0:
256,192,247087,1,0,0:0:0:0:
256,192,247196,1,0,0:0:0:0:
256,192,247305,1,8,0:0:0:0:
256,192,247414,1,8,0:0:0:0:
256,192,247523,1,0,0:0:0:0:
256,192,247632,1,8,0:0:0:0:
256,192,247741,1,0,0:0:0:0:
256,192,247850,1,8,0:0:0:0:
256,192,247959,1,0,0:0:0:0:
256,192,248068,1,0,0:0:0:0:
256,192,248177,1,8,0:0:0:0:
256,192,248285,1,4,0:0:0:0:
256,192,248721,1,8,0:0:0:0:
256,192,249157,1,8,0:0:0:0:
256,192,249266,1,8,0:0:0:0:
256,192,249374,1,8,0:0:0:0:
256,192,249483,1,8,0:0:0:0:
256,192,249592,1,0,0:0:0:0:
256,192,249810,1,0,0:0:0:0:
256,192,251336,1,0,0:0:0:0:
256,192,251444,1,8,0:0:0:0:
256,192,251553,1,8,0:0:0:0:
256,192,251662,1,8,0:0:0:0:
256,192,251771,1,0,0:0:0:0:
256,192,251880,1,8,0:0:0:0:
256,192,251989,1,8,0:0:0:0:
256,192,252207,1,0,0:0:0:0:
256,192,252643,1,0,0:0:0:0:
256,192,252752,1,8,0:0:0:0:
256,192,252861,1,8,0:0:0:0:
256,192,252970,1,0,0:0:0:0:
256,192,253079,1,0,0:0:0:0:
256,192,253297,1,0,0:0:0:0:
256,192,255258,1,8,0:0:0:0:
256,192,255330,1,8,0:0:0:0:
256,192,255403,1,8,0:0:0:0:
256,192,255476,1,0,0:0:0:0:
256,192,255693,1,8,0:0:0:0:
256,192,255911,1,0,0:0:0:0:
256,192,256129,1,8,0:0:0:0:
256,192,256202,1,8,0:0:0:0:
256,192,256275,1,8,0:0:0:0:
256,192,256347,1,8,0:0:0:0:
256,192,256456,1,0,0:0:0:0:
256,192,257001,1,8,0:0:0:0:
256,192,257110,1,8,0:0:0:0:
256,192,257219,1,0,0:0:0:0:
256,192,257437,1,0,0:0:0:0:
256,192,257655,1,8,0:0:0:0:
256,192,257764,1,0,0:0:0:0:
256,192,257981,1,0,0:0:0:0:
256,192,258090,1,0,0:0:0:0:
256,192,258308,1,8,0:0:0:0:
256,192,258744,1,0,0:0:0:0:
256,192,258817,1,0,0:0:0:0:
256,192,258889,1,0,0:0:0:0:
256,192,259035,1,0,0:0:0:0:
256,192,259180,1,8,0:0:0:0:
256,192,259398,1,0,0:0:0:0:
256,192,259616,1,8,0:0:0:0:
256,192,259688,1,0,0:0:0:0:
256,192,259761,1,0,0:0:0:0:
256,192,259834,1,0,0:0:0:0:
256,192,259906,1,8,0:0:0:0:
256,192,260487,1,8,0:0:0:0:
256,192,260560,1,0,0:0:0:0:
256,192,260632,1,0,0:0:0:0:
256,192,260705,1,0,0:0:0:0:
256,192,260814,1,0,0:0:0:0:
256,192,260923,1,8,0:0:0:0:
256,192,261032,1,0,0:0:0:0:
256,192,261141,1,0,0:0:0:0:
256,192,261250,1,8,0:0:0:0:
256,192,261359,1,0,0:0:0:0:
256,192,262230,1,8,0:0:0:0:
256,192,262302,1,8,0:0:0:0:
256,192,262375,1,8,0:0:0:0:
256,192,262448,1,0,0:0:0:0:
256,192,262665,1,8,0:0:0:0:
256,192,262883,1,0,0:0:0:0:
256,192,263101,1,8,0:0:0:0:
256,192,263174,1,8,0:0:0:0:
256,192,263247,1,8,0:0:0:0:
256,192,263319,1,8,0:0:0:0:
256,192,263428,1,0,0:0:0:0:
256,192,263973,1,8,0:0:0:0:
256,192,264082,1,8,0:0:0:0:
256,192,264191,1,0,0:0:0:0:
256,192,264409,1,0,0:0:0:0:
256,192,264627,1,8,0:0:0:0:
256,192,264736,1,0,0:0:0:0:
256,192,264953,1,0,0:0:0:0:
256,192,265062,1,0,0:0:0:0:
256,192,265280,1,8,0:0:0:0:
256,192,265716,1,0,0:0:0:0:
256,192,265789,1,0,0:0:0:0:
256,192,265861,1,0,0:0:0:0:
256,192,266007,1,0,0:0:0:0:
256,192,266152,1,8,0:0:0:0:
256,192,266370,1,0,0:0:0:0:
256,192,266588,1,8,0:0:0:0:
256,192,266660,1,0,0:0:0:0:
256,192,266733,1,0,0:0:0:0:
256,192,266806,1,0,0:0:0:0:
256,192,266878,1,8,0:0:0:0:
256,192,267459,1,8,0:0:0:0:
256,192,267532,1,0,0:0:0:0:
256,192,267604,1,0,0:0:0:0:
256,192,267677,1,0,0:0:0:0:
256,192,267786,1,0,0:0:0:0:
256,192,267895,1,8,0:0:0:0:
256,192,268004,1,0,0:0:0:0:
256,192,268113,1,0,0:0:0:0:
256,192,268222,1,8,0:0:0:0:
256,192,268331,1,0,0:0:0:0:
256,192,269203,1,8,0:0:0:0:
247,200,269276,1,0,0:0:0:0:
258,186,269348,1,0,0:0:0:0:
258,186,269421,1,0,0:0:0:0:
256,192,269530,1,0,0:0:0:0:
258,186,269639,1,8,0:0:0:0:
256,192,269857,1,0,0:0:0:0:
256,192,269966,1,8,0:0:0:0:
259,194,270184,1,8,0:0:0:0:
259,194,270293,1,0,0:0:0:0:
258,186,270510,1,0,0:0:0:0:
256,192,270728,1,8,0:0:0:0:
259,194,270946,1,8,0:0:0:0:
259,194,271019,1,8,0:0:0:0:
259,194,271092,1,8,0:0:0:0:
259,194,271164,1,8,0:0:0:0:
261,200,271273,1,0,0:0:0:0:
263,194,271382,1,0,0:0:0:0:
261,200,271600,1,8,0:0:0:0:
265,196,271709,1,0,0:0:0:0:
259,194,271927,1,8,0:0:0:0:
259,194,272036,1,0,0:0:0:0:
255,192,272254,1,8,0:0:0:0:
255,192,272363,1,0,0:0:0:0:
255,192,272472,1,0,0:0:0:0:
259,194,272689,1,8,0:0:0:0:
259,194,272798,1,8,0:0:0:0:
259,194,272907,1,8,0:0:0:0:
261,196,273125,1,8,0:0:0:0:
261,192,273343,1,0,0:0:0:0:
259,194,273452,1,8,0:0:0:0:
259,194,273670,1,8,0:0:0:0:
259,194,273779,1,0,0:0:0:0:
261,190,273997,1,8,0:0:0:0:
261,192,274106,1,0,0:0:0:0:
261,192,274215,1,0,0:0:0:0:
259,194,274324,1,0,0:0:0:0:
265,188,274433,1,8,0:0:0:0:
265,188,274505,1,8,0:0:0:0:
265,188,274578,1,8,0:0:0:0:
265,188,274650,1,8,0:0:0:0:
261,190,274759,1,0,0:0:0:0:
261,190,274868,1,8,0:0:0:0:
261,192,275086,1,0,0:0:0:0:
261,188,275195,1,8,0:0:0:0:
265,188,275413,1,8,0:0:0:0:
265,188,275522,1,8,0:0:0:0:
261,190,275631,1,0,0:0:0:0:
261,190,275740,1,0,0:0:0:0:
259,182,275813,1,0,0:0:0:0:
257,186,275885,1,0,0:0:0:0:
261,188,275958,1,0,0:0:0:0:
262,194,276067,1,0,0:0:0:0:
256,192,276176,1,8,0:0:0:0:
247,200,276249,1,0,0:0:0:0:
258,186,276321,1,0,0:0:0:0:
258,186,276394,1,0,0:0:0:0:
256,192,276503,1,0,0:0:0:0:
258,186,276612,1,8,0:0:0:0:
256,192,276830,1,0,0:0:0:0:
256,192,276939,1,8,0:0:0:0:
259,194,277157,1,8,0:0:0:0:
259,194,277266,1,0,0:0:0:0:
258,186,277483,1,0,0:0:0:0:
256,192,277701,1,8,0:0:0:0:
259,194,277919,1,8,0:0:0:0:
259,194,277992,1,8,0:0:0:0:
259,194,278065,1,8,0:0:0:0:
259,194,278137,1,8,0:0:0:0:
261,200,278246,1,0,0:0:0:0:
263,194,278355,1,0,0:0:0:0:
261,200,278573,1,8,0:0:0:0:
265,196,278682,1,0,0:0:0:0:
259,194,278900,1,8,0:0:0:0:
259,194,279009,1,0,0:0:0:0:
255,192,279227,1,8,0:0:0:0:
255,192,279336,1,0,0:0:0:0:
255,192,279445,1,0,0:0:0:0:
259,194,279662,1,8,0:0:0:0:
259,194,279771,1,8,0:0:0:0:
259,194,279880,1,8,0:0:0:0:
261,196,280098,1,8,0:0:0:0:
261,192,280316,1,0,0:0:0:0:
259,194,280425,1,8,0:0:0:0:
259,194,280643,1,8,0:0:0:0:
259,194,280752,1,0,0:0:0:0:
261,190,280970,1,8,0:0:0:0:
261,192,281079,1,0,0:0:0:0:
261,192,281188,1,0,0:0:0:0:
259,194,281297,1,0,0:0:0:0:
265,188,281406,1,8,0:0:0:0:
265,188,281478,1,8,0:0:0:0:
265,188,281551,1,8,0:0:0:0:
265,188,281623,1,8,0:0:0:0:
261,190,281732,1,0,0:0:0:0:
261,190,281841,1,8,0:0:0:0:
261,192,282059,1,0,0:0:0:0:
261,188,282168,1,8,0:0:0:0:
265,188,282386,1,8,0:0:0:0:
265,188,282495,1,8,0:0:0:0:
261,190,282604,1,0,0:0:0:0:
261,190,282713,1,0,0:0:0:0:
259,182,282786,1,0,0:0:0:0:
257,186,282858,1,0,0:0:0:0:
261,188,282931,1,0,0:0:0:0:
262,194,283040,1,0,0:0:0:0:
256,192,283148,1,12,0:0:0:0:
256,192,283584,1,8,0:0:0:0:
256,192,284020,1,8,0:0:0:0:
256,192,284129,1,8,0:0:0:0:
256,192,284237,1,8,0:0:0:0:
256,192,284346,1,8,0:0:0:0:
256,192,284455,1,0,0:0:0:0:
256,192,284673,1,0,0:0:0:0:
256,192,286199,1,0,0:0:0:0:
256,192,286307,1,8,0:0:0:0:
256,192,286416,1,8,0:0:0:0:
256,192,286525,1,8,0:0:0:0:
256,192,286634,1,0,0:0:0:0:
256,192,286743,1,8,0:0:0:0:
256,192,286852,1,8,0:0:0:0:
256,192,287070,1,0,0:0:0:0:
256,192,287506,1,0,0:0:0:0:
256,192,287615,1,8,0:0:0:0:
256,192,287724,1,8,0:0:0:0:
256,192,287833,1,0,0:0:0:0:
256,192,287942,1,0,0:0:0:0:
256,192,288160,1,0,0:0:0:0:
256,192,290121,5,0,0:0:0:0:
256,192,290339,1,0,0:0:0:0:
256,192,290557,1,8,0:0:0:0:
256,192,290774,1,8,0:0:0:0:
256,192,290992,1,0,0:0:0:0:
256,192,291210,1,0,0:0:0:0:
256,192,291428,1,8,0:0:0:0:
256,192,291646,1,8,0:0:0:0:
256,192,291864,1,0,0:0:0:0:
256,192,292082,1,8,0:0:0:0:
256,192,292300,1,8,0:0:0:0:
256,192,292518,1,8,0:0:0:0:
256,192,292735,1,0,0:0:0:0:
256,192,292953,1,0,0:0:0:0:
256,192,293171,1,8,0:0:0:0:
256,192,293389,1,8,0:0:0:0:
256,192,293607,5,0,0:0:0:0:
256,192,293825,1,0,0:0:0:0:
256,192,294043,1,8,0:0:0:0:
256,192,294260,1,8,0:0:0:0:
256,192,294478,1,0,0:0:0:0:
256,192,294696,1,0,0:0:0:0:
256,192,294914,1,8,0:0:0:0:
256,192,295132,1,8,0:0:0:0:
256,192,295350,1,0,0:0:0:0:
256,192,295568,1,8,0:0:0:0:
256,192,295786,1,8,0:0:0:0:
256,192,296004,1,8,0:0:0:0:
256,192,296221,1,0,0:0:0:0:
256,192,296439,1,0,0:0:0:0:
256,192,296657,1,8,0:0:0:0:
256,192,296875,1,8,0:0:0:0:
263,190,297094,1,8,0:0:0:0:
263,190,297203,1,8,0:0:0:0:
263,190,297421,1,8,0:0:0:0:
263,190,297530,1,8,0:0:0:0:
256,192,297748,1,8,0:0:0:0:
263,190,297856,1,8,0:0:0:0:
263,190,298074,1,8,0:0:0:0:
263,190,298183,1,8,0:0:0:0:
263,190,298292,1,8,0:0:0:0:
263,190,298401,1,0,0:0:0:0:
256,192,298510,1,0,0:0:0:0:
256,192,298619,1,0,0:0:0:0:
263,190,298728,1,0,0:0:0:0:
