osu file format v14

[General]
AudioFilename: audio.mp3
AudioLeadIn: 0
PreviewTime: 524637
Countdown: 0
SampleSet: Soft
StackLeniency: 0.7
Mode: 0
LetterboxInBreaks: 0
WidescreenStoryboard: 1

[Editor]
Bookmarks: 2519,25290,61931,80251,113228,148038,153523,202895,228952,266666,301575,330416,343667,356182,384417,390064,424349,435552,490409,501209,524694,538409,560352,574271,596960
DistanceSpacing: 0.8
BeatDivisor: 6
GridSize: 4
TimelineZoom: 2

[Metadata]
Title:With Triangle
TitleUnicode:With Triangle
Artist:Liz Triangle
ArtistUnicode:Liz Triangle
Creator:Mirash
Version:Extra Stage
Source:東方Project
Tags:satellite delis shirohamymommy touhou compilation lily-an marathon collaboration collab zun video game 東方 japanese pop rock female vocal ありがとう arigatou moon light step アナザーエゴ another ego ハレーション・リモーション halation remotion the starry true l50 夜のサーカス yoru no circus witches night who killed u.n.owen 神楽 kagura 雷々伝々 kaminari tsutae 明神変化 myoujin henka 神風 kamikaze ライン line ハウリング howling インモータル フィロソフィー immortal philosophy 星を飛び越えて hoshi o tobikoete リトルドリーマー little dreamer エーテルの海 ether no umi ficus glomerata ポーカーフェイサー lr first strike! シンソウダイバー reunion インモータル フィロソフィー b1 white lotus... カラスとウサギ 神風 冬蛍 散花 ヒミツパビリオン 東方永夜抄 ~ Imperishable Night. 東方紅魔郷 ~ the Embodiment of Scarlet Devil. 東方地霊殿 ~ Subterranean Animism. 東方心綺楼 ~ Hopeless Masquerade. 東方神霊廟 ~ Ten Desires. 東方花映塚 ~ Phantasmagoria of Flower View. 東方紺珠伝 ~ Legacy of Lunatic Kingdom. 東方星蓮船 ~ Undefined Fantastic Object. 東方輝針城 ~ Double Dealing Character. 東方文花帖 ~ Shoot the Bullet. 東方深秘録 ~ Urban Legend in Limbo. 大空魔術 ~ Magical Astronomy
BeatmapID:2258803
BeatmapSetID:1079638

[Difficulty]
HPDrainRate:5
CircleSize:4
OverallDifficulty:8
ApproachRate:8.5
SliderMultiplier:1.7
SliderTickRate:1

[Events]
//Background and Video events
0,0,"BG.jpg",0,0
//Break Periods
2,148009,152848
2,392921,400817
2,404371,406174
2,410264,411531
2,435752,439677
2,557980,559677
//Storyboard Layer 0 (Background)
//Storyboard Layer 1 (Fail)
//Storyboard Layer 2 (Pass)
//Storyboard Layer 3 (Foreground)
//Storyboard Layer 4 (Overlay)
//Storyboard Sound Samples

[TimingPoints]
2519,722.89156626506,4,2,1,50,1,0
2519,-142.857142857143,4,2,1,40,0,0
21314,-200,4,2,1,40,0,0
25290,458.015267175573,4,2,1,60,1,0
40404,-125,4,2,1,50,0,0
53228,-125,4,2,1,40,0,0
53686,-125,4,2,1,50,0,0
54144,-125,4,2,1,60,0,0
54602,-83.3333333333333,4,2,1,70,0,0
56893,-100,4,2,1,60,0,0
58267,-83.3333333333333,4,2,1,70,0,0
61931,-100,4,2,1,60,0,0
71091,-83.3333333333333,4,2,1,70,0,0
72465,-100,4,2,1,60,0,0
74755,-100,4,2,1,70,0,0
75213,-125,4,2,1,40,0,0
75671,-125,4,2,1,50,0,0
76129,-125,4,2,1,60,0,0
76587,-83.3333333333333,4,2,1,70,0,0
80251,-100,4,2,1,70,0,0
113228,-125,4,2,1,50,0,0
121473,-125,4,2,1,40,0,0
121931,-125,4,2,1,50,0,0
122389,-125,4,2,1,60,0,0
122847,-83.3333333333333,4,2,1,70,0,0
124221,-100,4,2,1,70,0,0
145290,-125,4,2,1,40,0,0
145748,-125,4,2,1,50,0,0
146206,-125,4,2,1,60,0,0
146664,-83.3333333333333,4,2,1,70,0,0
147122,-83.3333333333333,4,2,1,80,0,0
148038,342.857142857143,4,2,1,70,1,0
158666,-100,4,2,1,40,0,0
158838,-100,4,2,1,70,0,0
164495,-125,4,2,1,60,0,0
166723,-125,4,2,1,30,0,0
167066,-125,4,2,1,60,0,0
172723,-100,4,2,1,70,0,0
186438,-166.666666666667,4,2,1,60,0,0
197409,-166.666666666667,4,2,1,70,0,0
202552,-166.666666666667,4,2,1,60,0,0
202895,-166.666666666667,4,2,1,50,0,0
204266,-111.111111111111,4,2,1,50,0,0
205638,-142.857142857143,4,2,1,50,0,0
211123,-142.857142857143,4,2,1,60,0,0
216609,-111.111111111111,4,2,1,60,0,0
217980,-100,4,2,1,70,0,0
226209,-200,4,2,1,50,0,0
228695,-133.333333333333,4,2,1,50,0,0
228952,-83.3333333333333,4,2,1,70,0,0
237009,-83.3333333333333,4,2,1,60,0,0
241123,-83.3333333333333,4,2,1,70,0,0
244038,-83.3333333333333,4,2,1,60,0,0
246609,-83.3333333333333,4,2,1,70,0,0
249523,-83.3333333333333,4,2,1,60,0,0
252095,-83.3333333333333,4,2,1,70,0,0
255009,-83.3333333333333,4,2,1,60,0,0
257580,-83.3333333333333,4,2,1,70,0,0
259809,-83.3333333333333,4,2,1,60,0,0
260495,-83.3333333333333,4,2,1,70,0,0
261180,-83.3333333333333,4,2,1,50,0,0
262038,-133.333333333333,4,2,1,60,0,0
265980,-100,4,2,1,50,0,0
266666,363.636363636364,4,2,1,60,1,0
268847,-125,4,2,1,60,0,0
269211,-166.666666666667,4,2,1,60,0,0
269575,-100,4,2,1,60,0,0
271756,-125,4,2,1,60,0,0
272120,-166.666666666667,4,2,1,60,0,0
272726,-100,4,2,1,60,0,0
275029,-125,4,2,1,60,0,0
275393,-83.3333333333333,4,2,1,60,0,0
287029,-125,4,2,1,60,0,0
288484,-100,4,2,1,60,0,0
298666,-125,4,2,1,60,0,0
300484,-100,4,2,1,50,0,0
301575,352.941176470588,4,2,1,50,1,0
301575,-100,4,2,1,30,0,0
301927,-100,4,2,1,40,0,0
302986,-100,4,2,1,60,0,0
312692,375,4,2,1,60,1,0
313254,408.163265306122,4,2,1,60,1,0
313662,-125,4,2,1,60,0,0
314070,-142.857142857143,4,2,1,60,0,0
314478,408.163265306122,4,2,1,60,1,0
314478,-100,4,2,1,60,0,0
316110,402.684563758389,4,2,1,60,1,0
317318,-125,4,2,1,60,0,0
317720,-100,4,2,1,60,0,0
318123,-83.3333333333333,4,2,1,60,0,0
318526,-100,4,2,1,60,0,0
318928,-83.3333333333333,4,2,1,60,0,0
319331,408.163265306122,4,2,1,60,1,0
319331,-83.3333333333333,4,2,1,60,0,0
320963,400,4,2,1,60,1,0
322563,-83.3333333333333,4,2,1,60,0,0
324163,392.156862745098,4,2,1,60,1,0
325731,397.350993377483,4,2,1,60,1,0
327320,392.156862745098,4,2,1,60,1,0
328888,382.165605095541,4,2,1,60,1,0
330416,368.098159509202,4,2,1,50,1,0
331888,-83.3333333333333,4,2,1,60,0,0
343299,-125,4,2,1,60,0,0
343667,-83.3333333333333,4,2,1,60,0,0
354802,368.098159509202,4,2,1,50,1,0
356182,352.941176470588,4,2,1,70,1,0
390064,357.142857142857,4,2,1,50,1,0
401492,-125,4,2,1,50,0,0
412921,-100,4,2,1,50,0,0
421492,-100,4,2,1,60,0,0
424349,-100,4,2,1,70,0,0
425778,355.029585798817,4,2,1,70,1,0
427198,352.941176470588,4,2,1,70,1,0
428609,350.877192982456,4,2,1,70,1,0
430012,348.837209302326,4,2,1,70,1,0
431407,346.820809248555,4,2,1,70,1,0
432794,344.827586206897,4,2,1,70,1,0
435552,342.857142857143,4,2,1,70,1,0
510294,-83.3333333333333,4,2,1,70,0,0
527266,-100,4,2,1,70,0,0
532752,-125,4,2,1,70,0,0
533094,-100,4,2,1,70,0,0
547323,-133.333333333333,4,2,1,70,0,0
560352,344.827586206897,4,2,1,50,1,0
560352,-200,4,2,1,40,0,0
561731,346.820809248555,4,2,1,40,1,0
561731,-200,4,2,1,40,0,0
563118,348.837209302326,4,2,1,40,1,0
563118,-200,4,2,1,40,0,0
564513,346.820809248555,4,2,1,40,1,0
564686,-200,4,2,1,40,0,0
565900,363.636363636364,4,2,1,40,1,0
565900,-200,4,2,1,40,0,0
567354,348.837209302326,4,2,1,40,1,0
567354,-200,4,2,1,40,0,0
567615,348.837209302326,4,2,1,40,1,0
567789,-200,4,2,1,40,0,0
568809,465.116279069767,4,2,1,40,1,0
568809,-200,4,2,1,40,0,0
569739,483.870967741935,4,2,1,40,1,0
569980,-200,4,2,1,40,0,0
570706,454.545454545455,4,2,1,40,1,0
570706,-200,4,2,1,40,0,0
571615,512.820512820513,4,2,1,40,1,0
571615,-200,4,2,1,40,0,0
572130,576.923076923077,4,2,1,40,1,0
572418,-200,4,2,1,40,0,0
572706,782.268578878748,4,2,1,40,1,0
574270,352.941176470588,4,2,1,40,1,0
575681,375,4,2,1,40,1,0
575681,-142.857142857143,4,2,1,50,0,0
577181,454.545454545455,5,2,1,50,1,0
577181,-142.857142857143,5,2,1,50,0,0
579453,750,4,2,1,50,1,0
580203,375,4,2,1,50,1,0
583203,397.350993377483,4,2,1,50,1,0
584395,545.454545454546,4,2,1,50,1,0
585485,379.746835443038,4,2,1,50,1,0
585485,-166.666666666667,4,2,1,50,0,0
586244,500,4,2,1,50,1,0
586244,-166.666666666667,4,2,1,50,0,0
587744,375,4,2,1,50,1,0
589244,-166.666666666667,4,2,1,50,0,0
594869,394.736842105263,4,2,1,50,1,0
594869,-200,4,2,1,50,0,0
596447,512.820512820513,4,2,1,50,1,0
596447,-200,4,2,1,50,0,0
596959,500,4,2,1,50,1,0
606959,517.241379310345,4,2,1,50,1,0
607734,571.428571428571,4,2,1,50,1,0
608019,600,4,2,1,50,1,0
608319,588.235294117647,4,2,1,50,1,0
608613,550.45871559633,4,2,1,50,1,0
608888,631.578947368421,4,2,1,50,1,0
609203,631.578947368421,4,2,1,50,1,0
610466,689.655172413793,4,2,1,50,1,0
611845,714.285714285714,4,2,1,50,1,0

[Colours]
Combo1 : 255,224,130
Combo2 : 140,188,14
Combo3 : 67,205,164
Combo4 : 48,197,218

[HitObjects]
28,167,2519,6,0,P|25:196|29:225,1,59.4999981842042,2|0,0:0|0:0,0:0:0:0:
118,258,3241,2,0,P|114:228|118:199,1,59.4999981842042
170,118,3964,2,0,P|206:127|233:125,1,59.4999981842042,2|0,0:0|0:0,0:0:0:0:
297,60,4687,1,2,0:0:0:0:
483,216,8302,6,0,P|486:187|482:158,1,59.4999981842042,2|0,0:0|0:0,0:0:0:0:
394,126,9025,2,0,P|397:155|393:184,1,59.4999981842042
342,266,9747,2,0,P|306:257|279:259,1,59.4999981842042,2|0,0:0|0:0,0:0:0:0:
215,324,10470,1,2,0:0:0:0:
122,123,11916,6,0,P|154:118|202:117,1,59.4999981842042,2|0,0:0|0:0,0:0:0:0:
294,46,12639,2,0,P|300:107|303:185,2,118.999996368408,2|0|2,0:0|0:0|0:0,0:0:0:0:
198,250,15169,5,2,0:0:0:0:
294,172,15531,2,0,P|327:170|373:176,1,59.4999981842042,2|0,0:0|0:0,0:0:0:0:
378,300,16253,2,0,P|345:302|299:296,1,59.4999981842042
82,265,16976,6,0,B|147:278|133:240|197:249,1,118.999996368408,2|0,0:0|0:0,0:0:0:0:
220,367,18061,1,2,0:0:0:0:
318,299,18422,6,0,P|320:272|321:237,1,59.4999981842042,2|0,0:0|0:0,0:0:0:0:
193,189,19145,2,0,P|193:218|196:248,1,59.4999981842042,0|2,0:0|0:0,0:0:0:0:
360,168,19868,6,0,P|362:141|363:106,1,59.4999981842042,2|0,0:0|0:0,0:0:0:0:
150,57,20591,2,0,P|151:87|154:117,1,59.4999981842042,0|2,0:0|0:0,0:0:0:0:
256,352,21314,6,0,B|336:144|176:240|254:28,1,340,2|0,0:0|0:0,0:0:0:0:
253,29,25290,6,0,P|243:95|239:140,1,85,4|0,1:0|0:0,0:0:0:0:
396,211,25748,2,0,P|406:145|410:100,1,85,8|0,1:0|0:1,0:0:0:0:
289,212,26206,2,0,P|223:202|111:192,1,170,0|8,1:0|1:0,0:0:0:0:
51,318,26893,5,2,0:0:0:0:
51,318,27007,1,2,0:0:0:0:
51,318,27122,2,0,P|111:325|149:332,1,85,0|0,1:0|0:0,0:0:0:0:
135,329,27465,1,0,3:0:0:0:
135,329,27580,2,0,P|176:322|219:317,1,85,8|2,1:0|3:3,0:0:0:0:
279,253,28038,1,8,1:0:0:0:
356,335,28267,1,0,3:0:0:0:
377,333,28381,1,0,3:0:0:0:
398,331,28496,1,8,1:0:0:0:
390,176,28725,5,2,0:0:0:0:
369,174,28839,1,2,0:0:0:0:
347,172,28954,2,0,P|357:106|367:-6,1,170,4|8,1:0|1:0,0:0:0:0:
67,64,29641,1,0,0:0:0:0:
127,118,29870,2,0,P|119:202|107:286,1,170,0|8,1:0|1:0,0:0:0:0:
218,226,30557,5,2,0:0:0:0:
218,226,30671,1,2,0:0:0:0:
218,226,30786,1,0,1:0:0:0:
238,308,31015,1,2,0:0:0:0:
333,213,31244,1,8,1:0:0:0:
328,308,31473,1,2,0:3:0:0:
444,227,31702,1,8,1:0:0:0:
444,227,31816,1,0,3:0:0:0:
444,227,31931,1,2,3:2:0:0:
418,323,32160,1,8,1:0:0:0:
372,143,32389,5,2,0:0:0:0:
372,143,32503,1,2,0:0:0:0:
372,143,32618,2,2,B|278:124|300:200|201:176,1,170,6|8,1:0|1:0,1:0:0:0:
143,138,33305,1,0,0:0:0:0:
23,197,33534,2,0,P|30:266|33:304,1,85,0|0,1:0|0:0,0:0:0:0:
196,370,33992,2,0,P|189:301|186:263,1,85,8|0,1:0|0:0,0:0:0:0:
88,158,34450,5,0,1:0:0:0:
46,91,34679,1,2,0:0:0:0:
116,53,34908,1,8,1:0:0:0:
173,131,35137,1,2,0:0:0:0:
173,131,35251,1,2,3:0:0:0:
173,131,35366,1,0,1:0:0:0:
173,131,35480,1,10,1:0:0:0:
173,131,35595,2,0,P|168:186|166:227,1,85,2|10,1:0|1:0,0:0:0:0:
326,307,36053,5,2,0:1:0:0:
326,307,36167,1,2,0:0:0:0:
326,307,36282,1,6,1:0:0:0:
298,226,36511,1,0,1:0:0:0:
298,226,36740,2,0,P|353:231|394:233,1,85,8|0,1:0|0:0,0:0:0:0:
476,96,37198,1,0,1:0:0:0:
419,148,37427,1,0,0:0:0:0:
363,90,37656,1,8,1:0:0:0:
424,44,37885,5,8,1:0:0:0:
424,44,37999,1,4,0:0:0:0:
424,44,38114,1,0,1:0:0:0:
437,190,38343,1,4,1:2:0:0:
454,331,38572,2,0,P|391:317|346:315,1,85,12|0,1:0|0:0,0:0:0:0:
352,325,38915,1,0,0:0:0:0:
333,335,39030,2,0,P|291:335|232:319,1,85,8|8,1:0|1:0,0:0:0:0:
73,269,39488,1,8,1:0:0:0:
76,289,39602,1,0,1:0:0:0:
79,309,39717,1,0,1:0:0:0:
142,203,39946,5,4,1:0:0:0:
142,203,40404,2,0,P|151:157|164:124,1,68,8|0,1:0|0:0,0:0:0:0:
261,60,40862,1,0,3:0:0:0:
240,140,41091,1,0,3:0:0:0:
235,70,41320,2,0,P|189:61|156:48,1,68,8|0,1:0|0:0,0:0:0:0:
316,105,41778,6,0,P|371:97|462:69,1,136,0|8,1:0|1:0,0:0:0:0:
497,185,42465,1,0,0:0:0:0:
497,185,42580,1,0,0:0:0:0:
497,185,42694,1,0,3:0:0:0:
425,217,42923,1,0,3:0:0:0:
455,287,43152,2,0,P|446:335|441:374,1,68,8|2,1:0|0:0,0:0:0:0:
430,364,43496,1,2,0:0:0:0:
415,372,43610,2,0,P|364:368|272:357,1,136,0|8,1:0|1:0,0:0:0:0:
196,283,44297,1,0,0:0:0:0:
180,277,44412,1,0,0:0:0:0:
165,268,44526,2,0,P|97:276|68:276,2,68,0|0|8,3:0|3:0|1:0,0:0:0:0:
227,209,45213,1,2,0:0:0:0:
42,180,45442,6,0,P|38:107|23:25,1,136,4|8,3:2|1:0,0:0:0:0:
96,15,46129,1,0,0:0:0:0:
140,146,46358,1,0,3:0:0:0:
278,138,46587,1,4,3:2:0:0:
234,6,46816,1,8,1:0:0:0:
193,82,47045,1,2,0:0:0:0:
193,82,47160,1,2,0:0:0:0:
193,82,47274,1,4,1:0:0:0:
415,42,47732,6,0,P|404:102|395:192,1,136,8|0,1:0|3:0,0:0:0:0:
450,226,48419,1,0,3:0:0:0:
398,297,48648,2,0,P|342:298|304:304,1,68,8|2,1:0|0:0,0:0:0:0:
184,220,49106,6,0,P|217:220|251:217,1,68,0|0,1:0|0:0,0:0:0:0:
217,352,49564,1,8,1:0:0:0:
137,303,49793,1,0,0:0:0:0:
137,303,50022,2,0,P|98:311|51:324,1,68,0|0,3:0|3:0,0:0:0:0:
98,222,50480,2,0,P|94:175|89:140,1,68,8|2,1:0|0:0,0:0:0:0:
256,16,50938,5,4,3:2:0:0:
230,92,51167,1,2,0:0:0:0:
310,77,51396,1,8,1:0:0:0:
256,16,51625,1,2,0:0:0:0:
205,165,51854,5,0,3:0:0:0:
359,141,52083,1,2,0:0:0:0:
256,16,52312,1,8,1:0:0:0:
205,165,52541,1,2,0:0:0:0:
359,141,52770,5,4,1:0:0:0:
368,153,52999,1,2,0:0:0:0:
327,222,53228,5,0,1:0:0:0:
382,293,53457,1,0,1:0:0:0:
448,243,53686,5,4,1:3:0:0:
265,284,53915,1,4,1:3:0:0:
228,205,54144,5,12,1:3:0:0:
465,331,54373,1,12,1:3:0:0:
384,373,54602,6,0,P|379:306|380:243,1,101.999996887207,4|0,3:1|3:0,0:0:0:0:
373,115,55060,1,8,1:0:0:0:
250,190,55290,2,0,P|183:185|44:188,1,203.999993774414,4|0,3:1|3:0,0:0:0:0:
177,54,55977,1,8,1:0:0:0:
224,109,56206,2,0,P|291:104|430:107,1,203.999993774414,4|0,3:2|3:0,0:0:0:0:
454,217,56893,6,0,P|408:271|383:308,1,85,12|2,1:0|0:0,0:0:0:0:
395,303,57236,1,2,0:0:0:0:
393,324,57351,2,0,P|322:336|286:337,1,85,8|2,1:0|3:2,0:0:0:0:
110,279,57809,1,8,3:1:0:0:
116,312,57923,1,8,3:1:0:0:
123,345,58038,1,8,3:1:0:0:
20,217,58267,6,0,P|37:158|62:13,1,203.999993774414,4|8,3:1|1:0,0:0:0:0:
296,57,58954,2,0,P|279:116|254:261,1,203.999993774414,4|0,3:1|3:0,0:0:0:0:
492,201,59641,1,8,1:0:0:0:
428,361,59870,2,0,P|441:298|329:218,1,203.999993774414,4|0,1:0|3:0,0:0:0:0:
235,355,60557,6,0,P|164:349|117:338,1,101.999996887207,8|2,1:0|0:0,0:0:0:0:
118,322,60900,1,2,0:0:0:0:
102,301,61015,2,0,P|108:230|119:183,1,101.999996887207,8|0,1:0|3:0,0:0:0:0:
134,185,61358,1,0,3:0:0:0:
155,170,61473,1,8,1:0:0:0:
232,194,61702,1,0,3:0:0:0:
180,264,61931,1,4,1:0:0:0:
272,112,62160,5,2,0:0:0:0:
272,112,62389,2,0,B|316:96|364:100,1,85,0|2,0:0|0:0,0:0:0:0:
444,96,62847,1,0,3:0:0:0:
416,256,63076,1,2,1:2:0:0:
508,152,63305,1,8,1:0:0:0:
348,192,63534,1,2,0:0:0:0:
268,156,63763,6,0,B|220:160|168:160,1,85,0|2,3:0|0:0,0:0:0:0:
244,316,64221,2,0,B|292:312|344:312,1,85,0|2,0:0|0:0,0:0:0:0:
404,264,64679,1,0,3:0:0:0:
424,136,64908,1,2,1:2:0:0:
404,264,65137,1,8,1:0:0:0:
308,224,65366,5,2,0:0:0:0:
308,224,65480,1,0,0:0:0:0:
308,224,65595,2,0,B|264:232|208:228,1,85,0|2,3:0|0:0,0:0:0:0:
260,144,66053,1,0,0:0:0:0:
268,308,66282,1,2,0:0:0:0:
268,308,66396,2,0,B|332:300|408:304,1,127.5,0|2,3:0|1:2,0:0:0:0:
392,224,66969,5,8,1:0:0:0:
480,232,67198,1,2,0:0:0:0:
476,320,67427,1,0,3:0:0:0:
152,344,67885,1,2,0:0:0:0:
364,188,68343,5,0,1:0:0:0:
364,188,68457,1,8,1:0:0:0:
364,188,68572,1,2,1:2:0:0:
288,228,68801,1,8,1:0:0:0:
280,144,69030,1,2,0:0:0:0:
280,144,69144,1,0,0:0:0:0:
280,144,69259,2,0,B|244:164|176:156,1,85,4|2,3:2|0:0,0:0:0:0:
116,184,69717,5,0,0:0:0:0:
84,52,69946,1,2,0:0:0:0:
84,52,70060,2,0,B|140:20|220:44,1,127.5,0|2,3:0|1:2,0:0:0:0:
380,124,70633,1,8,1:0:0:0:
207,40,70862,1,2,0:0:0:0:
296,96,71091,6,0,B|260:140|284:200,1,101.999996887207,4|0,1:2|0:0,0:0:0:0:
172,176,71549,6,0,B|168:244|240:264,1,101.999996887207,4|0,1:0|0:0,0:0:0:0:
180,340,72007,6,0,L|348:312,1,152.999995330811,4|0,1:2|0:0,0:0:0:0:
348,316,72465,6,0,B|372:280|352:224,1,85,4|2,3:0|1:2,0:0:0:0:
344,216,72809,1,8,1:0:0:0:
332,200,72923,1,4,3:1:0:0:
256,52,73152,1,6,0:2:0:0:
240,148,73381,1,8,1:0:0:0:
404,136,73610,5,4,3:2:0:0:
404,136,73725,1,0,0:0:0:0:
404,136,73839,2,0,B|404:96|408:40,1,85,0|4,3:0|1:2,0:0:0:0:
240,232,74297,2,0,B|240:280|236:328,1,85,8|4,1:0|0:2,0:0:0:0:
332,272,74755,5,0,0:0:0:0:
220,76,75213,1,4,3:0:0:0:
276,132,75442,1,4,3:0:0:0:
168,176,75671,1,4,3:0:0:0:
128,40,75900,1,4,3:0:0:0:
300,100,76129,1,4,3:0:0:0:
216,268,76358,5,4,1:0:0:0:
216,268,76473,1,8,1:0:0:0:
216,268,76587,2,0,B|168:276|111:279,1,101.999996887207,0|8,3:0|1:0,0:0:0:0:
36,192,77045,1,8,1:0:0:0:
68,204,77160,1,8,1:0:0:0:
152,164,77389,1,4,3:0:0:0:
184,176,77503,1,8,1:0:0:0:
276,144,77732,1,8,1:0:0:0:
368,180,77961,5,8,3:1:0:0:
336,208,78076,1,0,3:0:0:0:
320,248,78190,1,0,3:0:0:0:
320,292,78305,1,0,3:0:0:0:
340,328,78419,1,4,3:1:0:0:
172,272,78763,1,4,1:2:0:0:
348,112,79106,1,4,1:0:0:0:
177,67,79335,6,0,B|191:120|191:172,1,101.999996887207,4|0,1:2|0:0,0:0:0:0:
191,168,79793,1,0,1:0:0:0:
112,339,80022,5,8,1:0:0:0:
112,339,80137,1,8,1:0:0:0:
112,339,80251,2,0,P|85:262|86:173,1,170,4|8,1:0|1:0,0:0:0:0:
276,227,80938,1,0,3:0:0:0:
190,285,81167,2,0,P|178:232|178:192,1,85,4|0,1:2|3:0,0:0:0:0:
380,122,81625,2,0,P|377:164|367:205,1,85,8|0,1:0|3:0,0:0:0:0:
225,66,82083,5,4,3:2:0:0:
363,215,82312,1,2,0:0:0:0:
179,192,82541,1,8,1:0:0:0:
373,116,82770,1,2,0:0:0:0:
276,260,82999,6,0,P|268:209|275:169,1,85,4|0,1:2|3:0,0:0:0:0:
475,303,83457,2,0,P|426:326|382:332,1,85,8|0,1:0|3:0,0:0:0:0:
33,351,83915,6,0,P|66:303|179:311,1,170,4|8,1:0|1:0,0:0:0:0:
175,309,84602,1,0,0:0:0:0:
59,208,84831,2,0,P|53:166|58:106,1,85,4|0,1:2|3:0,0:0:0:0:
273,152,85290,2,0,P|228:155|177:159,1,85,8|0,1:0|3:0,0:0:0:0:
304,56,85748,5,4,1:0:0:0:
345,236,85977,1,2,0:0:0:0:
180,160,86206,1,8,1:0:0:0:
379,136,86435,1,2,0:0:0:0:
60,113,86664,5,12,1:0:0:0:
452,271,87122,2,8,L|498:255,2,42.5,8|8|8,1:0|1:0|1:0,1:0:0:0:
238,341,87580,6,0,P|244:277|249:214,1,127.5,4|0,1:0|0:0,0:0:0:0:
195,131,88038,2,0,P|238:128|280:120,1,85,8|0,1:0|3:0,0:0:0:0:
145,222,88496,5,8,1:0:0:0:
353,201,88725,1,0,3:0:0:0:
227,38,88954,1,8,1:0:0:0:
249,214,89183,5,0,3:0:0:0:
280,120,89412,2,0,P|237:122|195:130,1,85,4|2,1:0|0:0,0:0:0:0:
214,311,89870,2,0,P|256:308|298:300,1,85,8|2,1:0|0:0,0:0:0:0:
249,214,90328,5,8,1:0:0:0:
378,369,90786,2,0,P|398:322|399:286,1,85,8|0,1:0|3:0,0:0:0:0:
112,288,91244,2,0,P|115:330|134:369,1,85,4|0,1:0|0:0,0:0:0:0:
283,127,91702,2,0,P|242:116|202:130,1,85,4|0,1:2|0:0,0:0:0:0:
371,192,92160,6,0,B|414:171|414:171|440:121|432:41,1,170,4|0,1:0|0:0,0:0:0:0:
249,214,92847,1,8,1:0:0:0:
249,214,92961,1,8,1:0:0:0:
249,214,93076,2,0,P|245:260|242:308,1,85,4|0,1:0|0:0,0:0:0:0:
100,174,93534,2,0,P|82:125|77:87,1,85,8|0,1:0|0:0,0:0:0:0:
217,29,93992,1,8,1:0:0:0:
345,113,94221,1,8,1:0:0:0:
178,112,94450,5,8,1:0:0:0:
178,112,94564,1,8,1:0:0:0:
315,23,94793,1,8,1:0:0:0:
315,23,94908,2,0,P|360:29|408:38,1,85,4|0,1:0|0:0,0:0:0:0:
217,29,95366,5,8,1:0:0:0:
217,29,95480,1,8,1:0:0:0:
345,113,95709,1,8,1:0:0:0:
345,113,95824,2,0,P|350:149|353:217,1,85,8|0,1:0|3:0,0:0:0:0:
161,247,96282,1,4,1:2:0:0:
265,171,96511,1,2,0:0:0:0:
182,335,96740,6,0,P|132:334|93:314,1,85,4|2,1:0|0:0,0:0:0:0:
330,335,97198,2,0,P|380:334|419:314,1,85,8|2,1:0|0:0,0:0:0:0:
161,247,97656,2,0,P|127:206|113:168,1,85,0|0,3:0|3:0,0:0:0:0:
256,288,98114,5,8,1:0:0:0:
256,288,98228,1,8,1:0:0:0:
396,175,98457,1,8,1:0:0:0:
396,175,98572,2,0,P|379:214|351:246,1,85,4|0,1:0|0:0,0:0:0:0:
256,64,99030,5,8,1:0:0:0:
256,64,99144,1,8,1:0:0:0:
296,164,99373,1,8,1:0:0:0:
296,164,99488,2,0,P|254:172|212:164,1,85,8|0,1:0|3:0,0:0:0:0:
156,81,99946,5,8,1:0:0:0:
356,81,100175,1,2,0:0:0:0:
111,177,100404,5,4,1:0:0:0:
401,177,100633,1,0,3:0:0:0:
66,273,100862,5,12,1:3:0:0:
446,273,101091,2,0,B|470:309|470:309|338:298,1,170,4|0,1:0|3:0,0:0:0:0:
66,273,101778,5,8,1:0:0:0:
56,313,101893,1,8,1:0:0:0:
169,216,102122,1,8,1:0:0:0:
190,252,102236,2,0,P|208:291|226:334,1,85,4|0,1:0|0:0,0:0:0:0:
263,145,102694,5,8,1:0:0:0:
297,166,102809,1,8,1:0:0:0:
240,29,103038,1,8,1:0:0:0:
281,20,103152,2,0,P|324:14|370:11,1,85,0|0,3:0|3:0,0:0:0:0:
167,107,103610,2,0,P|142:74|129:26,1,85,8|0,1:0|0:0,0:0:0:0:
332,91,104068,5,4,1:0:0:0:
125,205,104297,1,2,0:0:0:0:
240,29,104526,1,8,1:0:0:0:
360,197,104755,1,2,0:0:0:0:
167,107,104984,2,0,P|123:109|77:115,1,85,4|0,1:2|3:0,0:0:0:0:
360,197,105442,2,0,P|404:199|450:205,1,85,8|0,1:0|0:0,0:0:0:0:
125,205,105900,6,0,B|111:254|116:294|116:294|146:317,1,127.5,4|0,1:0|0:0,0:0:0:0:
242,265,106358,2,0,P|245:306|247:351,1,85,8|0,1:0|0:0,0:0:0:0:
221,162,106816,1,4,3:2:0:0:
335,213,107045,1,0,3:0:0:0:
321,89,107274,1,8,1:0:0:0:
221,162,107503,1,2,0:0:0:0:
436,138,107732,5,4,1:0:0:0:
321,89,107961,1,0,1:0:0:0:
221,162,108190,1,8,1:0:0:0:
215,139,108305,1,8,1:0:0:0:
135,58,108534,1,0,3:0:0:0:
141,35,108648,1,8,1:0:0:0:
98,167,108877,1,8,1:0:0:0:
329,196,109106,1,8,1:0:0:0:
329,196,109221,1,0,3:0:0:0:
329,196,109335,1,0,3:0:0:0:
232,43,109564,5,4,1:0:0:0:
181,338,110938,1,4,0:0:0:0:
222,256,111167,1,2,0:0:0:0:
309,290,111396,6,0,B|405:271|366:340|470:314,1,170,4|2,1:0|0:0,0:0:0:0:
222,256,112312,2,0,P|207:217|199:169,1,85,2|4,0:0|3:0,0:0:0:0:
345,84,112770,1,8,3:0:0:0:
337,372,113228,5,4,1:2:0:0:
464,192,113686,1,2,0:0:0:0:
412,256,113915,1,2,0:0:0:0:
268,56,114373,5,2,0:0:0:0:
316,124,114602,1,2,0:0:0:0:
240,160,114831,1,0,3:0:0:0:
188,96,115060,2,0,B|144:156|48:140,2,136,0|4|0,3:0|0:0|0:0,0:0:0:0:
168,208,116206,1,2,0:0:0:0:
168,208,116435,2,0,L|140:292,1,68,2|0,0:0|0:0,0:0:0:0:
76,312,116893,5,4,1:0:0:0:
368,300,117351,1,2,0:0:0:0:
288,344,117580,1,2,0:0:0:0:
240,120,118038,5,2,0:0:0:0:
328,160,118267,1,2,0:0:0:0:
248,208,118496,1,0,3:0:0:0:
168,176,118725,2,0,B|120:152|96:120,1,68,0|0,3:0|0:0,0:0:0:0:
140,276,119183,2,0,B|116:324|84:348,1,68,4|0,0:0|0:0,0:0:0:0:
44,264,119641,2,0,B|56:188|8:132,1,136,2|4,0:0|0:0,0:0:0:0:
104,112,120328,5,0,3:0:0:0:
104,112,120557,2,0,B|112:76|124:36,1,68,4|0,1:0|0:0,0:0:0:0:
240,172,121015,1,0,3:0:0:0:
172,220,121244,2,0,B|108:184|24:208,1,136,0|0,1:0|3:0,0:0:0:0:
40,203,121931,1,0,3:0:0:0:
224,292,122160,2,0,L|304:268,1,68,4|0,1:2|0:0,0:0:0:0:
408,136,122618,2,0,L|328:160,1,68,4|0,1:0|0:0,0:0:0:0:
256,184,123076,1,4,1:0:0:0:
264,96,123305,5,4,3:0:0:0:
396,220,123534,1,0,1:0:0:0:
252,320,123763,1,8,1:0:0:0:
140,192,123992,1,8,1:0:0:0:
140,192,124106,1,8,1:0:0:0:
140,192,124221,2,0,B|104:220|52:216,1,85,4|0,1:0|1:0,0:0:0:0:
40,208,124564,1,8,1:0:0:0:
24,196,124679,1,8,1:0:0:0:
252,236,124908,6,0,B|316:172|424:196,1,170,4|0,1:0|3:0,0:0:0:0:
409,193,125595,1,8,1:0:0:0:
240,44,125824,2,0,B|216:84|228:136,1,85,4|0,1:0|0:0,0:0:0:0:
226,125,126282,1,0,3:0:0:0:
304,328,126511,2,0,B|328:288|316:236,1,85,8|2,1:0|0:0,0:0:0:0:
240,208,126969,1,8,1:0:0:0:
232,292,127198,1,0,1:0:0:0:
140,148,127427,5,8,1:0:0:0:
352,108,127656,1,2,0:0:0:0:
140,148,127885,2,0,B|64:148|28:112,1,85,4|0,1:0|0:0,0:0:0:0:
240,172,128343,1,8,1:0:0:0:
324,204,128572,2,0,B|376:192|424:196,1,85,2|0,0:0|3:0,0:0:0:0:
180,252,129030,2,0,B|128:264|80:260,1,85,2|8,0:0|1:0,0:0:0:0:
208,356,129488,2,0,B|272:284|388:312,1,170,2|2,0:0|0:0,0:0:0:0:
436,352,130175,1,8,1:0:0:0:
468,168,130404,1,0,3:0:0:0:
468,168,130519,1,0,3:0:0:0:
468,168,130633,1,0,1:0:0:0:
400,96,130862,5,2,0:0:0:0:
416,232,131091,1,8,1:0:0:0:
304,176,131320,2,0,B|252:184|208:184,1,85,2|4,0:0|1:0,0:0:0:0:
148,120,131778,5,0,1:0:0:0:
168,268,132007,1,8,1:0:0:0:
304,176,132236,2,0,B|352:168|400:164,1,85,0|0,3:0|3:0,0:0:0:0:
264,96,132694,5,0,1:0:0:0:
288,264,132923,1,8,1:0:0:0:
264,96,133152,1,2,0:0:0:0:
148,196,133381,2,0,B|128:156|140:100,1,85,0|0,1:0|0:0,0:0:0:0:
236,236,133839,2,0,B|232:304|164:340|100:316,2,170,8|8|8,1:0|1:0|1:0,0:0:0:0:
188,72,134984,5,8,1:0:0:0:
188,72,135099,1,8,1:0:0:0:
188,72,135213,2,0,P|242:81|278:81,1,85,4|0,1:0|0:0,0:0:0:0:
115,147,135671,1,8,1:0:0:0:
338,164,135900,2,0,P|368:123|351:12,1,170,2|2,0:0|0:0,0:0:0:0:
188,72,136587,1,8,1:0:0:0:
338,164,136816,6,0,P|343:195|345:223,1,42.5,2|0,0:0|0:0,0:0:0:0:
365,259,137045,2,0,P|317:249|280:253,1,85,0|0,1:0|1:0,0:0:0:0:
181,298,137503,1,8,1:0:0:0:
229,136,137732,1,2,0:0:0:0:
321,338,137961,1,0,1:0:0:0:
100,318,138190,2,0,P|138:301|181:298,1,85,2|8,0:0|1:0,0:0:0:0:
53,194,138648,5,8,1:0:0:0:
53,194,138763,1,8,1:0:0:0:
53,194,138877,2,0,B|23:148|32:83|32:83|81:58,1,170,4|8,1:0|1:0,0:0:0:0:
459,194,139564,2,0,B|489:148|480:83|480:83|431:58,1,170,4|0,1:0|3:0,0:0:0:0:
256,224,140251,1,8,1:0:0:0:
183,108,140480,6,0,B|220:92|244:96|244:96|256:80|256:80|268:96|268:96|292:92|332:112,1,170,4|8,1:0|3:0,0:0:0:0:
159,282,141167,2,0,P|144:242|143:200,1,85,8|8,1:0|1:0,0:0:0:0:
368,200,141625,2,0,P|367:242|353:282,1,85,4|0,3:0|3:0,0:0:0:0:
98,345,142083,5,4,3:0:0:0:
76,308,142198,1,4,3:0:0:0:
63,267,142312,1,4,3:0:0:0:
58,225,142427,1,4,3:0:0:0:
61,183,142541,6,0,P|99:197|147:199,1,85,4|0,1:0|0:0,0:0:0:0:
256,64,142999,1,8,1:0:0:0:
451,183,143228,2,0,P|412:197|364:199,1,85,4|0,1:0|0:0,0:0:0:0:
124,88,143686,1,0,3:0:0:0:
390,88,143915,1,8,1:0:0:0:
256,320,144144,5,4,1:0:0:0:
256,320,144602,1,0,0:0:0:0:
184,248,144831,5,0,3:0:0:0:
184,248,145060,1,0,0:0:0:0:
328,232,145290,5,0,3:0:0:0:
328,232,145519,1,0,3:0:0:0:
144,156,145748,5,4,3:0:0:0:
144,156,145977,1,4,3:0:0:0:
356,120,146206,5,12,3:0:0:0:
356,120,146435,1,12,3:0:0:0:
128,48,146664,5,8,1:0:0:0:
128,48,146893,1,8,1:0:0:0:
356,0,147122,5,8,1:0:0:0:
356,0,147351,1,8,1:0:0:0:
40,120,147580,5,8,1:0:0:0:
440,208,147809,1,4,1:0:0:0:
85,76,153523,6,0,P|156:84|190:195,1,170,4|8,1:0|1:0,0:0:0:0:
148,232,154038,1,0,3:0:0:0:
148,232,154123,1,2,0:0:0:0:
148,232,154209,2,0,P|144:296|139:340,1,85,0|8,0:0|1:0,0:0:0:0:
257,373,154552,1,0,3:0:0:0:
251,291,154723,1,8,1:0:0:0:
338,338,154895,6,0,P|334:274|329:230,1,85,4|2,1:2|0:0,0:0:0:0:
267,126,155238,2,0,P|324:154|365:172,1,85,8|2,1:0|0:0,0:0:0:0:
490,157,155580,2,0,P|436:192|400:218,1,85,4|2,1:2|0:0,0:0:0:0:
177,217,155923,2,0,P|172:158|173:63,1,127.5,12|0,1:0|0:0,0:0:0:0:
90,86,156266,6,0,P|85:162|-19:186,1,170,4|8,1:0|1:0,0:0:0:0:
31,27,156780,1,0,3:0:0:0:
31,27,156866,1,0,3:0:0:0:
31,27,156952,1,0,0:0:0:0:
90,86,157123,1,8,1:0:0:0:
186,21,157295,1,0,3:0:0:0:
257,84,157466,1,8,1:0:0:0:
331,38,157638,6,0,P|367:31|427:13,1,85,0|2,1:0|0:0,0:0:0:0:
323,128,157980,2,0,P|317:184|315:318,1,170,8|0,1:0|1:0,0:0:0:0:
256,352,158495,1,2,0:0:0:0:
149,275,158666,2,0,P|175:273|250:283,1,85,12|0,1:0|0:0,0:0:0:0:
73,238,159009,6,0,P|133:240|172:142,1,170,4|8,1:0|1:0,0:0:0:0:
103,109,159523,1,0,0:0:0:0:
103,109,159609,1,2,0:0:0:0:
103,109,159695,2,0,P|105:51|108:23,1,85,0|8,0:0|1:0,0:0:0:0:
256,37,160038,2,0,P|254:95|251:123,1,85,0|8,3:0|1:0,0:0:0:0:
326,298,160380,5,4,3:2:0:0:
315,221,160552,1,2,0:0:0:0:
392,209,160723,1,8,1:0:0:0:
403,286,160895,1,2,0:0:0:0:
235,271,161066,6,0,P|178:255|99:219,1,127.5,12|0,1:0|0:0,0:0:0:0:
102,211,161409,2,0,P|53:226|19:242,1,85,10|2,1:0|3:1,0:0:0:0:
22,261,161666,1,0,3:0:0:0:
21,282,161752,1,6,1:0:0:0:
150,363,162095,6,0,P|206:348|243:335,1,85,2|2,1:0|1:0,0:0:0:0:
308,347,162438,2,0,P|322:288|323:166,1,170,6|2,1:0|0:1,0:0:0:0:
381,128,162952,1,0,0:0:0:0:
215,22,163123,5,10,1:0:0:0:
215,182,163295,1,10,1:0:0:0:
74,101,163466,1,10,1:0:0:0:
215,22,163638,1,10,1:0:0:0:
166,101,163809,1,10,1:0:0:0:
261,373,164152,6,0,P|266:305|271:276,1,85,8|0,1:0|3:0,0:0:0:0:
343,215,164495,6,0,P|379:200|396:103,2,136,4|0|0,3:1|3:0|3:0,0:0:0:0:
261,209,165352,2,0,P|213:212|181:222,1,68,2|0,0:0|3:0,0:0:0:0:
90,217,165695,1,2,0:0:0:0:
79,225,165780,1,0,0:0:0:0:
69,233,165866,2,0,P|90:189|97:157,1,68,2|0,3:0|0:0,0:0:0:0:
151,76,166209,2,0,P|177:116|202:138,1,68,0|0,3:0|0:0,0:0:0:0:
309,93,166552,6,0,P|357:96|392:106,1,68,0|4,3:0|0:0,0:0:0:0:
383,111,166809,1,4,0:0:0:0:
391,121,166895,2,0,P|432:125|482:121,1,68,4|0,0:0|0:0,0:0:0:0:
486,277,167238,6,0,P|446:275|336:278,1,136,4|0,3:1|3:0,0:0:0:0:
287,334,167752,2,0,P|219:336|151:333,1,136,2|4,0:0|0:0,0:0:0:0:
151,333,168266,1,0,0:0:0:0:
80,362,168438,1,4,0:0:0:0:
134,257,168609,6,0,P|134:222|128:180,1,68,2|0,3:0|0:0,0:0:0:0:
227,131,168952,2,0,P|226:84|231:36,1,68,0|0,3:0|0:0,0:0:0:0:
334,264,169295,2,0,P|338:196|333:114,1,136,0|0,3:0|3:0,0:0:0:0:
89,38,169809,5,2,0:0:0:0:
89,38,169895,1,2,0:0:0:0:
89,38,169980,2,0,P|92:105|88:173,1,136,4|0,3:1|3:0,0:0:0:0:
163,142,170495,1,2,0:0:0:0:
206,204,170666,2,0,P|202:271|201:299,1,68,0|4,3:0|0:0,0:0:0:0:
260,331,171009,1,0,3:0:0:0:
337,328,171180,1,4,0:0:0:0:
285,189,171352,6,0,P|284:127|285:94,1,68,2|2,3:0|0:0,0:0:0:0:
434,114,171695,1,0,3:0:0:0:
417,186,171866,2,0,P|418:248|413:336,1,136,2|0,0:0|0:0,0:0:0:0:
344,364,172380,2,0,P|303:361|266:362,1,68,0|0,3:0|0:0,0:0:0:0:
137,360,172723,6,0,P|77:341|59:244,1,170,4|8,1:0|1:0,0:0:0:0:
173,287,173238,2,0,P|166:202|165:103,1,170,4|8,1:0|1:0,0:0:0:0:
91,159,173752,1,8,1:0:0:0:
168,40,173923,2,0,P|182:95|286:132,1,170,4|0,1:0|3:0,0:0:0:0:
361,55,174438,6,0,P|310:54|263:51,1,85,8|8,1:0|1:0,0:0:0:0:
405,141,174780,2,0,P|447:140|489:138,1,85,2|0,1:0|0:0,0:0:0:0:
314,137,175123,1,0,1:0:0:0:
312,149,175209,1,0,1:0:0:0:
310,161,175295,1,0,1:0:0:0:
308,173,175380,1,0,1:0:0:0:
307,185,175466,2,0,P|307:265|310:362,1,170,4|0,1:0|1:0,0:0:0:0:
202,320,175980,5,8,1:0:0:0:
202,320,176066,1,2,0:0:0:0:
202,320,176152,2,0,P|153:316|107:317,1,85,0|0,3:0|0:0,0:0:0:0:
49,363,176495,1,8,1:0:0:0:
46,287,176666,5,2,0:0:0:0:
46,287,176752,1,2,0:0:0:0:
46,287,176838,2,0,P|41:234|43:166,1,85,4|0,3:2|0:0,0:0:0:0:
4,137,177180,1,8,1:0:0:0:
74,50,177352,2,0,P|72:99|160:177,1,170,8|2,1:0|0:0,0:0:0:0:
218,125,177866,2,0,P|271:124|320:127,1,85,8|0,1:0|0:0,0:0:0:0:
401,205,178209,6,0,P|395:275|300:305,1,170,4|8,1:0|1:0,0:0:0:0:
253,256,178723,1,8,1:0:0:0:
182,296,178895,2,0,P|191:349|201:381,1,85,0|2,3:0|0:0,0:0:0:0:
73,302,179238,2,0,P|84:261|91:219,1,85,8|2,1:0|0:0,0:0:0:0:
139,150,179580,5,4,1:2:0:0:
223,142,179752,1,0,0:0:0:0:
307,135,179923,1,8,1:0:0:0:
384,87,180095,1,8,1:0:0:0:
384,87,180180,1,2,0:0:0:0:
384,87,180266,1,4,1:3:0:0:
384,87,180352,1,8,1:3:0:0:
384,87,180438,2,0,P|437:88|463:198,1,170,4|4,3:0|0:0,0:0:0:0:
337,237,180952,6,0,P|254:232|158:239,1,170,4|8,1:0|1:0,0:0:0:0:
87,265,181466,1,8,1:0:0:0:
87,265,181552,1,2,0:0:0:0:
87,265,181638,2,0,P|82:219|74:174,1,85,0|0,3:0|0:0,0:0:0:0:
22,131,181980,1,8,1:0:0:0:
113,50,182152,5,2,0:0:0:0:
113,50,182238,1,2,0:0:0:0:
113,50,182323,2,0,P|174:57|222:50,1,85,4|0,1:0|0:0,0:0:0:0:
215,44,182580,1,2,0:0:0:0:
233,33,182666,2,0,P|275:31|317:38,1,85,8|0,1:0|0:0,0:0:0:0:
382,101,183009,2,0,P|367:167|350:293,1,170,4|8,1:0|1:0,0:0:0:0:
169,241,183523,5,8,1:0:0:0:
183,321,183695,2,0,P|230:312|265:189,1,170,4|8,1:0|1:0,0:0:0:0:
258,194,184123,1,8,1:0:0:0:
239,183,184209,2,0,P|168:179|63:182,1,170,12|0,1:0|1:0,0:0:0:0:
9,125,184723,5,8,1:0:0:0:
82,97,184895,2,0,P|166:94|251:98,1,170,12|0,1:0|1:0,0:0:0:0:
446,95,185409,6,0,P|432:147|427:190,1,85,8|0,1:0|0:0,0:0:0:0:
354,93,185752,2,0,P|380:142|343:254,1,170,12|0,1:0|1:0,0:0:0:0:
186,260,186266,5,0,0:0:0:0:
186,260,186352,1,0,0:0:0:0:
186,260,186438,2,0,P|120:251|97:175,1,152.999995330811,4|0,3:1|0:0,0:0:0:0:
146,113,187123,2,0,P|173:124|197:137,1,50.9999984436036,2|0,3:0|0:0,0:0:0:0:
264,101,187466,2,0,P|283:124|298:153,1,50.9999984436036,8|0,3:1|0:0,0:0:0:0:
339,301,187809,6,0,P|340:263|361:188,2,101.999996887207,4|2|2,3:2|0:0|0:0,0:0:0:0:
454,152,188838,2,0,P|421:146|392:129,1,50.9999984436036,8|0,3:1|0:0,0:0:0:0:
512,169,189180,6,0,P|468:195|442:296,1,152.999995330811,4|0,3:1|0:0,0:0:0:0:
407,357,189866,2,0,P|371:354|351:350,1,50.9999984436036,2|0,3:0|0:0,0:0:0:0:
294,302,190209,2,0,P|258:305|238:309,1,50.9999984436036,8|0,3:1|0:0,0:0:0:0:
138,357,190552,6,0,P|118:314|113:237,2,101.999996887207,4|2|2,3:1|0:0|0:0,0:0:0:0:
25,216,191580,2,0,P|57:202|81:196,1,50.9999984436036,8|0,3:1|0:0,0:0:0:0:
0,110,191923,6,0,P|45:123|161:105,1,152.999995330811,4|0,1:0|0:0,0:0:0:0:
174,32,192609,2,0,P|224:32|289:35,1,101.999996887207,0|8,3:0|3:1,0:0:0:0:
350,25,193123,1,2,0:0:0:0:
324,100,193295,6,0,P|324:141|328:174,1,50.9999984436036,4|0,3:1|0:0,0:0:0:0:
384,207,193638,2,0,P|387:266|386:329,1,101.999996887207,2|0,0:0|3:0,0:0:0:0:
95,359,194323,2,0,P|92:300|94:264,1,76.4999976654053,8|0,3:1|0:0,0:0:0:0:
76,274,194666,6,0,P|78:228|182:189,1,152.999995330811,4|2,3:1|0:0,0:0:0:0:
209,241,195352,2,0,P|251:242|319:235,1,101.999996887207,2|8,3:0|3:1,0:0:0:0:
505,192,196038,5,0,1:0:0:0:
413,127,196209,2,0,L|413:91,2,25.4999992218018,8|0|0,1:0|0:0|3:0,0:0:0:0:
343,158,196552,2,0,L|333:123,2,25.4999992218018,4|12|4,3:0|3:0|3:0,0:0:0:0:
259,95,196895,1,4,3:0:0:0:
259,95,197066,2,0,P|221:98|187:103,1,50.9999984436036,4|4,3:0|3:0,0:0:0:0:
4,275,197409,5,6,1:0:0:0:
4,275,197923,5,2,1:0:0:0:
171,194,198095,1,14,1:0:0:0:
171,194,198609,5,4,1:2:0:0:
84,358,198780,1,14,1:0:0:0:
58,174,198952,1,4,1:2:0:0:
187,307,199123,1,14,1:0:0:0:
4,275,199295,1,4,1:2:0:0:
171,194,199466,1,14,1:0:0:0:
508,275,200152,5,6,1:0:0:0:
508,275,200666,5,2,1:0:0:0:
341,194,200838,1,14,1:0:0:0:
341,194,201352,5,4,1:2:0:0:
428,358,201523,1,14,1:0:0:0:
454,174,201695,1,4,1:2:0:0:
325,307,201866,1,14,1:0:0:0:
508,275,202038,1,4,1:2:0:0:
341,194,202209,1,14,1:0:0:0:
256,368,202552,5,8,3:0:0:0:
256,16,202895,5,4,2:0:0:0:
192,64,203066,1,0,2:0:0:0:
192,144,203238,1,0,2:0:0:0:
256,192,203409,1,2,2:0:0:0:
320,240,203580,1,0,2:0:0:0:
320,320,203752,1,2,2:0:0:0:
256,368,203923,1,2,2:0:0:0:
256,368,204266,6,0,L|155:353,1,76.4999976654053,2|0,0:0|0:0,0:0:0:0:
256,192,204609,2,0,L|357:177,1,76.4999976654053,2|0,0:0|0:0,0:0:0:0:
256,16,204952,1,2,2:0:0:0:
88,104,205638,6,0,P|65:158|66:217,1,118.999996368408,4|0,0:0|0:0,0:0:0:0:
0,311,206323,2,0,B|62:296|51:341|114:324,1,118.999996368408,2|0,0:0|0:0,0:0:0:0:
180,233,207009,1,2,0:0:0:0:
220,383,207352,6,0,P|230:355|232:325,1,59.4999981842042
336,364,207695,2,0,P|374:368|423:306,1,118.999996368408,2|0,0:0|0:0,0:0:0:0:
402,208,208380,1,2,0:0:0:0:
402,208,208723,2,0,L|477:217,1,59.4999981842042,2|0,0:0|0:0,0:0:0:0:
321,276,209066,1,2,0:0:0:0:
321,276,209409,2,0,P|300:237|297:214,1,59.4999981842042,2|0,0:0|0:0,0:0:0:0:
338,125,209752,5,2,0:0:0:0:
402,208,209923,1,0,0:0:0:0:
297,222,210095,1,2,0:0:0:0:
338,125,210266,1,2,0:0:0:0:
501,189,210438,2,0,P|494:248|458:294,1,118.999996368408,2|0,0:0|0:0,0:0:0:0:
367,373,210952,5,8,1:0:0:0:
362,364,211038,1,8,1:0:0:0:
357,355,211123,2,0,P|321:352|291:351,1,59.4999981842042,4|0,1:0|0:0,0:0:0:0:
202,370,211466,1,2,0:0:0:0:
107,268,211809,6,0,P|136:267|171:265,1,59.4999981842042,4|0,1:2|0:0,0:0:0:0:
351,254,212152,1,0,1:0:0:0:
262,298,212323,5,8,1:0:0:0:
262,298,212409,1,8,1:0:0:0:
262,298,212495,2,0,P|254:253|253:223,1,59.4999981842042,4|0,1:0|0:0,0:0:0:0:
331,104,212838,2,0,P|328:133|322:162,1,59.4999981842042,2|0,0:0|0:0,0:0:0:0:
167,193,213180,2,0,B|99:181|118:223|54:211,1,118.999996368408,4|0,1:0|0:0,0:0:0:0:
55,65,213695,5,8,1:0:0:0:
55,65,213780,1,8,1:0:0:0:
55,65,213866,2,0,P|61:94|65:124,1,59.4999981842042,4|0,1:0|0:0,0:0:0:0:
55,351,214209,2,0,P|61:321|64:292,1,59.4999981842042,2|0,0:0|0:0,0:0:0:0:
160,150,214552,5,4,1:0:0:0:
160,277,214723,1,0,1:0:0:0:
160,277,214809,1,2,0:0:0:0:
160,277,214895,1,0,1:0:0:0:
256,108,215066,5,8,1:0:0:0:
255,304,215238,2,0,B|323:292|304:334|368:322,1,118.999996368408,4|2,1:0|0:0,0:0:0:0:
450,301,215752,1,0,0:0:0:0:
498,233,215923,1,2,0:0:0:0:
498,151,216095,1,0,0:0:0:0:
450,83,216266,1,2,0:0:0:0:
368,62,216438,1,2,0:0:0:0:
407,229,216609,6,0,P|413:191|409:153,1,76.4999976654053,2|0,0:0|3:0,0:0:0:0:
218,192,216952,2,0,L|303:192,1,76.4999976654053,4|4,3:0|3:0,0:0:0:0:
102,153,217295,2,0,P|98:191|105:229,1,76.4999976654053,8|0,1:0|0:0,0:0:0:0:
203,315,217638,5,8,1:0:0:0:
203,315,217723,1,8,1:0:0:0:
203,315,217809,1,8,1:0:0:0:
203,315,217895,1,8,1:0:0:0:
203,315,217980,2,0,B|291:306|291:306|300:320|318:334,1,127.5,4|0,1:0|0:0,0:0:0:0:
367,255,218323,2,0,P|385:216|389:168,1,85,8|0,1:0|0:0,0:0:0:0:
205,27,218666,2,0,P|187:66|183:114,1,85,4|0,3:2|0:0,0:0:0:0:
383,77,219009,2,0,P|340:80|291:87,1,85,8|0,1:0|0:0,0:0:0:0:
93,148,219352,5,4,3:0:0:0:
247,171,219523,1,2,0:0:0:0:
64,259,219695,5,4,0:0:0:0:
285,247,219866,1,8,1:0:0:0:
35,370,220038,5,0,3:0:0:0:
323,323,220209,1,4,0:0:0:0:
162,212,220380,2,0,P|163:256|169:304,1,85,8|0,1:0|0:0,0:0:0:0:
410,380,220723,6,0,P|419:337|426:294,1,85,4|0,1:0|0:0,0:0:0:0:
261,162,221066,2,0,P|306:179|342:180,1,85,8|0,1:0|0:0,0:0:0:0:
413,60,221409,1,0,3:0:0:0:
173,101,221580,1,8,1:0:0:0:
173,101,221666,1,0,1:0:0:0:
173,101,221752,2,0,P|163:143|156:186,1,85,8|0,1:0|1:0,0:0:0:0:
295,368,222095,6,2,P|256:330|184:338,1,127.5,6|0,1:0|0:0,1:0:0:0:
142,262,222438,2,0,P|80:253|34:294,1,127.5,10|0,1:0|0:0,0:0:0:0:
104,332,222780,5,2,3:1:0:0:
142,262,222952,1,2,1:0:0:0:
156,184,223123,1,10,1:0:0:0:
147,105,223295,1,2,1:0:0:0:
350,257,223466,6,0,B|307:244|264:243|264:243|253:257|227:277,1,127.5,4|0,1:0|0:0,0:0:0:0:
280,166,223809,2,0,P|285:119|284:72,1,85,8|0,1:0|0:0,0:0:0:0:
431,205,224152,2,0,P|430:247|435:289,1,85,0|0,3:0|0:0,0:0:0:0:
450,113,224495,2,0,P|408:115|369:132,1,85,8|0,1:0|0:0,0:0:0:0:
235,270,224838,5,4,1:2:0:0:
257,129,225009,1,0,3:0:0:0:
147,293,225180,5,12,1:0:0:0:
169,106,225352,1,0,1:0:0:0:
59,316,225523,5,0,3:0:0:0:
81,83,225695,1,0,1:0:0:0:
363,224,225866,5,8,1:0:0:0:
363,224,225952,1,8,1:0:0:0:
363,224,226038,1,8,1:0:0:0:
363,224,226123,1,8,1:0:0:0:
363,224,226209,2,0,P|303:202|231:199,1,127.5,4|8,1:0|1:0,0:0:0:0:
239,198,226809,1,8,1:0:0:0:
239,198,226895,1,12,1:0:0:0:
347,128,227066,5,0,1:0:0:0:
347,128,227152,1,0,1:0:0:0:
347,128,227238,1,0,1:0:0:0:
381,321,227409,1,0,3:0:0:0:
146,230,227580,5,4,3:0:0:0:
354,223,227752,1,4,3:0:0:0:
125,325,227923,5,4,3:0:0:0:
152,130,228095,1,4,3:0:0:0:
445,244,228266,5,4,3:0:0:0:
56,262,228609,1,8,1:0:0:0:
39,256,228695,2,0,P|34:226|34:191,1,63.7500024318696,8|0,1:0|0:0,0:0:0:0:
17,149,228952,6,0,P|75:150|135:162,1,101.999996887207,4|0,1:0|0:0,0:0:0:0:
208,244,229295,2,0,P|268:237|328:222,1,101.999996887207,0|0,1:0|3:0,0:0:0:0:
435,145,229638,2,0,P|425:202|411:358,1,203.999993774414,0|8,1:0|1:0,0:0:0:0:
349,155,230152,5,2,0:0:0:0:
379,83,230323,2,0,P|321:57|257:45,1,101.999996887207,4|2,1:2|0:0,0:0:0:0:
70,46,230666,2,0,P|128:72|192:84,1,101.999996887207,8|2,1:0|0:0,0:0:0:0:
228,267,231009,1,0,1:0:0:0:
259,179,231180,1,0,0:0:0:0:
312,243,231352,1,8,1:0:0:0:
177,200,231523,1,0,1:0:0:0:
117,246,231695,6,0,P|115:298|106:354,1,101.999996887207,4|0,1:0|0:0,0:0:0:0:
387,368,232038,2,0,P|389:316|398:260,1,101.999996887207,8|0,1:0|0:0,0:0:0:0:
214,25,232380,2,0,P|200:105|187:220,1,152.999995330811,4|0,1:2|0:0,0:0:0:0:
177,200,232723,2,0,P|234:196|289:200,1,101.999996887207,12|0,1:0|0:0,0:0:0:0:
488,192,233066,5,8,1:0:0:0:
454,95,233238,1,8,1:0:0:0:
353,76,233409,1,8,1:0:0:0:
488,192,233752,5,8,1:0:0:0:
454,289,233923,1,8,1:0:0:0:
353,308,234095,1,8,1:0:0:0:
7,190,234438,6,0,B|122:160|82:277|200:261,1,203.999993774414,4|8,1:0|1:0,0:0:0:0:
283,173,234952,1,0,0:0:0:0:
277,354,235123,2,0,B|261:307|261:307|272:254,1,101.999996887207,0|0,1:0|0:0,0:0:0:0:
443,242,235466,5,8,1:0:0:0:
344,303,235638,1,2,0:0:0:0:
435,341,235809,1,4,1:2:0:0:
359,213,235980,1,2,0:0:0:0:
185,212,236152,5,8,1:0:0:0:
121,146,236323,1,2,0:0:0:0:
206,111,236495,1,0,1:0:0:0:
272,174,236666,1,0,0:0:0:0:
185,212,236838,1,8,1:0:0:0:
8,192,237009,5,8,1:0:0:0:
8,192,237095,1,0,1:0:0:0:
8,192,237180,1,4,1:0:0:0:
8,192,237866,1,4,1:1:0:0:
258,362,238552,5,0,3:0:0:0:
201,300,238723,1,0,3:0:0:0:
375,250,238895,1,8,3:0:0:0:
351,331,239066,1,8,3:0:0:0:
221,205,239238,1,12,3:0:0:0:
303,185,239409,1,12,3:0:0:0:
286,274,239580,1,12,3:0:0:0:
201,300,239923,5,8,3:0:0:0:
375,250,240095,1,8,3:0:0:0:
258,362,240266,1,12,3:0:0:0:
303,185,240438,1,12,3:0:0:0:
211,198,240609,2,0,B|117:164|127:272|16:235,1,203.999993774414,0|8,1:0|1:0,0:0:0:0:
153,61,241123,5,8,1:0:0:0:
177,53,241209,1,0,1:0:0:0:
201,45,241295,2,0,B|254:31|254:31|317:39,1,101.999996887207,4|8,1:0|1:0,0:0:0:0:
451,29,241638,2,0,L|433:150,1,101.999996887207,8|2,1:0|0:0,0:0:0:0:
412,138,241895,1,0,1:0:0:0:
409,163,241980,1,8,1:0:0:0:
358,277,242152,1,4,1:2:0:0:
252,178,242323,2,0,B|199:192|199:192|136:184,1,101.999996887207,8|8,1:0|1:0,0:0:0:0:
320,212,242666,6,0,P|253:236|228:365,1,203.999993774414,4|8,1:0|1:0,0:0:0:0:
404,348,243180,1,0,1:0:0:0:
405,332,243266,1,2,0:0:0:0:
406,317,243352,1,8,1:0:0:0:
408,302,243438,1,2,0:0:0:0:
409,287,243523,1,0,1:0:0:0:
411,272,243609,1,2,0:0:0:0:
413,258,243695,1,12,1:0:0:0:
206,38,244038,5,12,3:0:0:0:
267,171,244209,1,12,3:0:0:0:
149,87,244380,1,12,3:0:0:0:
324,122,244552,1,8,3:0:0:0:
171,176,244723,5,12,3:0:0:0:
237,105,244895,1,0,3:0:0:0:
302,33,245066,1,12,3:0:0:0:
310,25,245409,5,8,1:0:0:0:
237,105,245580,1,8,1:0:0:0:
164,185,245752,1,4,3:0:0:0:
165,200,245838,1,0,3:0:0:0:
167,215,245923,1,4,3:0:0:0:
169,230,246009,1,0,3:0:0:0:
171,245,246095,2,0,P|198:302|329:301,1,203.999993774414,8|8,1:0|1:0,0:0:0:0:
358,145,246609,5,8,1:0:0:0:
358,145,246695,1,0,1:0:0:0:
358,145,246780,2,0,P|431:158|475:162,1,101.999996887207,4|8,1:0|1:0,0:0:0:0:
297,82,247123,2,0,P|224:95|180:99,1,101.999996887207,8|0,1:0|1:0,0:0:0:0:
205,246,247466,1,12,1:0:0:0:
165,351,247638,1,8,1:0:0:0:
165,351,247723,1,0,0:0:0:0:
165,351,247809,1,8,1:0:0:0:
29,291,247980,5,2,0:0:0:0:
29,291,248066,1,0,0:0:0:0:
29,291,248152,2,0,P|36:227|51:176,1,101.999996887207,8|2,1:0|0:0,0:0:0:0:
84,84,248495,2,0,P|135:122|172:160,1,101.999996887207,8|2,1:0|0:0,0:0:0:0:
142,282,248838,1,2,3:1:0:0:
156,278,248923,1,0,3:0:0:0:
171,274,249009,1,2,3:1:0:0:
186,269,249095,1,0,3:0:0:0:
200,264,249180,1,2,3:1:0:0:
277,304,249352,1,10,1:0:0:0:
303,118,249523,6,0,P|249:118|190:136,1,101.999996887207,4|2,1:0|0:0,0:0:0:0:
134,206,249866,2,0,P|70:191|15:155,1,101.999996887207,8|2,1:0|0:0,0:0:0:0:
226,218,250209,5,0,1:0:0:0:
223,296,250380,1,2,0:0:0:0:
309,280,250552,2,0,P|291:351|281:384,1,101.999996887207,8|2,1:0|0:0,0:0:0:0:
467,196,250895,1,0,1:0:0:0:
470,274,251066,1,2,0:0:0:0:
384,258,251238,2,0,P|402:329|412:362,1,101.999996887207,8|2,1:0|0:0,0:0:0:0:
476,104,251580,5,0,1:0:0:0:
476,104,251666,1,8,1:0:0:0:
359,104,251838,1,0,1:0:0:0:
359,104,251923,1,8,1:0:0:0:
267,31,252095,5,8,1:0:0:0:
267,31,252180,1,0,0:0:0:0:
267,31,252266,2,0,P|243:105|237:157,1,101.999996887207,4|8,1:0|1:0,0:0:0:0:
280,201,252609,2,0,P|304:275|310:327,1,101.999996887207,8|0,1:0|1:0,0:0:0:0:
162,366,252952,1,12,1:0:0:0:
213,303,253123,1,8,1:0:0:0:
131,293,253295,1,8,1:0:0:0:
78,355,253466,6,0,L|23:364,2,50.9999984436036,8|0|4,1:0|1:0|1:0,0:0:0:0:
50,263,253809,2,0,L|-5:257,2,50.9999984436036,8|0|8,1:0|1:0|1:0,0:0:0:0:
97,181,254152,1,0,3:0:0:0:
97,181,254238,1,2,3:0:0:0:
97,181,254323,1,8,1:0:0:0:
112,182,254409,1,2,1:2:0:0:
127,183,254495,1,2,1:2:0:0:
142,184,254580,1,2,1:2:0:0:
157,185,254666,1,8,1:0:0:0:
394,266,255009,6,0,L|275:246,1,101.999996887207,4|2,1:0|0:0,0:0:0:0:
203,78,255352,2,0,L|245:191,1,101.999996887207,8|2,1:0|0:0,0:0:0:0:
136,338,255695,2,0,L|212:244,1,101.999996887207,0|2,1:0|0:0,0:0:0:0:
319,246,256038,5,12,1:0:0:0:
223,152,256209,1,2,0:0:0:0:
190,282,256380,1,4,1:2:0:0:
293,249,256552,5,2,0:0:0:0:
238,173,256723,1,8,1:0:0:0:
200,259,256895,1,2,0:0:0:0:
282,293,257066,5,0,1:0:0:0:
281,159,257238,1,2,0:0:0:0:
166,227,257409,1,8,1:0:0:0:
252,231,257580,5,8,1:0:0:0:
252,231,257666,1,0,0:0:0:0:
252,231,257752,1,4,1:0:0:0:
252,231,258438,1,4,1:0:0:0:
252,231,259123,5,4,1:0:0:0:
324,173,259295,1,8,1:0:0:0:
324,173,259380,1,0,0:0:0:0:
324,173,259466,2,0,P|320:112|323:63,1,101.999996887207,8|0,1:0|0:0,0:0:0:0:
130,158,259809,6,0,P|188:147|197:19,1,203.999993774414,4|0,1:0|0:0,0:0:0:0:
100,86,260495,5,4,1:2:0:0:
35,136,260666,1,8,1:0:0:0:
35,136,260752,1,0,0:0:0:0:
35,136,260838,2,0,P|32:187|33:241,1,101.999996887207,4|0,1:0|0:0,0:0:0:0:
81,321,261180,6,2,P|163:337|293:85,1,407.999987548829,4|2,1:2|0:0,1:0:0:0:
219,60,262038,6,0,P|219:113|221:137,1,63.7500024318696,2|0,0:0|0:0,0:0:0:0:
390,160,262380,2,0,P|392:103|386:9,1,127.500004863739,2|2,0:0|0:0,0:0:0:0:
219,201,262895,2,0,P|219:254|221:278,1,63.7500024318696,2|0,0:0|0:0,0:0:0:0:
387,372,263238,6,0,P|389:315|383:221,1,127.500004863739,2|0,0:0|1:0,0:0:0:0:
125,12,263923,2,0,P|122:68|129:163,1,127.500004863739,4|2,1:0|0:0,0:0:0:0:
63,202,264438,2,0,P|63:255|65:279,1,63.7500024318696,2|0,0:0|0:0,0:0:0:0:
114,326,264780,1,2,0:0:0:0:
362,344,264952,1,4,1:2:0:0:
412,283,265123,2,0,P|413:251|415:126,1,127.500004863739,8|2,1:0|0:0,0:0:0:0:
339,197,265638,1,2,0:0:0:0:
261,190,265809,1,2,0:0:0:0:
245,43,265980,6,0,P|199:50|161:137,1,127.5,4|0,1:2|1:0,0:0:0:0:
144,150,266323,2,0,P|92:174|27:173,1,85,8|0,1:0|0:0,0:0:0:0:
261,190,266666,5,4,3:0:0:0:
332,136,266908,1,0,3:0:0:0:
332,136,267029,2,0,B|372:188|448:160,1,113.333333333333,2|0,3:0|0:0,0:0:0:0:
468,144,267393,1,2,3:0:0:0:
364,64,267635,1,0,3:0:0:0:
364,64,267756,2,0,B|316:12|236:40,1,113.333333333333,2|0,3:0|0:0,0:0:0:0:
228,52,268120,1,4,3:0:0:0:
144,152,268362,5,0,3:0:0:0:
144,152,268484,2,0,L|112:20,1,113.333333333333,2|0,3:0|0:0,0:0:0:0:
117,41,268847,6,0,B|84:80|32:72,1,90.6666666666667,4|0,3:0|0:0,0:0:0:0:
36,72,269211,6,0,B|-16:112|12:192,1,101.999996887207,2|4,3:0|3:1,0:0:0:0:
172,288,269817,5,0,3:0:0:0:
172,288,269938,2,0,L|188:168,1,113.333333333333,2|0,3:0|0:0,0:0:0:0:
196,132,270302,1,4,3:0:0:0:
296,196,270544,1,2,3:0:0:0:
296,196,270666,2,0,B|360:220|412:172,1,113.333333333333,4|0,3:0|0:0,0:0:0:0:
416,172,271029,2,0,B|404:132|432:84|480:88,1,113.333333333333,4|0,3:0|0:0,0:0:0:0:
396,108,271393,6,0,B|356:100|340:40|380:4,1,113.333333333333,2|0,3:0|0:0,0:0:0:0:
312,72,271756,6,0,L|204:88,1,90.6666666666667,2|0,3:0|0:0,0:0:0:0:
252,116,272120,6,0,L|132:136,1,101.999996887207,6|4,3:0|3:1,0:0:0:0:
48,256,272726,5,0,3:0:0:0:
116,208,272847,2,0,L|132:348,1,113.333333333333,8|0,1:0|0:0,0:0:0:0:
200,352,273211,2,0,B|244:312|316:328,1,113.333333333333,4|2,3:0|3:0,0:0:0:0:
384,344,273575,2,0,B|416:320|424:272|396:236,1,113.333333333333,8|0,1:0|0:0,0:0:0:0:
336,192,273938,5,4,3:0:0:0:
336,192,274302,2,0,B|276:212|224:156,1,113.333333333333,8|0,1:0|0:0,0:0:0:0:
204,92,274666,2,0,L|232:24,2,56.6666666666667,4|0|0,3:0|3:0|3:0,0:0:0:0:
148,152,275029,6,0,B|168:208|120:256,1,90.6666666666667,8|0,1:0|0:0,0:0:0:0:
135,237,275393,6,0,L|283:261,1,135.99999584961,4|0,1:0|0:0,0:0:0:0:
360,308,275756,2,0,B|336:264|360:208|360:208|348:224|320:228,1,135.99999584961,8|0,1:0|0:0,0:0:0:0:
440,120,276120,1,4,3:0:0:0:
440,120,276362,1,0,3:0:0:0:
440,120,276484,2,0,B|496:168|472:256,1,135.99999584961,4|0,1:0|0:0,0:0:0:0:
388,200,276847,5,4,3:0:0:0:
312,52,277090,1,8,1:0:0:0:
256,104,277211,2,0,B|212:128|148:104|140:56,1,135.99999584961,8|4,1:0|3:0,0:0:0:0:
72,104,277575,5,4,3:0:0:0:
84,172,277696,1,4,3:0:0:0:
96,240,277817,1,4,3:0:0:0:
156,208,277938,5,4,3:0:0:0:
224,212,278059,1,4,3:0:0:0:
284,248,278181,1,4,3:0:0:0:
312,312,278302,5,4,1:0:0:0:
452,120,278544,1,0,3:0:0:0:
452,120,278666,2,0,L|440:268,1,135.99999584961,8|2,1:0|3:0,0:0:0:0:
368,180,279029,1,4,3:0:0:0:
168,92,279272,1,2,3:0:0:0:
168,92,279393,2,0,L|184:248,1,135.99999584961,8|0,1:0|0:0,0:0:0:0:
112,268,279756,6,0,B|124:316|188:332|228:300,1,135.99999584961,4|0,3:0|0:0,0:0:0:0:
269,250,280120,1,8,1:0:0:0:
334,226,280241,1,4,3:0:0:0:
401,242,280362,1,4,3:0:0:0:
461,277,280484,2,0,B|456:216|492:192|492:192|456:152,1,135.99999584961,2|0,3:0|0:0,0:0:0:0:
360,48,280847,2,0,B|356:100|376:140|376:140|356:128|328:128,1,135.99999584961,8|0,1:0|0:0,0:0:0:0:
256,104,281211,5,4,3:1:0:0:
256,104,281453,1,0,3:0:0:0:
256,104,281575,2,0,L|112:128,1,135.99999584961,8|0,1:0|0:0,0:0:0:0:
60,76,281938,1,0,3:0:0:0:
60,76,282181,1,0,3:0:0:0:
40,148,282302,1,8,1:0:0:0:
192,184,282544,1,0,3:0:0:0:
200,256,282666,1,4,3:2:0:0:
416,216,282908,5,0,3:0:0:0:
456,152,283029,2,0,B|448:104|384:72|340:100,1,135.99999584961,8|0,1:0|3:0,0:0:0:0:
296,144,283393,2,0,L|216:120,1,67.9999979248048,0|8,3:0|1:0,0:0:0:0:
92,80,283635,2,0,L|168:108,1,67.9999979248048,4|4,3:0|1:0,0:0:0:0:
244,216,283999,5,0,3:0:0:0:
208,280,284120,2,0,B|188:328|124:348|84:316,1,135.99999584961,4|0,1:0|0:0,0:0:0:0:
136,252,284484,1,8,1:0:0:0:
284,324,284726,1,0,3:0:0:0:
340,268,284847,2,0,B|380:248|440:276|452:320,1,135.99999584961,2|4,3:0|3:0,0:0:0:0:
492,240,285211,2,0,L|464:96,1,135.99999584961,8|0,1:0|0:0,0:0:0:0:
416,32,285575,6,0,B|396:76|340:92|300:68|300:68|304:116|248:136,1,203.999993774414,4|4,3:0|3:0,0:0:0:0:
200,144,286059,1,4,3:0:0:0:
140,104,286181,1,8,1:0:0:0:
132,32,286302,1,4,3:0:0:0:
104,188,286544,1,4,3:0:0:0:
104,188,286666,2,0,L|144:324,1,135.99999584961,8|0,1:0|0:0,0:0:0:0:
212,360,287029,6,0,B|216:256|360:212|432:316,1,272,4|4,1:0|1:0,0:0:0:0:
416,296,288120,1,6,0:0:0:0:
464,60,288484,5,10,1:0:0:0:
464,60,288605,2,2,L|392:68,1,56.6666666666667,2|2,3:0|3:0,3:0:0:0:
316,128,288847,5,10,1:0:0:0:
316,128,288969,2,2,L|340:56,1,56.6666666666667,2|2,3:0|3:0,3:0:0:0:
196,80,289211,5,10,1:0:0:0:
196,80,289332,2,2,L|220:152,1,56.6666666666667,2|2,3:0|3:0,3:0:0:0:
108,72,289575,5,10,1:0:0:0:
108,72,289696,2,2,L|40:64,1,56.6666666666667,2|2,3:0|3:0,3:0:0:0:
100,156,289938,5,12,1:0:0:0:
100,156,290302,2,0,B|144:204|124:276,1,113.333333333333,8|0,1:0|0:0,0:0:0:0:
88,336,290666,2,0,B|128:320|176:336|196:372,1,113.333333333333,4|0,1:0|0:0,0:0:0:0:
244,308,291029,2,0,L|284:132,1,170,4|4,1:2|1:0,0:0:0:0:
281,142,291635,5,2,3:0:0:0:
281,142,291756,2,0,B|301:106|349:94|393:122,1,113.333333333333,8|0,1:0|0:0,0:0:0:0:
396,196,292120,1,0,3:0:0:0:
432,64,292362,1,2,3:0:0:0:
480,120,292484,2,0,B|520:176|488:244,1,113.333333333333,8|0,1:0|3:0,0:0:0:0:
452,292,292847,5,4,1:0:0:0:
360,348,293090,1,0,3:0:0:0:
360,348,293211,2,0,L|232:320,1,113.333333333333,2|0,3:0|0:0,0:0:0:0:
204,264,293575,2,0,B|156:308|88:292,1,113.333333333333,0|0,3:0|3:0,0:0:0:0:
40,248,293938,1,8,1:0:0:0:
184,188,294181,5,0,3:0:0:0:
224,128,294302,2,0,B|236:84|224:48|224:48|216:68|200:72,1,113.333333333333,0|0,3:0|0:0,0:0:0:0:
304,80,294666,2,0,B|368:104|420:52,1,113.333333333333,2|0,3:0|0:0,0:0:0:0:
416,36,295029,2,0,L|376:172,1,113.333333333333,0|0,3:0|3:0,0:0:0:0:
332,320,295393,5,8,1:0:0:0:
332,320,295756,2,0,B|236:332|256:276|156:292,1,170,4|2,1:0|3:0,0:0:0:0:
44,152,296362,1,0,3:0:0:0:
44,152,296484,2,0,B|96:184|164:160,1,113.333333333333,2|0,3:0|0:0,0:0:0:0:
224,127,296847,2,0,B|272:87|348:107|360:171,1,170,8|4,1:0|1:0,0:0:0:0:
296,236,297453,5,0,3:0:0:0:
296,236,297575,1,2,3:0:0:0:
460,184,297817,1,0,3:0:0:0:
460,184,297938,1,2,3:0:0:0:
400,336,298181,1,0,3:0:0:0:
400,336,298302,2,0,B|348:372|280:348,1,113.333333333333,8|0,1:0|0:0,0:0:0:0:
216,348,298666,6,0,B|216:264|104:212|32:284,1,226.666666666667,4|0,1:0|0:0,0:0:0:0:
48,270,299393,2,0,B|128:252|160:124|56:72,1,226.666666666667,4|0,1:0|0:0,0:0:0:0:
82,89,300120,1,12,1:0:0:0:
272,128,300484,6,0,B|312:124|328:108,1,56.6666666666667,8|0,3:0|3:0,0:0:0:0:
396,68,300726,1,2,3:0:0:0:
396,68,300847,2,0,B|436:116|412:192|344:200,1,170,4|0,0:0|0:0,0:0:0:0:
164,199,301575,5,2,0:0:0:0:
130,325,301927,1,2,0:0:0:0:
382,325,302280,5,4,0:0:0:0:
348,199,302633,1,4,0:0:0:0:
214,279,302986,6,0,P|255:276|299:274,1,85
256,188,303339,1,8,1:0:0:0:
256,364,303516,1,0,0:0:0:0:
125,237,303692,2,0,P|116:280|125:323,1,85,0|0,3:0|3:0,0:0:0:0:
298,274,304045,1,8,1:0:0:0:
166,154,304222,6,0,P|196:111|305:109,1,170,0|0,3:0|0:0,0:0:0:0:
424,319,304751,2,0,P|431:278|423:237,1,85,8|0,1:0|0:0,0:0:0:0:
214,279,305104,2,0,P|255:276|299:274,1,85,0|0,3:0|3:0,0:0:0:0:
130,325,305457,1,8,1:0:0:0:
311,275,305633,1,2,0:0:0:0:
138,147,305810,6,0,P|133:189|131:231,1,85,4|0,1:0|0:0,0:0:0:0:
304,108,306163,1,8,1:0:0:0:
325,275,306339,1,0,0:0:0:0:
212,197,306516,5,0,3:0:0:0:
406,180,306692,1,0,3:0:0:0:
304,108,306869,1,8,1:0:0:0:
476,263,307045,6,0,P|514:190|490:110,1,170,0|0,3:0|0:0,0:0:0:0:
321,188,307575,2,0,P|363:182|406:180,1,85,8|0,1:0|0:0,0:0:0:0:
215,241,307927,2,0,P|208:198|206:156,1,85,0|0,3:0|3:0,0:0:0:0:
66,112,308280,5,8,1:0:0:0:
83,140,308369,1,8,1:0:0:0:
94,172,308457,1,8,1:0:0:0:
97,206,308545,1,8,1:0:0:0:
91,239,308633,2,0,L|80:337,1,85,4|0,1:0|0:0,0:0:0:0:
325,275,308986,1,8,1:0:0:0:
206,156,309163,1,0,0:0:0:0:
206,156,309339,2,0,L|217:254,1,85,0|0,3:0|3:0,0:0:0:0:
237,384,309692,1,8,1:0:0:0:
413,312,309869,6,0,B|419:251|419:251|397:216|397:216|406:149,1,170,0|0,3:0|0:0,0:0:0:0:
195,71,310398,2,0,L|207:168,1,85,8|0,1:0|0:0,0:0:0:0:
435,57,310751,2,0,P|391:55|340:77,1,85,0|0,3:0|3:0,0:0:0:0:
158,239,311104,2,0,B|204:257|241:241|241:241|277:266,1,127.5,8|0,1:0|0:0,0:0:0:0:
356,317,311457,6,0,P|369:271|364:234,1,85,4|0,1:0|0:0,0:0:0:0:
78,187,311810,2,0,P|65:233|70:270,1,85,8|0,1:0|3:0,0:0:0:0:
295,167,312163,1,8,1:0:0:0:
158,239,312339,1,0,3:0:0:0:
261,66,312516,1,8,1:0:0:0:
401,227,312692,6,0,B|285:205|285:205|235:247,1,170,4|0,1:0|0:0,0:0:0:0:
420,134,313254,2,0,B|427:96|427:96|418:51,1,85,4|0,1:0|0:0,0:0:0:0:
492,193,313662,6,0,B|496:247|496:247|479:293,1,102,4|0,3:0|0:0,0:0:0:0:
494,350,314070,6,2,P|473:321|413:313,1,89.2499972763062,2|0,0:1|0:0,1:0:0:0:
353,379,314478,6,0,P|391:338|327:261,1,170,4|2,1:0|0:3,0:0:0:0:
242,338,315090,1,2,0:0:0:0:
137,278,315294,2,0,P|123:318|124:360,1,85,4|0,3:0|0:0,0:0:0:0:
230,209,315702,2,0,P|231:166|217:126,1,85,8|0,1:0|0:0,0:0:0:0:
54,179,316110,6,0,L|145:176,1,85,4|0,1:0|0:0,0:0:0:0:
204,140,316412,1,2,0:0:0:0:
217,126,316512,2,0,L|308:123,1,85,2|0,0:3|0:0,0:0:0:0:
134,86,316915,5,0,3:0:0:0:
229,237,317116,1,0,0:0:0:0:
395,178,317318,2,0,P|406:136|399:76,1,102,8|0,1:0|0:0,0:0:0:0:
375,41,317720,6,0,L|315:51,1,42.5,4|0,3:0|0:0,0:0:0:0:
301,123,317922,2,0,L|241:113,1,42.5,4|0,3:0|0:0,0:0:0:0:
180,171,318123,6,0,P|162:118|177:64,1,101.999996887207,4|0,1:0|0:0,0:0:0:0:
302,233,318526,6,0,L|242:243,1,42.5,4|0,3:0|0:0,0:0:0:0:
228,315,318728,2,0,L|168:305,1,42.5,4|0,3:0|0:0,0:0:0:0:
107,363,318929,6,0,P|89:310|104:256,1,101.999996887207,4|0,1:0|0:0,0:0:0:0:
413,266,319331,6,0,P|422:315|405:362,1,101.999996887207,4|0,1:0|0:0,0:0:0:0:
443,180,319739,2,0,P|484:208|504:253,1,101.999996887207,8|0,1:0|0:0,0:0:0:0:
402,98,320147,2,0,P|451:89|497:106,1,101.999996887207,4|0,1:0|0:0,0:0:0:0:
315,69,320555,5,4,3:0:0:0:
326,46,320657,1,4,3:0:0:0:
343,27,320759,1,4,3:0:0:0:
365,14,320861,1,4,3:0:0:0:
389,7,320963,1,4,1:0:0:0:
256,352,321363,1,12,1:0:0:0:
122,7,321763,6,0,L|226:13,1,85,8|8,1:0|1:0,0:0:0:0:
289,55,322063,1,0,1:0:0:0:
315,69,322163,2,0,L|390:75,1,42.5,8|0,1:0|0:0,0:0:0:0:
197,120,322363,2,0,L|122:126,1,42.5,8|0,1:0|1:0,1:0:0:0:
298,180,322563,6,0,B|398:188|398:188|362:230,1,152.999995330811,4|0,1:0|0:0,0:0:0:0:
288,315,322963,2,0,L|396:312,1,101.999996887207,4|0,1:0|0:0,0:0:0:0:
208,231,323363,1,8,1:0:0:0:
185,368,323563,1,0,3:0:0:0:
185,368,323663,1,4,3:0:0:0:
185,368,323763,1,4,3:0:0:0:
56,314,323963,5,4,3:0:0:0:
56,314,324063,1,4,3:0:0:0:
56,314,324163,2,0,P|56:271|52:226,1,85,4|0,1:0|0:0,0:0:0:0:
208,231,324555,2,0,P|208:188|212:143,1,85,8|0,1:0|0:0,0:0:0:0:
309,370,324947,2,0,P|309:327|305:282,1,85,0|0,3:0|3:0,0:0:0:0:
461,287,325339,2,0,P|461:244|465:199,1,85,8|0,1:0|0:0,0:0:0:0:
362,32,325731,6,0,B|379:80|371:128|371:128|331:151,1,127.5,4|0,1:0|0:0,0:0:0:0:
291,161,326128,2,0,P|249:142|202:149,1,85,8|0,1:0|0:0,0:0:0:0:
138,248,326525,1,0,3:0:0:0:
349,232,326724,1,0,3:0:0:0:
248,311,326923,2,0,P|245:272|243:227,1,85,8|0,1:0|0:0,0:0:0:0:
409,363,327320,5,4,1:0:0:0:
95,378,327712,1,4,0:0:0:0:
409,363,328104,5,4,1:0:0:0:
252,372,328300,1,0,0:0:0:0:
95,378,328496,1,4,0:0:0:0:
409,363,328888,6,0,P|448:339|432:229,1,170,4|2,1:0|0:0,0:0:0:0:
364,181,329461,1,0,3:0:0:0:
290,223,329652,1,4,3:0:0:0:
269,305,329843,1,4,3:0:0:0:
205,361,330034,1,8,1:0:0:0:
120,359,330225,1,8,1:0:0:0:
54,306,330416,5,4,1:2:0:0:
9,195,331888,6,0,B|123:161|82:269|199:237,1,203.999993774414,4|8,1:0|1:0,0:0:0:0:
271,209,332440,1,0,0:0:0:0:
460,295,332624,2,0,P|410:282|303:278,2,152.999995330811,0|8|8,1:0|1:0|1:0,0:0:0:0:
279,342,333360,6,0,P|213:350|66:332,1,203.999993774414,4|8,1:2|1:0,0:0:0:0:
1,303,333912,1,0,0:0:0:0:
23,224,334096,2,0,P|21:173|29:44,2,152.999995330811,0|8|8,1:0|1:0|1:0,0:0:0:0:
165,90,334833,6,0,P|257:111|252:215,1,203.999993774414,4|8,1:2|1:0,0:0:0:0:
419,75,335385,1,0,0:0:0:0:
419,75,335569,2,0,P|414:140|415:243,2,152.999995330811,0|8|8,1:0|1:0|1:0,0:0:0:0:
337,180,336305,5,4,1:2:0:0:
261,212,336489,1,2,0:0:0:0:
221,283,336673,1,8,1:0:0:0:
221,364,336857,1,2,0:0:0:0:
293,326,337041,5,0,1:0:0:0:
293,326,337133,1,2,0:0:0:0:
293,326,337225,1,2,0:0:0:0:
154,325,337409,1,8,1:0:0:0:
15,324,337593,1,2,0:0:0:0:
58,259,337777,6,0,B|38:142|129:183|104:39,1,203.999993774414,4|8,1:0|1:0,0:0:0:0:
169,13,338330,1,0,0:0:0:0:
223,73,338514,2,0,P|308:74|396:51,2,152.999995330811,0|8|8,1:0|1:0|1:0,0:0:0:0:
196,203,339250,6,0,P|287:208|418:184,1,203.999993774414,4|8,1:2|1:0,0:0:0:0:
388,317,339802,1,0,0:0:0:0:
307,331,339986,2,0,P|247:333|141:322,2,152.999995330811,0|8|8,1:0|1:0|1:0,0:0:0:0:
120,247,340722,5,4,1:0:0:0:
41,223,340906,1,2,0:0:0:0:
102,169,341090,1,8,1:0:0:0:
239,233,341274,5,4,1:0:0:0:
318,209,341458,1,2,0:0:0:0:
257,155,341642,1,2,0:0:0:0:
135,183,341827,5,12,1:0:0:0:
56,159,342011,1,0,0:0:0:0:
220,164,342195,5,12,1:0:0:0:
299,140,342379,1,2,0:0:0:0:
163,106,342563,1,8,1:0:0:0:
212,31,342747,1,0,1:0:0:0:
227,33,342839,1,0,1:0:0:0:
242,35,342931,1,8,1:0:0:0:
257,37,343023,1,0,1:0:0:0:
272,39,343115,1,0,1:0:0:0:
286,43,343207,1,0,1:0:0:0:
301,45,343299,6,0,L|394:57,1,68,12|8,1:0|1:0,0:0:0:0:
480,92,343667,6,0,B|532:156|504:248,1,152.999995330811,4|0,1:0|0:0,0:0:0:0:
456,324,344035,2,0,B|416:280|436:212,1,101.999996887207,8|0,1:0|3:0,0:0:0:0:
396,144,344403,6,0,B|356:200|252:176,1,152.999995330811,8|0,1:0|3:0,0:0:0:0:
156,300,344771,2,0,B|192:248|264:264,1,101.999996887207,8|0,1:0|3:0,0:0:0:0:
320,268,345139,6,0,B|240:272|200:176|248:124,1,203.999993774414,4|8,1:0|1:0,0:0:0:0:
248,123,345692,1,0,3:0:0:0:
256,336,345876,1,8,1:0:0:0:
336,180,346060,1,0,3:0:0:0:
156,228,346244,1,8,1:0:0:0:
336,180,346428,1,0,3:0:0:0:
280,252,346612,6,0,B|328:280|388:260,1,101.999996887207,4|0,1:0|0:0,0:0:0:0:
440,192,346980,1,8,1:0:0:0:
256,112,347164,1,2,0:0:0:0:
256,112,347256,1,2,0:0:0:0:
256,112,347348,2,0,B|208:140|148:120,1,101.999996887207,8|0,1:0|3:0,0:0:0:0:
424,40,347716,2,0,B|396:88|416:148,1,101.999996887207,8|0,1:0|3:0,0:0:0:0:
488,180,348084,5,4,1:0:0:0:
384,336,348268,1,2,0:0:0:0:
346,242,348452,1,8,1:0:0:0:
444,252,348636,1,0,3:0:0:0:
276,344,348820,1,8,1:0:0:0:
244,188,349004,1,4,3:2:0:0:
192,276,349189,2,0,B|136:284|92:244,1,101.999996887207,8|0,1:0|0:0,0:0:0:0:
344,180,349557,5,4,1:0:0:0:
344,180,349925,1,8,1:0:0:0:
312,320,350109,1,0,3:0:0:0:
440,260,350293,1,8,1:0:0:0:
304,112,350477,1,0,3:0:0:0:
352,256,350661,1,8,1:0:0:0:
236,216,350845,1,0,3:0:0:0:
418,164,351029,6,0,B|458:212|434:276,1,101.999996887207,4|0,1:0|0:0,0:0:0:0:
280,344,351397,1,8,1:0:0:0:
352,256,351581,1,0,3:0:0:0:
236,216,351765,2,0,B|172:196|120:224,1,101.999996887207,8|0,1:0|0:0,0:0:0:0:
80,312,352133,5,8,1:0:0:0:
80,312,352225,1,8,1:0:0:0:
80,312,352317,1,0,3:0:0:0:
80,312,352409,1,0,3:0:0:0:
80,312,352501,1,4,1:0:0:0:
40,160,352685,1,4,1:0:0:0:
172,360,353054,5,4,1:0:0:0:
200,188,353238,1,4,1:0:0:0:
328,304,353606,5,4,1:0:0:0:
296,96,353790,1,4,1:0:0:0:
424,248,354158,5,4,1:0:0:0:
468,40,354342,1,4,1:0:0:0:
256,192,354802,5,2,0:0:0:0:
256,192,355538,5,2,0:0:0:0:
256,192,356182,6,0,P|257:123|269:15,1,170,4|8,1:0|1:0,0:0:0:0:
338,192,356887,6,0,P|333:234|332:276,1,85,4|8,1:2|1:0,0:0:0:0:
318,293,357152,1,0,1:0:0:0:
302,307,357240,2,0,P|259:302|217:301,1,85,8|0,1:0|1:0,0:0:0:0:
67,346,357593,6,0,P|70:276|59:155,1,170,4|8,1:0|1:0,0:0:0:0:
9,123,358123,1,0,0:0:0:0:
118,62,358299,2,0,P|172:58|234:59,1,85,4|0,1:2|0:0,0:0:0:0:
291,129,358652,2,0,P|333:128|375:124,1,85,8|0,1:0|0:0,0:0:0:0:
204,131,359005,6,0,P|196:215|199:300,1,170,4|8,1:0|1:0,0:0:0:0:
270,352,359534,1,0,0:0:0:0:
435,311,359711,2,0,P|433:226|438:159,1,127.5,4|0,1:2|0:0,0:0:0:0:
451,169,360064,2,0,P|451:112|446:76,1,85,8|8,1:0|1:0,0:0:0:0:
257,12,360417,6,0,P|253:76|262:154,2,127.5,4|4|4,1:0|1:0|1:0,0:0:0:0:
235,11,361034,1,0,1:0:0:0:
213,14,361123,1,0,1:0:0:0:
193,22,361211,1,0,1:0:0:0:
174,32,361299,1,0,1:0:0:0:
154,40,361387,1,0,1:0:0:0:
133,45,361476,1,8,1:0:0:0:
111,46,361564,1,0,1:0:0:0:
89,43,361652,1,0,1:0:0:0:
68,36,361740,1,0,1:0:0:0:
50,24,361829,1,4,1:0:0:0:
57,32,362358,5,0,1:0:0:0:
57,32,362446,1,0,1:0:0:0:
57,32,362534,1,8,1:0:0:0:
52,180,362799,1,8,1:0:0:0:
47,328,363064,1,8,1:0:0:0:
116,278,363240,6,0,P|188:270|222:274,1,85,4|0,1:0|0:0,0:0:0:0:
260,362,363593,2,0,P|302:362|344:354,1,85,8|0,1:0|0:0,0:0:0:0:
454,300,363946,1,4,1:2:0:0:
466,379,364123,1,0,0:0:0:0:
496,210,364299,5,8,1:0:0:0:
333,147,364476,1,8,1:0:0:0:
194,236,364652,2,0,P|185:162|187:76,1,127.5,4|0,1:0|0:0,0:0:0:0:
198,92,365005,5,8,1:0:0:0:
373,49,365182,1,8,1:0:0:0:
493,182,365358,2,0,P|491:245|475:361,1,170,4|0,1:0|0:0,0:0:0:0:
255,367,365887,5,8,1:0:0:0:
255,367,366064,2,0,P|256:326|254:281,1,85,4|0,1:0|0:0,0:0:0:0:
68,283,366417,2,0,P|66:323|69:369,1,85,4|0,1:0|0:0,0:0:0:0:
164,338,366770,5,8,1:0:0:0:
168,239,366946,1,8,1:0:0:0:
172,140,367123,1,8,1:0:0:0:
258,182,367299,5,8,1:0:0:0:
258,182,367387,1,0,1:0:0:0:
258,182,367476,2,0,P|339:169|433:191,1,170,4|8,3:1|3:1,0:0:0:0:
490,143,368005,1,0,0:0:0:0:
297,78,368182,2,0,P|216:65|122:87,1,170,4|8,3:2|3:1,0:0:0:0:
52,69,368711,1,0,0:0:0:0:
73,291,368887,6,0,P|94:330|136:362,1,85,4|0,3:1|0:0,0:0:0:0:
177,194,369240,2,0,P|132:192|84:213,1,85,8|0,3:1|0:0,0:0:0:0:
209,332,369593,2,0,P|232:294|238:241,1,85,4|0,3:2|0:0,0:0:0:0:
395,261,369946,2,0,P|370:197|367:117,1,127.5,8|0,3:1|0:0,0:0:0:0:
378,122,370299,6,0,P|327:89|214:121,2,170,4|8|4,1:0|1:0|1:2,0:0:0:0:
464,101,371182,2,0,P|467:156|471:192,1,85,0|8,0:0|1:0,0:0:0:0:
456,308,371534,5,0,0:0:0:0:
456,308,371711,2,0,P|386:338|269:322,1,170,4|8,1:0|1:0,0:0:0:0:
216,297,372240,1,8,1:0:0:0:
136,327,372417,2,0,P|132:273|140:227,1,85,4|0,1:2|1:0,0:0:0:0:
151,227,372682,1,0,1:0:0:0:
167,213,372770,2,0,P|171:159|163:113,1,85,8|0,1:0|0:0,0:0:0:0:
7,22,373123,5,6,1:0:0:0:
29,103,373299,1,8,1:0:0:0:
29,103,373387,1,2,0:1:0:0:
29,103,373476,1,8,1:0:0:0:
102,82,373652,1,2,1:0:0:0:
83,7,373829,1,4,1:2:0:0:
7,22,374005,1,2,1:0:0:0:
29,103,374182,1,10,1:0:0:0:
102,82,374358,1,4,0:0:0:0:
254,199,374534,5,6,1:0:0:0:
335,157,374711,1,8,1:0:0:0:
335,157,374799,1,2,0:1:0:0:
335,157,374887,1,8,1:0:0:0:
326,244,375064,1,2,1:0:0:0:
260,118,375240,1,4,1:2:0:0:
252,279,375417,1,2,0:1:0:0:
399,210,375593,1,8,1:0:0:0:
64,181,375946,6,0,P|59:256|52:307,2,127.5,4|0|8,1:0|1:0|1:0,0:0:0:0:
64,181,376564,1,8,1:0:0:0:
64,181,376652,1,4,1:2:0:0:
139,142,376829,1,8,1:3:0:0:
159,146,376917,1,4,1:3:0:0:
179,150,377005,1,8,1:3:0:0:
295,92,377182,5,0,1:0:0:0:
275,96,377270,1,0,1:0:0:0:
255,100,377358,1,4,1:0:0:0:
290,184,377534,1,0,1:0:0:0:
310,188,377622,1,0,1:0:0:0:
330,192,377710,1,8,1:0:0:0:
401,145,377887,1,8,1:0:0:0:
378,269,378064,5,8,3:0:0:0:
358,273,378152,1,4,3:0:0:0:
338,277,378240,1,8,3:0:0:0:
264,338,378417,1,4,3:0:0:0:
284,342,378505,1,8,3:0:0:0:
304,346,378593,1,4,3:0:0:0:
487,322,378770,6,2,P|494:242|343:154,1,255,6|0,1:0|0:0,1:0:0:0:
274,224,379476,2,2,B|117:245|196:131|20:155,1,255,10|0,1:0|0:0,1:0:0:0:
205,48,380182,6,2,B|281:23|281:23|396:59,1,170,6|0,1:0|0:0,1:0:0:0:
444,23,380711,1,2,0:0:0:0:
440,107,380887,1,10,1:0:0:0:
436,192,381064,1,0,0:0:0:0:
432,276,381240,1,10,1:0:0:0:
109,354,381593,6,2,P|105:265|243:216,1,255,6|0,1:0|0:0,1:0:0:0:
407,250,382299,2,2,P|411:161|273:112,1,255,8|0,1:0|0:0,1:0:0:0:
151,108,383005,1,6,1:0:0:0:
105,47,383182,2,0,P|65:38|20:15,2,85,2|10|2,0:0|1:0|0:1,0:0:0:0:
251,201,383711,5,8,1:0:0:0:
207,273,383887,1,0,1:0:0:0:
211,293,383976,1,0,0:0:0:0:
215,313,384064,1,12,1:0:0:0:
12,201,384417,6,0,P|78:197|138:96,1,170,4|8,1:0|1:0,0:0:0:0:
199,60,384946,1,0,3:0:0:0:
315,148,385123,5,8,1:0:0:0:
370,83,385299,1,0,3:0:0:0:
285,68,385476,1,8,1:0:0:0:
235,137,385652,1,0,3:0:0:0:
177,200,385829,6,0,P|164:262|249:324,1,170,4|8,1:0|1:0,0:0:0:0:
313,283,386358,1,0,3:0:0:0:
424,261,386534,5,8,1:0:0:0:
408,344,386711,1,0,3:0:0:0:
487,315,386887,1,8,1:0:0:0:
424,261,387064,1,0,3:0:0:0:
504,233,387240,6,0,P|499:177|395:114,1,170,4|8,1:0|1:0,0:0:0:0:
354,172,387770,1,0,3:0:0:0:
254,127,387946,1,4,3:0:0:0:
187,202,388123,1,4,3:0:0:0:
65,144,388299,1,4,3:0:0:0:
159,47,388476,5,4,3:0:0:0:
159,47,388564,1,4,3:0:0:0:
159,47,388652,1,4,1:0:0:0:
79,284,389182,1,0,1:0:0:0:
79,284,389270,1,0,1:0:0:0:
79,284,389358,1,8,1:0:0:0:
160,308,389534,1,8,1:0:0:0:
256,192,390064,5,4,1:0:0:0:
256,192,390242,12,0,392206,0:0:0:0:
404,216,401492,6,0,L|396:288,1,68,2|2,3:0|3:0,0:0:0:0:
316,280,401849,2,0,L|304:196,1,68,2|0,0:0|0:0,0:0:0:0:
404,216,402206,2,0,L|480:232,1,68,2|0,0:0|0:0,0:0:0:0:
316,280,402564,2,0,L|232:260,1,68,2|2,0:0|0:0,0:0:0:0:
172,232,402921,5,2,3:0:0:0:
240,188,403099,1,2,3:0:0:0:
168,148,403278,1,2,0:0:0:0:
212,292,403456,1,0,0:0:0:0:
320,152,403635,1,4,0:0:0:0:
296,328,403992,5,2,0:0:0:0:
376,352,404171,1,2,0:0:0:0:
376,352,406849,6,0,L|352:204,1,136,2|2,0:0|3:0,0:0:0:0:
336,144,407385,1,2,3:0:0:0:
412,164,407564,2,0,B|464:176|496:172,1,68,2|0,0:0|0:0,0:0:0:0:
396,80,407921,1,2,0:0:0:0:
312,64,408099,1,0,0:0:0:0:
336,144,408278,1,2,0:0:0:0:
412,164,408456,1,2,0:0:0:0:
244,120,408635,6,0,B|244:192|240:264,1,136,2|2,3:0|0:0,0:0:0:0:
328,256,409171,1,0,0:0:0:0:
160,296,409349,2,0,B|164:260|160:212,1,68,2|0,0:0|0:0,0:0:0:0:
76,264,409706,2,0,B|72:300|76:348,1,68,2|4,0:0|0:0,0:0:0:0:
140,372,410064,1,0,0:0:0:0:
312,184,412206,5,2,0:0:0:0:
316,188,412385,1,4,0:0:0:0:
320,192,412564,2,0,B|348:240|328:296,1,102,4|0,0:0|0:0,0:0:0:0:
308,316,412921,6,0,L|404:296,1,85,4|0,1:0|0:0,0:0:0:0:
480,336,413278,2,0,B|464:296|484:248,1,85,0|0,3:0|0:0,0:0:0:0:
348,148,413635,2,0,B|360:196|416:216,1,85,0|0,3:0|0:0,0:0:0:0:
508,132,413992,2,0,B|496:84|440:64,1,85,0|0,3:0|0:0,0:0:0:0:
368,48,414349,6,0,L|200:72,1,170,4|0,3:2|3:0,0:0:0:0:
200,72,415064,1,0,3:0:0:0:
140,152,415242,1,4,3:0:0:0:
212,216,415421,2,0,B|220:264|216:316,1,85,4|0,3:0|0:0,0:0:0:0:
136,268,415778,5,4,1:0:0:0:
144,356,415956,1,0,0:0:0:0:
64,320,416135,1,0,3:0:0:0:
136,268,416314,1,0,0:0:0:0:
292,336,416492,6,0,B|332:356|376:348,1,85,0|0,3:0|0:0,0:0:0:0:
456,308,416849,1,0,3:0:0:0:
380,264,417028,1,0,0:0:0:0:
384,120,417206,5,4,3:2:0:0:
452,64,417385,2,0,B|460:108|468:160,1,85,4|0,3:0|3:0,0:0:0:0:
300,212,417742,1,4,3:0:0:0:
392,200,417921,5,0,3:0:0:0:
284,128,418099,1,4,3:0:0:0:
316,296,418278,1,0,0:0:0:0:
208,232,418456,1,4,0:0:0:0:
120,240,418635,6,0,B|72:240|4:228,1,85,4|0,1:0|0:0,0:0:0:0:
231,302,418992,2,0,B|279:302|347:290,1,85,0|0,3:0|0:0,0:0:0:0:
272,144,419349,2,0,B|232:152|184:152,1,85,0|0,3:0|0:0,0:0:0:0:
400,200,419706,2,0,B|452:200|492:188,1,85,0|0,3:0|0:0,0:0:0:0:
416,340,420064,6,0,B|376:360|320:364,1,85,4|0,3:2|0:0,0:0:0:0:
124,248,420421,2,0,B|164:228|220:224,1,85,0|0,3:0|0:0,0:0:0:0:
384,40,420778,2,0,L|368:144,1,85,0|0,3:0|0:0,0:0:0:0:
248,364,421135,2,0,L|260:264,1,85,0|0,1:0|1:0,0:0:0:0:
288,116,421492,5,0,1:0:0:0:
284,136,421581,1,0,1:0:0:0:
274,155,421671,1,0,1:0:0:0:
260,171,421760,1,0,1:0:0:0:
242,183,421849,1,8,1:0:0:0:
221,188,421939,1,8,1:0:0:0:
199,188,422028,1,8,1:0:0:0:
178,183,422117,1,8,1:0:0:0:
159,172,422206,2,8,L|148:112,1,42.5,8|8,1:0|1:0,1:0:0:0:
80,212,422385,6,0,L|56:100,1,85,8|4,1:0|3:0,0:0:0:0:
104,300,422742,1,2,0:0:0:0:
344,276,422921,5,4,1:0:0:0:
204,328,423099,1,0,3:0:0:0:
152,188,423278,1,8,1:0:0:0:
280,116,423456,1,0,1:0:0:0:
112,88,423635,5,4,3:0:0:0:
92,248,423814,1,0,1:0:0:0:
256,272,423992,1,8,1:0:0:0:
280,116,424171,5,8,1:0:0:0:
280,116,424260,1,8,1:0:0:0:
280,116,424349,1,4,1:0:0:0:
181,180,424528,1,0,0:0:0:0:
387,166,424706,6,0,P|397:124|391:78,1,85,8|0,1:0|3:0,0:0:0:0:
73,144,425064,2,0,P|68:186|78:227,1,85,0|0,1:0|3:0,0:0:0:0:
402,333,425421,2,0,P|412:291|406:245,1,85,8|0,1:0|3:0,0:0:0:0:
181,180,425778,5,4,1:0:0:0:
181,180,426133,1,8,1:0:0:0:
155,314,426310,1,0,3:0:0:0:
279,161,426488,5,0,1:0:0:0:
278,324,426665,1,0,3:0:0:0:
376,138,426843,5,8,1:0:0:0:
402,333,427020,1,0,3:0:0:0:
210,253,427198,5,4,1:0:0:0:
210,253,427550,1,8,1:0:0:0:
362,236,427727,1,0,3:0:0:0:
174,152,427903,5,0,1:0:0:0:
376,138,428080,1,0,3:0:0:0:
138,51,428256,5,8,1:0:0:0:
390,40,428433,1,0,3:0:0:0:
278,186,428609,6,0,P|271:146|272:95,1,85,4|0,1:0|0:0,0:0:0:0:
362,236,428959,1,8,1:0:0:0:
210,253,429136,1,0,3:0:0:0:
376,138,429310,5,4,3:0:0:0:
422,157,429398,2,0,P|451:189|449:277,1,127.5,4|12,3:0|1:0,0:0:0:0:
107,308,430012,6,0,P|89:269|90:227,1,85,4|0,1:3|0:0,0:0:0:0:
405,76,430360,2,0,P|422:114|421:156,1,85,8|0,1:0|0:0,0:0:0:0:
140,43,430709,2,0,P|178:25|220:26,1,85,0|0,1:0|0:0,0:0:0:0:
372,341,431057,2,0,P|333:358|291:357,1,85,8|0,1:0|0:0,0:0:0:0:
177,179,431407,5,4,1:0:0:0:
335,205,431580,1,4,0:0:0:0:
164,258,431753,5,8,1:0:0:0:
190,100,431926,1,4,3:2:0:0:
335,205,432100,5,0,3:0:0:0:
177,179,432273,1,4,3:2:0:0:
348,126,432447,5,8,1:0:0:0:
322,284,432620,1,4,3:2:0:0:
97,165,432794,5,4,1:0:0:0:
415,219,435552,1,4,0:0:0:0:
400,304,440352,5,2,0:0:0:0:
332,260,440523,1,2,0:0:0:0:
332,260,440609,1,2,0:0:0:0:
332,260,440694,2,0,B|280:216|200:232,1,127.5,8|0,0:0|0:0,0:0:0:0:
176,244,441037,6,0,B|148:212|160:156,1,85,4|0,1:0|0:0,0:0:0:0:
200,88,441380,1,8,1:0:0:0:
332,260,441552,2,0,B|340:324|268:372|212:336,1,170,2|0,1:0|0:0,0:0:0:0:
120,264,442066,1,10,1:0:0:0:
240,192,442237,1,2,1:0:0:0:
120,112,442409,6,0,B|72:108|16:112,1,85,4|0,1:2|0:0,0:0:0:0:
200,48,442752,1,10,1:0:0:0:
240,192,442923,1,2,1:0:0:0:
304,92,443094,1,0,3:0:0:0:
304,92,443180,1,0,1:0:0:0:
304,92,443266,2,0,B|352:96|408:92,1,85,0|10,1:0|1:0,0:0:0:0:
460,44,443609,1,4,0:0:0:0:
428,232,443780,6,0,B|376:200|298:220|272:288,1,170,4|8,1:0|1:0,0:0:0:0:
256,360,444294,1,2,1:0:0:0:
104,268,444466,2,0,B|72:232|92:160,1,85,0|0,3:0|0:0,0:0:0:0:
196,52,444809,2,0,B|228:88|208:160,1,85,10|0,1:0|0:0,0:0:0:0:
176,212,445152,5,4,1:2:0:0:
268,268,445323,1,0,1:0:0:0:
312,276,445409,1,0,1:0:0:0:
352,260,445494,1,8,1:0:0:0:
376,224,445580,1,8,1:0:0:0:
372,180,445666,1,10,1:0:0:0:
288,88,445837,5,10,1:0:0:0:
288,88,446009,1,2,1:0:0:0:
464,40,446180,5,0,1:0:0:0:
464,64,446266,1,4,3:0:0:0:
464,88,446352,1,4,3:0:0:0:
464,112,446437,1,4,3:0:0:0:
464,136,446523,2,0,B|464:212|464:252,1,85,4|0,1:0|0:0,0:0:0:0:
416,292,446866,1,8,1:0:0:0:
300,236,447037,1,0,0:0:0:0:
368,132,447209,1,0,3:0:0:0:
384,216,447380,5,0,0:0:0:0:
284,152,447552,1,8,1:0:0:0:
220,248,447723,2,0,B|172:244|128:236,1,85,0|0,0:0|3:0,0:0:0:0:
320,352,448066,2,0,B|360:356|408:364,1,85,0|8,0:0|1:0,0:0:0:0:
488,304,448409,1,0,0:0:0:0:
360,224,448580,1,0,3:0:0:0:
360,224,448666,1,8,1:0:0:0:
360,224,448752,1,8,1:0:0:0:
436,136,448923,5,8,1:0:0:0:
456,232,449094,1,0,1:0:0:0:
288,160,449266,2,0,B|236:132|160:164|152:220,1,170,0|8,3:0|1:0,0:0:0:0:
132,120,449780,2,0,L|116:12,1,85,0|0,0:0|3:0,0:0:0:0:
119,35,450037,1,8,1:0:0:0:
119,35,450123,1,8,1:0:0:0:
40,100,450294,1,8,1:0:0:0:
152,218,450466,1,0,1:0:0:0:
72,180,450637,6,0,B|28:228|40:296,1,85,4|0,1:2|0:0,0:0:0:0:
240,256,450980,2,0,B|284:208|272:140,1,85,8|4,1:0|0:0,0:0:0:0:
252,96,451323,1,0,3:0:0:0:
252,96,451409,1,8,1:0:0:0:
252,96,451494,1,8,1:0:0:0:
312,292,451666,1,8,1:0:0:0:
416,168,451837,5,0,1:0:0:0:
416,168,451923,1,8,1:0:0:0:
416,168,452009,2,0,B|460:168|512:164,1,85,4|0,1:0|0:0,0:0:0:0:
408,312,452352,1,8,1:0:0:0:
344,248,452523,2,0,B|312:196|216:204|192:272,1,170,0|0,1:0|1:0,0:0:0:0:
272,128,453037,1,8,1:0:0:0:
352,148,453209,6,0,B|400:148|456:140,1,85,0|0,1:0|3:0,0:0:0:0:
448,320,453552,2,0,B|400:320|344:328,1,85,0|8,0:0|1:0,0:0:0:0:
168,272,453894,2,0,B|208:312|296:284|308:220,1,170,0|0,1:0|1:0,0:0:0:0:
232,368,454409,5,8,1:0:0:0:
168,188,454580,1,0,1:0:0:0:
306,227,454752,2,0,B|352:240|406:235,1,85,0|0,3:0|0:0,0:0:0:0:
464,200,455094,1,8,1:0:0:0:
380,324,455266,1,0,0:0:0:0:
380,324,455352,1,8,1:0:0:0:
380,324,455437,1,4,3:0:0:0:
512,304,455609,1,0,1:0:0:0:
328,144,455780,5,8,1:0:0:0:
368,220,455952,1,4,0:2:0:0:
296,272,456123,2,0,B|252:316|164:280|176:216,1,170,4|12,1:0|1:0,0:0:0:0:
96,236,456637,5,0,1:0:0:0:
96,236,456723,1,8,1:0:0:0:
96,236,456809,1,0,3:0:0:0:
72,92,456980,5,0,1:0:0:0:
72,92,457066,1,8,1:0:0:0:
72,92,457152,1,8,1:0:0:0:
216,140,457323,5,8,1:0:0:0:
216,140,457409,1,8,1:0:0:0:
216,140,457494,2,0,B|272:148|324:136,1,85,4|2,1:0|0:0,0:0:0:0:
412,112,457837,1,8,1:0:0:0:
368,208,458009,1,2,0:0:0:0:
344,60,458180,5,2,3:0:0:0:
452,188,458352,1,0,3:0:0:0:
300,260,458523,1,8,1:0:0:0:
408,324,458694,6,0,B|460:324|512:316,1,85,4|0,0:0|3:0,0:0:0:0:
368,208,459037,1,2,0:0:0:0:
228,308,459209,1,8,1:0:0:0:
228,308,459380,2,0,B|164:300|140:220|196:172,1,170,2|0,0:0|3:0,0:0:0:0:
189,177,459894,1,8,1:0:0:0:
328,148,460066,5,4,0:0:0:0:
216,48,460237,2,0,B|168:40|112:36,1,85,4|2,1:0|0:0,0:0:0:0:
272,236,460580,1,8,1:0:0:0:
236,128,460752,1,2,0:0:0:0:
392,184,460923,1,2,3:0:0:0:
336,304,461094,1,0,3:0:0:0:
232,216,461266,1,8,1:0:0:0:
400,272,461437,6,0,B|448:272|504:268,1,85,4|0,0:0|3:0,0:0:0:0:
392,184,461780,1,2,0:0:0:0:
244,324,461952,1,8,1:0:0:0:
172,276,462123,2,0,B|124:276|68:280,1,85,2|2,0:0|3:0,0:0:0:0:
87,278,462466,1,0,3:0:0:0:
224,160,462637,5,0,1:0:0:0:
232,160,462723,1,8,1:0:0:0:
240,160,462809,1,8,1:0:0:0:
248,160,462894,1,8,1:0:0:0:
256,160,462980,2,0,B|316:160|360:88|320:28,1,170,4|8,1:0|1:0,0:0:0:0:
404,136,463494,2,0,B|444:168|496:168,1,85,2|2,0:0|3:0,0:0:0:0:
472,80,463837,1,0,3:0:0:0:
496,264,464009,1,8,1:0:0:0:
396,232,464180,5,4,0:0:0:0:
396,232,464266,1,0,1:0:0:0:
396,232,464352,1,0,3:0:0:0:
376,336,464523,1,0,3:0:0:0:
200,248,464694,2,0,B|240:272|304:268,1,85,12|0,1:0|1:0,0:0:0:0:
304,256,464952,1,8,1:0:0:0:
324,240,465037,1,8,1:0:0:0:
232,344,465209,5,0,1:0:0:0:
120,228,465380,1,4,3:0:0:0:
268,172,465552,1,4,3:0:0:0:
400,336,465723,6,0,B|460:320|488:240|432:188,1,170,4|8,1:0|1:0,0:0:0:0:
310,35,466237,2,0,B|250:51|222:131|278:183,1,170,4|4,3:2|3:0,0:0:0:0:
368,144,466752,1,4,3:0:0:0:
220,248,466923,6,0,B|136:244|40:248,1,170,4|4,1:0|3:0,0:0:0:0:
80,168,467437,1,8,1:0:0:0:
112,316,467609,1,6,0:0:0:0:
188,164,467780,1,8,1:0:0:0:
252,328,467952,1,0,1:0:0:0:
252,328,468037,1,8,1:0:0:0:
252,328,468123,2,0,B|192:332|140:324,1,85,8|0,1:0|3:0,0:0:0:0:
356,252,468466,6,0,B|400:268|452:248,1,85,4|0,1:0|3:0,0:0:0:0:
439,252,468809,1,8,1:0:0:0:
276,128,468980,2,0,B|192:80|96:132,1,170,12|0,1:0|3:0,0:0:0:0:
112,123,469494,1,8,1:0:0:0:
356,48,469666,6,0,L|384:148,1,85,4|0,1:0|0:0,0:0:0:0:
248,312,470009,1,0,3:0:0:0:
160,320,470180,2,0,L|192:228,1,85,8|0,1:0|0:0,0:0:0:0:
224,120,470523,1,0,3:0:0:0:
280,224,470694,1,0,3:0:0:0:
280,224,470780,1,8,1:0:0:0:
280,224,470866,1,8,1:0:0:0:
332,76,471037,1,4,0:0:0:0:
187,239,471209,5,12,1:0:0:0:
187,239,471380,2,0,B|171:195|187:135,1,85,0|0,3:0|3:0,0:0:0:0:
380,260,471723,1,8,1:0:0:0:
380,260,471894,2,0,B|400:308|380:364,1,85,0|0,3:0|3:0,0:0:0:0:
284,312,472237,1,8,1:0:0:0:
456,224,472409,6,0,B|504:184|488:96|408:80,1,170,4|0,1:0|3:0,0:0:0:0:
348,128,472923,2,0,B|296:132|263:128,1,85,4|0,1:0|0:0,0:0:0:0:
188,76,473266,1,0,3:0:0:0:
208,232,473437,1,0,3:0:0:0:
263,128,473609,1,8,1:0:0:0:
360,204,473780,5,4,0:0:0:0:
360,204,473952,2,0,B|368:268|308:316|244:292,2,170,4|8|0,1:0|1:0|3:0,0:0:0:0:
384,108,474809,1,0,3:0:0:0:
284,160,474980,2,0,B|240:164|184:164,1,85,8|0,1:0|0:0,0:0:0:0:
76,48,475323,6,0,B|100:96|180:104|224:60,1,170,4|8,3:2|1:0,0:0:0:0:
200,164,475837,1,2,0:0:0:0:
223,60,476009,1,0,3:0:0:0:
300,128,476180,1,0,3:0:0:0:
180,248,476352,1,8,1:0:0:0:
344,368,476523,6,0,B|400:352|412:260|360:220,1,170,4|0,1:0|3:0,0:0:0:0:
366,226,477037,2,0,B|424:240|464:236,1,85,8|0,1:0|0:0,0:0:0:0:
260,300,477380,1,0,3:0:0:0:
180,248,477552,2,0,B|132:256|80:256,1,85,0|8,3:0|1:0,0:0:0:0:
284,192,477894,6,0,B|336:156|324:72|256:44,1,170,4|0,1:0|3:0,0:0:0:0:
204,112,478409,1,8,1:0:0:0:
256,264,478580,1,0,3:0:0:0:
152,176,478752,1,8,1:0:0:0:
288,124,478923,1,0,1:0:0:0:
288,124,479009,1,8,1:0:0:0:
288,124,479094,1,8,1:0:0:0:
352,252,479266,1,0,3:0:0:0:
312,328,479437,6,0,B|264:372|176:344|168:272,2,170,4|0|0,1:0|3:0|3:0,0:0:0:0:
312,328,480466,2,0,B|308:288|312:236,1,85,0|0,3:0|0:0,0:0:0:0:
164,112,480809,2,0,B|168:152|164:208,1,85,0|0,3:0|0:0,0:0:0:0:
240,244,481152,5,0,3:0:0:0:
384,240,481323,1,0,0:0:0:0:
240,244,481494,1,0,3:0:0:0:
240,100,481666,1,0,0:0:0:0:
336,56,481837,6,0,B|348:104|340:148,1,85,0|0,3:0|1:0,0:0:0:0:
332,168,482094,1,8,1:0:0:0:
332,168,482180,2,0,L|432:156,1,85,8|0,1:0|0:0,0:0:0:0:
236,184,482523,2,0,L|136:196,1,85,0|0,3:0|0:0,0:0:0:0:
80,152,482866,5,0,3:0:0:0:
160,276,483037,1,4,3:0:0:0:
240,100,483209,1,8,1:0:0:0:
336,256,483380,2,0,B|332:324|264:360|204:328,1,170,4|0,1:0|3:0,0:0:0:0:
96,228,483894,6,0,B|96:184|92:132,1,85,8|0,1:0|0:0,0:0:0:0:
324,72,484237,2,0,B|324:116|328:168,1,85,0|0,3:0|3:0,0:0:0:0:
232,240,484580,5,8,1:0:0:0:
388,308,484752,2,0,B|432:320|476:284|472:236,1,127.5,4|0,1:0|0:0,0:0:0:0:
460,200,485094,1,0,3:0:0:0:
316,239,485266,2,0,B|276:243|220:239,1,85,8|0,1:0|0:0,0:0:0:0:
380,152,485609,1,0,3:0:0:0:
388,308,485780,1,0,3:0:0:0:
231,239,485952,1,8,1:0:0:0:
252,336,486123,6,0,B|200:360|128:312|140:240,1,170,4|0,1:0|3:0,0:0:0:0:
180,164,486637,2,0,B|184:120|180:72,1,85,8|0,1:0|0:0,0:0:0:0:
316,208,486980,2,0,B|312:164|316:104,1,85,0|0,3:0|3:0,0:0:0:0:
460,252,487323,5,8,1:0:0:0:
444,292,487409,1,8,1:0:0:0:
412,320,487494,1,8,1:0:0:0:
372,332,487580,1,8,1:0:0:0:
328,324,487666,1,4,1:0:0:0:
232,224,487837,1,0,3:0:0:0:
360,196,488009,1,0,3:0:0:0:
216,308,488180,5,4,1:0:0:0:
168,168,488352,1,0,3:0:0:0:
304,188,488523,1,0,3:0:0:0:
136,264,488694,5,8,1:0:0:0:
44,156,488866,1,0,3:0:0:0:
176,116,489037,2,0,B|232:120|272:120,1,85,4|0,3:0|0:0,0:0:0:0:
396,288,489380,2,0,B|340:284|300:284,1,85,12|0,1:0|0:0,0:0:0:0:
136,196,489723,5,8,1:0:0:0:
140,212,489809,1,8,1:0:0:0:
144,228,489894,1,8,1:0:0:0:
148,244,489980,1,8,1:0:0:0:
152,260,490066,1,8,1:0:0:0:
156,276,490152,1,8,1:0:0:0:
160,292,490237,1,8,1:0:0:0:
164,308,490323,1,8,1:0:0:0:
168,324,490409,6,0,P|212:343|285:319,1,127.5,4|0,1:0|0:0,0:0:0:0:
311,284,490752,1,8,1:0:0:0:
226,214,490923,1,0,0:0:0:0:
417,256,491094,2,0,P|418:301|401:343,1,85,0|0,3:0|3:0,0:0:0:0:
337,167,491437,1,8,1:0:0:0:
174,292,491609,6,0,P|136:249|161:147,1,170,4|0,1:0|3:0,0:0:0:0:
397,245,492123,2,0,P|340:264|299:253,1,85,8|0,1:0|0:0,0:0:0:0:
431,161,492466,1,0,3:0:0:0:
404,337,492637,1,0,3:0:0:0:
226,214,492809,1,8,1:0:0:0:
397,245,492980,1,4,0:0:0:0:
187,302,493152,6,0,L|90:298,1,85,4|0,1:0|0:0,0:0:0:0:
164,144,493494,1,8,1:0:0:0:
319,206,493666,1,0,0:0:0:0:
257,361,493837,5,0,3:0:0:0:
209,252,494009,1,0,3:0:0:0:
367,315,494180,1,8,1:0:0:0:
102,298,494352,6,0,P|86:252|143:149,1,170,4|0,1:0|3:0,0:0:0:0:
373,232,494866,1,8,1:0:0:0:
181,239,495037,1,0,0:0:0:0:
397,52,495209,2,0,P|409:92|404:134,1,85,0|0,3:0|3:0,0:0:0:0:
120,58,495552,5,8,1:0:0:0:
120,58,495637,1,8,1:0:0:0:
120,58,495723,1,8,1:0:0:0:
120,58,495809,1,8,1:0:0:0:
120,58,495894,2,0,B|216:48|185:112|279:99,1,170,4|8,1:0|1:0,0:0:0:0:
258,6,496409,1,0,0:0:0:0:
139,150,496580,2,0,P|127:190|132:232,1,85,0|0,3:0|3:0,0:0:0:0:
217,300,496923,1,8,1:0:0:0:
403,188,497094,6,0,B|309:159|328:229|238:197,1,170,4|0,1:0|3:0,0:0:0:0:
278,99,497609,1,8,1:0:0:0:
365,289,497780,1,0,0:0:0:0:
495,123,497952,2,0,P|509:164|510:214,1,85,0|0,3:0|3:0,0:0:0:0:
258,354,498294,2,0,P|244:313|243:263,1,85,8|0,1:0|0:0,0:0:0:0:
403,188,498637,6,0,L|283:180,1,85,4|0,1:0|0:0,0:0:0:0:
109,171,498980,1,8,1:0:0:0:
233,12,499152,2,0,L|242:103,1,85,0|0,0:0|3:0,0:0:0:0:
233,356,499494,2,0,L|242:265,1,85,0|8,3:0|1:0,0:0:0:0:
465,113,499837,6,0,P|500:177|465:264,1,170,4|0,1:0|3:0,0:0:0:0:
213,177,500352,1,8,1:0:0:0:
403,188,500523,1,0,1:0:0:0:
403,188,500609,1,8,1:0:0:0:
403,188,500694,1,12,1:0:0:0:
109,171,500866,2,0,P|102:217|112:256,1,85,4|0,3:2|0:0,0:0:0:0:
111,253,501209,6,0,B|96:196|16:168|-32:204,1,170,4|0,1:0|3:0,0:0:0:0:
128,352,501723,1,8,1:0:0:0:
212,296,501894,1,0,1:0:0:0:
212,296,501980,1,0,1:0:0:0:
212,296,502066,2,0,B|260:296|316:288,1,85,8|0,1:0|0:0,0:0:0:0:
268,112,502409,5,4,0:0:0:0:
452,172,502580,2,0,P|392:216|288:176,1,170,4|0,1:0|3:0,0:0:0:0:
144,144,503094,2,0,B|172:184|220:200,1,85,8|0,1:0|0:0,0:0:0:0:
360,80,503437,2,0,B|332:40|284:20,1,85,0|0,3:0|3:0,0:0:0:0:
304,194,503780,5,8,1:0:0:0:
344,272,503952,2,0,B|396:304|472:272|476:200,1,170,4|0,1:0|3:0,0:0:0:0:
248,352,504466,2,0,B|196:384|120:352|116:280,1,170,8|0,1:0|3:0,0:0:0:0:
224,168,504980,1,0,3:0:0:0:
264,272,505152,1,8,1:0:0:0:
144,204,505323,5,4,1:0:0:0:
308,200,505494,1,0,3:0:0:0:
216,68,505666,2,0,B|176:56|124:56,1,85,0|8,3:0|1:0,0:0:0:0:
144,204,506009,2,0,B|104:220|52:216,1,85,4|0,1:0|0:0,0:0:0:0:
248,352,506352,2,0,B|208:336|152:344,1,85,8|8,1:0|1:0,0:0:0:0:
164,342,506609,5,8,1:0:0:0:
164,342,506694,2,0,B|188:276|188:276|244:280|280:244,1,170,4|0,1:0|3:0,0:0:0:0:
436,288,507209,2,0,B|384:280|348:316,1,85,8|0,1:0|0:0,0:0:0:0:
292,132,507552,1,0,3:0:0:0:
380,196,507723,1,0,3:0:0:0:
279,244,507894,1,8,1:0:0:0:
184,120,508066,6,0,B|132:88|52:116|40:176,1,170,4|0,1:0|3:0,0:0:0:0:
144,228,508580,1,8,1:0:0:0:
64,304,508752,1,0,0:0:0:0:
42,167,508923,1,0,3:0:0:0:
184,224,509094,1,0,3:0:0:0:
168,52,509266,1,8,1:0:0:0:
244,84,509437,2,0,B|236:144|152:172|104:132,1,170,4|0,1:0|3:0,0:0:0:0:
92,224,509952,6,0,B|88:288|92:328,1,85,8|0,1:0|0:0,0:0:0:0:
192,248,510294,6,0,B|188:304|192:368,1,101.999996887207,4|0,1:0|0:0,0:0:0:0:
288,204,510638,5,8,1:0:0:0:
288,204,510723,1,8,1:0:0:0:
288,204,510809,2,0,B|284:280|288:320,1,101.999996887207,4|0,1:0|0:0,0:0:0:0:
464,240,511152,2,0,B|468:164|464:124,1,101.999996887207,4|0,1:0|0:0,0:0:0:0:
352,40,511494,6,0,B|300:104|300:104|256:48|168:64,1,203.999993774414,12|8,1:0|1:0,0:0:0:0:
152,72,511923,1,8,1:0:0:0:
116,96,512009,1,8,1:0:0:0:
96,132,512094,1,8,1:0:0:0:
92,172,512180,1,8,1:0:0:0:
104,212,512266,1,8,1:0:0:0:
124,244,512352,2,0,B|60:256|8:256,1,101.999996887207,4|0,1:0|0:0,0:0:0:0:
208,168,512694,5,8,1:0:0:0:
236,256,512866,1,0,3:0:0:0:
176,336,513037,2,0,B|116:340|64:316,1,101.999996887207,8|0,1:0|3:0,0:0:0:0:
312,216,513380,2,0,B|372:212|424:236,1,101.999996887207,8|0,1:0|3:0,0:0:0:0:
272,48,513723,6,0,B|268:124|168:164|112:112,1,203.999993774414,4|8,1:0|1:0,0:0:0:0:
72,48,514237,1,0,3:0:0:0:
136,204,514409,1,8,1:0:0:0:
20,176,514580,1,0,3:0:0:0:
92,296,514752,1,8,1:0:0:0:
118,117,514923,1,0,3:0:0:0:
260,184,515094,6,0,B|324:188|388:184,1,101.999996887207,4|0,1:0|3:0,0:0:0:0:
452,344,515437,2,0,B|388:340|324:344,1,101.999996887207,8|0,1:0|3:0,0:0:0:0:
184,340,515780,2,0,B|152:296|172:232,1,101.999996887207,8|0,1:0|3:0,0:0:0:0:
260,184,516123,1,8,1:0:0:0:
156,104,516294,5,0,3:0:0:0:
156,104,516466,2,0,B|112:68|64:44,1,101.999996887207,4|0,1:0|3:0,0:0:0:0:
169,242,516809,1,8,1:0:0:0:
300,120,516980,2,0,B|356:164|456:128|452:32,1,203.999993774414,4|0,1:0|3:0,0:0:0:0:
408,236,517494,1,8,1:0:0:0:
384,316,517666,5,8,1:0:0:0:
384,316,517752,1,8,1:0:0:0:
384,316,517837,2,0,B|328:344|256:332,1,101.999996887207,4|0,1:0|0:0,0:0:0:0:
68,264,518180,2,0,B|120:236|196:248,1,101.999996887207,8|0,1:0|3:0,0:0:0:0:
308,248,518523,5,8,1:0:0:0:
336,88,518694,1,0,3:0:0:0:
252,184,518866,5,8,1:0:0:0:
220,88,519037,1,0,3:0:0:0:
152,160,519209,6,0,L|44:140,1,101.999996887207,4|0,1:0|0:0,0:0:0:0:
252,184,519552,2,0,L|232:292,1,101.999996887207,8|0,1:0|3:0,0:0:0:0:
276,88,519894,2,0,L|384:108,1,101.999996887207,8|0,1:0|3:0,0:0:0:0:
188,76,520237,1,8,1:0:0:0:
188,76,520323,1,8,1:0:0:0:
188,76,520409,1,8,1:0:0:0:
188,76,520494,1,8,1:0:0:0:
188,76,520580,1,4,1:0:0:0:
300,308,520752,5,0,0:0:0:0:
252,236,520923,2,0,B|208:276|220:340,1,101.999996887207,8|0,1:0|0:0,0:0:0:0:
96,248,521266,5,0,3:0:0:0:
200,160,521437,1,0,3:0:0:0:
76,120,521609,1,8,1:0:0:0:
76,120,521952,1,4,1:0:0:0:
196,248,522123,5,8,1:0:0:0:
196,248,522209,1,8,1:0:0:0:
196,248,522294,2,0,B|276:248|320:244,1,101.999996887207,8|4,1:0|1:0,0:0:0:0:
340,220,522552,2,0,B|392:244|452:212,1,101.999996887207,8|0,1:0|0:0,0:0:0:0:
480,188,522809,1,8,1:0:0:0:
284,128,522980,1,8,1:0:0:0:
112,308,523152,6,0,B|40:292|12:196|80:132,1,203.999993774414,4|0,1:0|3:0,0:0:0:0:
240,64,523666,1,12,1:0:0:0:
240,64,523837,1,0,3:0:0:0:
148,48,524009,5,0,1:0:0:0:
148,48,524094,1,8,1:0:0:0:
148,48,524180,2,8,L|164:128,1,50.9999984436036,8|0,1:0|1:0,1:0:0:0:
252,176,524352,5,8,1:0:0:0:
252,176,524437,1,8,1:0:0:0:
252,176,524523,2,8,L|236:256,1,50.9999984436036,8|0,1:0|1:0,1:0:0:0:
208,352,524694,5,4,1:0:0:0:
208,352,525723,6,0,P|272:292|360:304,1,152.999995330811,4|0,1:0|0:0,0:0:0:0:
176,260,526066,1,8,1:0:0:0:
176,260,527094,6,0,L|200:188,1,50.9999984436036,4|0,1:0|0:0,0:0:0:0:
216,140,527266,2,0,B|168:184|88:156|80:80,1,170,4|0,1:0|0:0,0:0:0:0:
184,64,527780,2,0,B|232:20|312:48|320:124,1,170,8|0,1:0|3:0,0:0:0:0:
460,160,528294,5,0,3:0:0:0:
376,168,528466,1,8,1:0:0:0:
292,172,528637,2,0,B|204:176|104:184,1,170,4|0,1:0|3:0,0:0:0:0:
40,140,529152,2,0,B|40:80|36:40,1,85,8|0,1:0|0:0,0:0:0:0:
132,88,529494,1,0,3:0:0:0:
144,264,529666,1,0,3:0:0:0:
292,172,529837,2,0,B|248:176|208:176,1,85,8|0,1:0|0:0,0:0:0:0:
392,140,530180,6,0,B|440:188|412:272|344:280,1,170,4|8,1:0|1:0,0:0:0:0:
268,312,530694,2,0,B|216:312|160:316,1,85,0|0,0:0|3:0,0:0:0:0:
244,128,531037,1,0,3:0:0:0:
244,228,531209,1,8,1:0:0:0:
336,176,531380,1,4,1:0:0:0:
336,176,531723,1,0,3:0:0:0:
168,176,531894,2,0,B|112:184|68:172,1,85,8|0,1:0|0:0,0:0:0:0:
24,124,532237,5,0,3:0:0:0:
88,300,532409,1,0,3:0:0:0:
236,144,532580,1,8,1:0:0:0:
176,240,532752,6,0,B|180:292|232:320|280:292,1,136,4|0,1:2|1:0,0:0:0:0:
312,272,533180,1,0,1:0:0:0:
312,272,533266,2,0,B|316:232|316:176,1,85,12|0,1:0|0:0,0:0:0:0:
176,240,533609,1,0,3:0:0:0:
244,352,533780,2,0,B|280:384|344:372,1,85,0|8,3:0|1:0,0:0:0:0:
240,152,534123,6,0,B|288:188|372:172|408:108,1,170,4|0,1:0|3:0,0:0:0:0:
393,128,534637,2,0,L|359:212,1,85,8|0,1:0|0:0,0:0:0:0:
160,232,534980,1,0,3:0:0:0:
252,300,535152,1,0,3:0:0:0:
148,348,535323,1,8,1:0:0:0:
60,280,535494,1,4,0:0:0:0:
252,300,535666,6,0,B|344:296|432:296,2,170,4|8|0,1:0|1:0|3:0,0:0:0:0:
240,136,536523,1,0,3:0:0:0:
304,200,536694,1,8,1:0:0:0:
184,240,536866,1,4,0:0:0:0:
216,48,537037,2,0,B|256:68|316:64,1,85,4|0,1:0|0:0,0:0:0:0:
388,44,537380,6,0,B|448:56|468:144|416:184,1,170,8|0,1:0|3:0,0:0:0:0:
268,308,537894,2,0,B|324:316|380:324,1,85,0|8,3:0|1:0,0:0:0:0:
200,144,538237,5,4,3:0:0:0:
192,148,538323,1,4,3:0:0:0:
184,152,538409,2,0,P|188:194|194:241,1,85,4|2,1:0|0:0,0:0:0:0:
287,184,538752,1,8,1:0:0:0:
95,219,538923,1,2,0:0:0:0:
265,87,539094,2,0,P|225:59|181:54,1,85,2|2,3:0|3:2,0:0:0:0:
190,330,539437,2,0,P|231:322|265:297,1,85,8|6,1:0|0:0,0:0:0:0:
403,132,539780,6,0,B|387:192|387:192|403:256,2,127.5,4|2|2,1:0|0:0|0:0,0:0:0:0:
491,192,540466,1,2,3:0:0:0:
303,192,540637,1,2,3:0:0:0:
403,288,540809,1,8,1:0:0:0:
403,100,540980,1,4,0:0:0:0:
203,150,541152,6,0,P|194:191|202:233,1,85,4|2,1:0|0:0,0:0:0:0:
303,192,541494,1,8,1:0:0:0:
115,192,541665,1,2,0:0:0:0:
215,288,541837,1,2,3:0:0:0:
215,100,542008,1,0,3:0:0:0:
15,150,542180,2,0,P|6:191|14:233,1,85,8|4,1:0|0:0,0:0:0:0:
76,356,542523,5,4,1:0:0:0:
115,192,542694,1,2,1:2:0:0:
127,191,542780,1,0,1:0:0:0:
139,190,542866,1,8,1:0:0:0:
76,28,543037,1,2,0:0:0:0:
151,189,543209,2,0,L|244:200,1,85,2|0,3:0|3:0,0:0:0:0:
413,222,543552,5,8,1:0:0:0:
434,225,543637,1,8,1:0:0:0:
455,227,543723,1,8,1:0:0:0:
477,230,543809,1,8,1:0:0:0:
498,232,543894,2,0,P|506:191|497:150,1,85,4|2,1:0|0:0,0:0:0:0:
319,269,544237,6,0,L|306:357,1,85,8|2,1:0|0:0,0:0:0:0:
319,115,544580,2,0,L|306:27,1,85,2|0,3:0|3:0,0:0:0:0:
115,192,544923,2,0,L|211:192,1,85,8|4,1:0|0:0,0:0:0:0:
15,149,545266,6,0,P|6:190|14:232,1,85,4|2,1:0|0:0,0:0:0:0:
215,288,545609,1,8,1:0:0:0:
215,100,545780,1,2,0:0:0:0:
115,192,545952,1,2,3:0:0:0:
303,192,546123,1,0,3:0:0:0:
101,74,546294,1,8,1:0:0:0:
101,310,546466,5,8,1:0:0:0:
101,310,546552,1,8,1:0:0:0:
101,310,546637,1,4,1:0:0:0:
402,203,547323,2,0,B|297:184|327:254|220:236,1,191.250007295609,4|0,1:0|0:0,0:0:0:0:
401,80,549380,6,0,P|416:141|402:203,1,127.500004863739,4|0,1:0|0:0,0:0:0:0:
455,346,550066,1,2,0:0:0:0:
386,311,550237,2,0,L|297:317,1,63.7500024318696,2|0,0:0|0:0,0:0:0:0:
245,320,550580,1,0,3:0:0:0:
189,372,550752,6,0,P|170:340|200:257,1,127.500004863739,4|0,1:0|0:0,0:0:0:0:
345,226,551437,1,8,1:0:0:0:
282,181,551609,2,0,L|275:113,1,63.7500024318696,0|0,1:0|0:0,0:0:0:0:
271,40,551952,1,2,0:0:0:0:
207,82,552123,6,0,B|143:99|152:54|83:71,1,127.500004863739,4|2,1:0|0:0,0:0:0:0:
8,205,552809,1,2,0:0:0:0:
70,160,552980,2,0,P|80:191|80:229,1,63.7500024318696,2|0,0:0|0:0,0:0:0:0:
29,278,553323,1,0,3:0:0:0:
102,298,553494,6,0,B|151:295|151:295|173:286|173:286|227:282,1,127.500004863739,4|0,1:0|0:0,0:0:0:0:
368,343,554180,2,0,B|319:346|319:346|297:355|297:355|242:358,1,127.500004863739,8|0,1:0|0:0,0:0:0:0:
213,207,554866,6,0,B|267:210|267:210|289:219|289:219|338:222,1,127.500004863739,4|2,1:0|0:0,0:0:0:0:
406,258,555380,2,0,P|431:227|415:134,2,127.500004863739,2|2|2,0:0|0:0|3:0,0:0:0:0:
345,305,556237,6,0,L|269:303,1,63.7500024318696,0|0,3:0|0:0,0:0:0:0:
213,338,556580,2,0,P|205:307|209:275,1,63.7500024318696,2|0,0:0|0:0,0:0:0:0:
140,366,556923,2,0,P|128:304|140:241,1,127.500004863739,8|4,1:0|3:0,0:0:0:0:
286,62,557437,5,4,0:0:0:0:
459,210,557609,1,4,1:0:0:0:
208,196,557780,1,4,1:0:0:0:
208,196,560352,6,0,L|284:203,1,63.75,4|2,1:2|0:0,0:0:0:0:
347,163,560869,1,2,0:0:0:0:
394,228,561041,2,2,P|388:182|400:97,1,127.5,2|0,0:0|0:0,0:0:0:0:
278,35,561731,6,0,L|280:112,2,63.75,2|2|2,0:0|0:0|0:0,0:0:0:0:
197,131,562424,2,0,P|167:132|111:47,1,127.5
33,177,563118,6,2,L|21:278,1,85,2|0,0:0|0:0,0:0:0:0:
118,323,563641,2,0,P|111:288|126:227,1,85,2|2,0:0|0:0,0:0:0:0:
194,224,564164,1,0,0:0:0:0:
247,288,564338,2,0,L|292:289,1,42.5,2|0,0:0|0:0,0:0:0:0:
355,238,564686,2,0,L|398:242,1,42.5,2|0,0:0|0:0,0:0:0:0:
453,310,565033,1,2,0:0:0:0:
218,68,565900,6,0,L|112:81,1,85,2|0,0:0|0:0,0:0:0:0:
140,327,567354,6,0,L|214:336,1,63.75,2|2,0:0|0:0,0:0:0:0:
268,288,567789,1,2,0:0:0:0:
331,331,567963,2,2,P|325:294|333:216,1,106.25,2|0,0:0|0:0,0:0:0:0:
466,125,568809,6,0,L|406:127,2,42.5,2|2|2,0:0|0:0|0:0,0:0:0:0:
350,68,569506,2,0,P|315:66|296:60,1,42.5,2|0,0:0|0:0,0:0:0:0:
172,111,569980,6,2,P|181:145|177:183,1,63.75
117,322,570706,6,2,P|159:293|214:292,1,106.25,2|0,0:0|0:0,0:0:0:0:
291,352,571615,2,0,P|348:351|376:335,1,85,2|2,0:0|0:0,0:0:0:0:
439,267,572418,1,2,0:0:0:0:
426,157,572706,6,0,P|351:97|185:225,1,340,2|4,0:0|0:0,0:0:0:0:
64,249,575681,6,0,B|208:229|132:332|281:305,1,237.999992736817,4|0,0:0|0:0,0:0:0:0:
356,351,576806,1,2,0:0:0:0:
443,336,577181,6,0,P|460:287|451:217,1,118.999996368408,4|0,0:0|0:0,0:0:0:0:
414,140,577976,2,0,B|366:130|324:147|324:147|320:178|303:202|303:202|273:182|226:183|193:209|193:209|155:239|111:243|58:219,1,386.749988197327,2|2,0:0|0:0,0:0:0:0:
120,119,580203,5,4,0:0:0:0:
255,288,581703,1,2,0:0:0:0:
392,119,583203,5,2,0:0:0:0:
340,178,583997,5,2,0:0:0:0:
365,47,584395,1,2,0:0:0:0:
365,47,585485,6,0,L|472:51,1,101.999996887207,2|0,0:0|0:0,0:0:0:0:
340,178,586244,6,0,B|239:174|239:174|228:152|203:133,2,152.999995330811,4|2|2,0:0|0:0|0:0,0:0:0:0:
163,205,588494,1,2,0:0:0:0:
282,93,588869,1,0,0:0:0:0:
437,121,589244,6,0,P|452:170|444:224,1,101.999996887207,4|0,0:0|0:0,0:0:0:0:
348,275,589994,2,0,P|333:227|340:177,1,101.999996887207,2|0,0:0|0:0,0:0:0:0:
449,325,590744,2,0,P|424:357|282:363,1,178.499994552612,4|0,0:0|0:0,0:0:0:0:
269,337,591494,2,0,L|158:346,1,101.999996887207,2|0,0:0|0:0,0:0:0:0:
16,361,592244,6,0,P|0:315|6:258,1,101.999996887207,4|0,0:0|0:0,0:0:0:0:
125,129,592994,2,0,P|141:177|137:228,1,101.999996887207,2|0,0:0|0:0,0:0:0:0:
46,30,593744,5,4,0:0:0:0:
147,76,594119,1,2,0:0:0:0:
256,96,594494,1,0,0:0:0:0:
365,76,594869,6,0,P|446:151|320:177,1,297.5,2|0,0:0|0:0,0:0:0:0:
329,172,596447,5,4,0:0:0:0:
140,236,596959,6,0,B|120:200|128:148,1,85,4|0,0:1|0:0,0:0:0:0:
140,236,597459,2,0,B|168:280|156:324,1,85,2|0,0:0|0:0,0:0:0:0:
68,296,597959,2,0,B|4:224|44:132,1,170,4|2,0:0|0:1,0:0:0:0:
41,137,598709,1,4,0:0:0:0:
232,188,598959,6,0,B|280:200|332:212,1,85,2|0,0:3|0:0,0:0:0:0:
232,188,599459,2,0,B|184:176|132:164,1,85,2|0,0:0|0:0,0:0:0:0:
308,116,599959,2,0,B|408:148|476:156,1,170,4|2,0:0|0:1,0:0:0:0:
473,155,600709,1,4,0:0:0:0:
384,304,600959,6,0,B|368:252|288:224|228:268,1,170,4|2,0:1|0:3,0:0:0:0:
192,332,601709,1,2,0:1:0:0:
12,200,601959,2,0,B|28:252|108:280|168:236,1,170,2|2,0:1|0:0,0:0:0:0:
208,172,602709,1,2,0:0:0:0:
200,88,602959,2,0,B|164:56|96:64,1,85,0|0,0:2|0:0,0:0:0:0:
292,208,603459,2,0,B|328:240|396:232,1,85,2|0,0:0|0:0,0:0:0:0:
452,184,603959,5,4,0:0:0:0:
460,180,604459,5,2,0:0:0:0:
468,176,604959,6,0,B|412:168|372:92|412:32,1,170,4|2,0:1|0:0,0:0:0:0:
405,42,605709,2,0,B|364:68|328:84,1,85,2|0,0:1|0:0,0:0:0:0:
64,48,606459,1,2,0:1:0:0:
64,48,606709,1,4,0:0:0:0:
128,104,606959,6,0,B|92:132|32:128,1,85,4|0,0:1|0:0,0:0:0:0:
212,96,607476,6,0,B|224:152|192:196,1,85,2|0,0:1|0:0,0:0:0:0:
288,136,608019,6,0,B|300:180|292:228,1,85,4|2,0:0|0:0,0:0:0:0:
400,144,608613,6,0,B|380:188|384:232,1,85,2|2,0:3|0:0,0:0:0:0:
440,304,609203,1,4,0:0:0:0:
256,192,609360,12,4,611845,0:0:0:0:
256,192,612023,12,2,614702,0:3:0:0:
