osu file format v14

[General]
AudioFilename: audio.mp3
AudioLeadIn: 0
PreviewTime:113601
Countdown: 0
SampleSet: Soft
StackLeniency: 0.6
Mode: 0
LetterboxInBreaks: 0
WidescreenStoryboard: 0

[Editor]
Bookmarks: 5405,74755,80599,205275
DistanceSpacing: 0.8
BeatDivisor: 4
GridSize: 32
TimelineZoom: 1.2

[Metadata]
Title:Witches night
TitleUnicode:Witches night
Artist:Liz Triangle
ArtistUnicode:Liz Triangle
Creator:Wither
Version:Satellite's Hexenprozess
Source:秋霜玉
Tags:satellite 西方Project 東方Project touhou seihou project shuusou gyoku the witches' ball majoutachi no butoukai lily-an kaztora 霧雨 魔理沙 kirisame marisa extra stage boss #1 theme 魔女達の舞踏会 ~ Magus 東方萃夢想 whiches Amusement Makers Shunsatsu sare do? comiket ZUN シンソウダイバー shinsou diver japanese pop cover j-pop jpop video game arrange starter best CHUNITHM チュウニズム AIR PLUS SUPER STAR maimai でらっくす bws badgeless wanderers showdown ro32 dt2
BeatmapID:4473197
BeatmapSetID:1941490

[Difficulty]
HPDrainRate:5
CircleSize:4
OverallDifficulty:8.2
ApproachRate:8.6
SliderMultiplier:1.6
SliderTickRate:1

[Events]
//Background and Video events
0,0,"YW1vZ3VzCg==.jpg",0,0
//Break Periods
2,74955,79430
//Storyboard Layer 0 (Background)
//Storyboard Layer 1 (Fail)
//Storyboard Layer 2 (Pass)
//Storyboard Layer 3 (Foreground)
//Storyboard Layer 4 (Overlay)
//Storyboard Sound Samples

[TimingPoints]
2289,389.61038961039,4,2,49,30,1,0
6964,-100,4,2,49,40,0,0
7353,-100,4,2,49,50,0,0
7743,-100,4,2,49,55,0,0
8133,-100,4,2,49,60,0,0
8522,-100,4,2,49,75,0,0
9983,-100,4,2,49,75,0,0
10081,-100,4,2,49,75,0,0
11542,-100,4,2,49,75,0,0
11639,-100,4,2,49,75,0,0
16217,-100,4,2,49,75,0,0
16314,-100,4,2,49,75,0,0
17776,-100,4,2,49,75,0,0
17873,-100,4,2,49,75,0,0
22548,-111.111111111111,4,2,49,55,0,0
23133,-83.3333333333333,4,2,49,55,0,0
23327,-111.111111111111,4,2,49,55,0,0
23912,-83.3333333333333,4,2,49,55,0,0
24107,-111.111111111111,4,2,49,55,0,0
24691,-83.3333333333333,4,2,49,55,0,0
24886,-111.111111111111,4,2,49,55,0,0
26250,-83.3333333333333,4,2,49,55,0,0
26444,-111.111111111111,4,2,49,55,0,0
27029,-83.3333333333333,4,2,49,55,0,0
27224,-111.111111111111,4,2,49,55,0,0
27808,-83.3333333333333,4,2,49,55,0,0
28003,-111.111111111111,4,2,49,55,0,0
28392,-333.333333333332,4,2,49,55,0,0
28685,-333.333333333332,4,2,49,5,0,0
28782,-111.111111111111,4,2,49,55,0,0
29366,-83.3333333333333,4,2,49,55,0,0
29561,-111.111111111111,4,2,49,55,0,0
30146,-83.3333333333333,4,2,49,55,0,0
30340,-111.111111111111,4,2,49,55,0,0
30925,-83.3333333333333,4,2,49,55,0,0
31120,-111.111111111111,4,2,49,55,0,0
34237,389.61038961039,4,2,49,75,1,0
34237,-100,4,2,49,75,0,0
35016,-83.3333333333333,4,2,49,75,0,0
35795,-100,4,2,49,75,0,0
37353,-100,4,2,49,65,0,0
37547,-100,4,2,49,75,0,0
37742,-100,4,2,49,65,0,0
37937,-100,4,2,49,75,0,0
38132,-100,4,2,49,65,0,0
39690,-100,4,2,49,75,0,0
40469,-100,4,2,49,65,0,0
40762,-100,4,2,49,5,0,0
40859,-100,4,2,49,65,0,0
43197,-333.333333333333,4,2,49,65,0,0
43489,-333.333333333333,4,2,49,65,0,0
43586,-100,4,2,49,65,0,0
45924,-100,4,2,49,75,0,0
46703,-100,4,2,49,65,0,0
49820,-125,4,2,49,55,0,0
52547,-250,4,2,49,55,0,0
52840,-250,4,2,49,5,0,0
52937,-125,4,2,49,55,0,0
55275,-250,4,2,49,55,0,0
55956,-250,4,2,49,5,0,0
56054,-111.111111111111,4,2,49,55,0,0
58781,-249.999999999999,4,2,49,55,0,0
59073,-249.999999999999,4,2,49,5,0,0
59171,-111.111111111111,4,2,49,55,0,0
60242,-111.111111111111,4,2,49,5,0,0
60340,-111.111111111111,4,2,49,55,0,0
60729,-142.857142857143,4,2,49,55,0,0
61508,-111.111111111111,4,2,49,65,0,0
62288,-83.3333333333333,4,2,49,65,0,0
68132,-125,4,2,49,65,0,0
68424,-125,4,2,49,5,0,0
68521,-100,4,2,49,75,0,0
69982,-100,4,2,49,75,0,0
70080,-100,4,2,49,75,0,0
71541,-100,4,2,49,75,0,0
71638,-100,4,2,49,75,0,0
74755,-100,4,2,49,40,0,0
80599,-250,4,2,49,40,0,0
80891,-250,4,2,49,5,0,0
80989,-153.846153846154,4,2,49,45,0,0
83716,-250,4,2,49,45,0,0
84008,-250,4,2,49,5,0,0
84106,-142.857142857143,4,2,49,45,0,0
84885,-250,4,2,49,45,0,0
85177,-250,4,2,49,45,0,0
85275,-83.3333333333333,4,2,49,50,0,0
85567,-83.3333333333333,4,2,49,50,0,0
85664,-100,4,2,49,60,0,0
88781,-100,4,2,49,60,0,0
88975,-100,4,2,49,70,0,0
89171,-100,4,2,49,60,0,0
89365,-100,4,2,49,70,0,0
89560,-100,4,2,49,60,0,0
91119,-100,4,2,49,70,0,0
91801,-100,4,2,49,60,0,0
92482,-100,4,2,49,70,0,0
92677,-100,4,2,49,60,0,0
93359,-100,4,2,49,70,0,0
93456,-100,4,2,49,60,0,0
94625,-250,4,2,49,70,0,0
94917,-250,4,2,49,70,0,0
95015,-100,4,2,49,70,0,0
101249,-125,4,2,49,60,0,0
102417,-90.9090909090909,4,2,49,60,0,0
102710,-90.9090909090909,4,2,49,60,0,0
102807,-125,4,2,49,60,0,0
104365,-166.666666666667,4,2,49,60,0,0
105924,-166.666666666667,4,2,49,66,0,0
106314,-100,4,2,49,66,0,0
107872,-100,4,2,49,75,0,0
110599,-250,4,2,49,75,0,0
110891,-250,4,2,49,5,0,0
110989,-166.666666666667,4,2,49,75,0,0
111281,-166.666666666667,4,2,49,5,0,0
111378,-125,4,2,49,75,0,0
111671,-125,4,2,49,5,0,0
111768,-100,4,2,49,75,0,0
112060,-100,4,2,49,5,0,0
112158,-83.3333333333333,4,2,49,75,0,0
113717,-90.9090909090909,4,2,49,80,0,1
117904,-90.9090909090909,4,2,49,5,0,1
118002,-90.9090909090909,4,2,49,80,0,1
127743,-1000,4,2,49,60,0,0
127840,-1000,4,2,49,45,0,0
129301,-1000,4,2,49,45,0,0
130762,-1000,4,2,49,5,0,0
130860,-1000,4,2,49,45,0,0
132320,-1000,4,2,49,5,0,0
132417,-125,4,2,49,40,0,0
133586,-83.3333333333333,4,2,49,60,0,0
133878,-83.3333333333333,4,2,49,5,0,0
133976,-100,4,2,49,60,0,0
140210,-100,4,2,49,50,0,0
141378,-125,4,2,49,50,0,0
143716,-125,4,2,49,60,0,0
144106,-125,4,2,49,50,0,0
146249,-100,4,2,49,60,0,0
148002,-100,4,2,49,55,0,0
149560,-100,4,2,49,60,0,0
152677,-125,4,2,49,62,0,0
153067,-125,4,2,49,64,0,0
153456,-100,4,2,49,66,0,0
153846,-100,4,2,49,68,0,0
154236,-83.3333333333333,4,2,49,70,0,0
154625,-83.3333333333333,4,2,49,72,0,0
155015,-71.4285714285714,4,2,49,73,0,0
155404,-71.4285714285714,4,2,49,75,0,0
155794,-166.666666666667,4,2,0,20,0,0
156573,-200,4,2,0,20,0,0
157353,-250,4,2,0,20,0,0
158132,-100,4,2,0,20,0,0
158911,-100,4,2,49,60,0,0
159203,-100,4,2,49,5,0,0
159301,-100,4,2,49,60,0,0
159593,-100,4,2,49,5,0,0
159690,-200,4,2,49,60,0,0
159982,-200,4,2,49,60,0,0
160080,-76.9230769230769,4,2,49,75,0,0
160372,-76.9230769230769,4,2,49,75,0,0
160470,-90.9090909090909,4,2,49,85,0,1
164658,-90.9090909090909,4,2,49,5,0,1
164755,-90.9090909090909,4,2,49,85,0,1
172159,-90.9090909090909,4,2,49,85,0,0
172938,-83.3333333333333,4,2,49,85,0,1
182580,-83.3333333333333,4,2,49,85,0,1
182677,-83.3333333333333,4,2,49,85,0,1
183359,-83.3333333333333,4,2,49,85,0,1
183456,-83.3333333333333,4,2,49,85,0,1
188522,-166.666666666667,4,2,49,85,0,0
189593,-166.666666666667,4,2,49,5,0,0
189690,-76.9230769230769,4,2,49,60,0,0
189982,-76.9230769230769,4,2,49,60,0,0
190080,-100,4,2,49,60,0,0
190177,-100,4,2,49,75,0,0
191541,-100,4,2,49,75,0,0
191638,-100,4,2,49,75,0,0
193099,-100,4,2,49,75,0,0
193197,-100,4,2,49,75,0,0
197775,-100,4,2,49,75,0,0
197872,-100,4,2,49,75,0,0
199333,-100,4,2,49,75,0,0
199430,-100,4,2,49,75,0,0
202547,-100,4,2,49,30,0,0
204106,-83.3333333333333,4,2,49,50,0,0
204495,-66.6666666666667,4,2,49,50,0,0
204885,-55.5555555555556,4,2,49,50,0,0

[Colours]
Combo1 : 0,168,0
Combo2 : 45,150,255
Combo3 : 0,0,215
Combo4 : 45,236,54

[HitObjects]
256,192,5405,12,2,7743,0:0:0:0:
139,352,8133,5,10,0:0:0:0:
128,361,8522,6,0,P|87:331|95:277,1,80,6|2,3:2|0:0,0:0:0:0:
102,255,8814,1,2,3:2:0:0:
102,255,8912,1,10,0:0:0:0:
290,339,9107,1,0,3:2:0:0:
184,243,9301,6,0,L|189:283,1,40,2|0,3:2|0:0,0:0:0:0:
271,222,9496,2,0,L|275:182,1,40,2|0,0:0|0:0,0:0:0:0:
195,20,9691,2,0,P|153:48|176:112,1,120,10|0,0:0|0:0,0:0:0:0:
209,132,10081,6,0,P|235:99|276:96,1,80,6|2,3:2|0:0,0:0:0:0:
319,112,10373,1,2,3:2:0:0:
319,112,10470,1,10,0:0:0:0:
463,181,10665,1,0,3:2:0:0:
368,289,10860,6,0,L|311:276,1,40,2|0,3:2|0:0,0:0:0:0:
275,183,11055,2,0,L|332:196,1,40,2|0,0:0|0:0,0:0:0:0:
246,379,11250,2,0,P|190:354|199:292,1,120,10|0,0:0|0:0,0:0:0:0:
231,270,11639,5,6,3:2:0:0:
390,211,11834,1,2,0:0:0:0:
390,211,11931,1,2,3:2:0:0:
390,211,12029,2,0,P|419:173|406:130,1,80,10|0,0:0|0:0,0:0:0:0:
287,37,12418,5,2,3:2:0:0:
149,178,12613,1,2,2:2:0:0:
149,178,12711,1,2,3:2:0:0:
149,178,12808,1,10,0:0:0:0:
332,156,13003,1,0,0:0:0:0:
121,88,13198,5,2,3:2:0:0:
246,115,13392,1,2,0:0:0:0:
219,240,13587,1,10,0:0:0:0:
94,213,13782,1,2,3:2:0:0:
226,248,13977,5,2,3:2:0:0:
117,79,14172,1,10,3:2:0:0:
256,108,14366,1,10,0:0:0:0:
85,219,14561,1,2,2:2:0:0:
229,332,14756,6,0,P|281:320|299:295,1,80,6|2,3:2|0:0,0:0:0:0:
306,252,15048,1,2,3:2:0:0:
306,252,15146,1,10,0:0:0:0:
160,159,15340,1,0,3:2:0:0:
332,95,15535,6,0,L|325:152,1,40,2|0,3:2|0:0,0:0:0:0:
226,248,15730,2,0,L|221:208,1,40,2|0,0:0|0:0,0:0:0:0:
416,58,15925,2,0,L|400:183,1,120,10|0,0:0|0:0,0:0:0:0:
326,217,16314,6,0,P|274:205|256:180,1,80,6|2,3:2|0:0,0:0:0:0:
249,137,16607,1,2,3:2:0:0:
249,137,16704,1,10,0:0:0:0:
404,188,16899,1,0,3:2:0:0:
282,291,17094,6,0,L|226:277,1,40,2|0,3:2|0:0,0:0:0:0:
204,131,17289,2,0,L|242:140,1,40,2|0,0:0|0:0,0:0:0:0:
302,375,17483,2,0,L|171:342,1,120,10|0,0:0|0:0,0:0:0:0:
158,263,17873,5,6,3:2:0:0:
366,315,18068,1,2,0:0:0:0:
366,315,18165,1,2,3:2:0:0:
366,315,18263,2,0,P|406:286|406:245,1,80,10|0,0:0|0:0,0:0:0:0:
177,351,18652,5,2,3:2:0:0:
327,240,18847,1,2,0:0:0:0:
327,240,18944,1,2,3:2:0:0:
327,240,19042,2,0,P|287:211|287:170,1,80,10|0,0:0|0:0,0:0:0:0:
229,24,19431,5,2,3:2:0:0:
382,70,19626,1,0,0:0:0:0:
189,215,19821,5,10,0:0:0:0:
360,170,20016,1,0,0:0:0:0:
136,130,20211,5,2,3:2:0:0:
289,176,20405,1,0,0:0:0:0:
96,321,20600,5,10,0:0:0:0:
267,276,20795,1,0,0:0:0:0:
128,123,20990,5,2,3:2:0:0:
88,314,21185,1,2,3:2:0:0:
234,79,21379,5,2,3:2:0:0:
274,270,21574,1,2,3:2:0:0:
56,218,21769,6,0,L|50:162,1,40,2|8,3:2|0:0,0:0:0:0:
293,136,21964,2,0,L|289:176,1,40,10|8,0:0|0:0,0:0:0:0:
176,329,22159,5,2,3:2:0:0:
145,321,22256,1,0,3:2:0:0:
122,298,22353,1,2,3:2:0:0:
121,265,22451,1,0,3:2:0:0:
150,224,22548,6,0,B|228:198|209:283|274:270,1,143.999995605469,6|0,3:2|0:0,0:0:0:0:
366,223,23133,6,0,B|371:214|385:212|385:212|372:207|366:196,1,47.9999985351563,2|0,0:0|0:0,0:0:0:0:
426,146,23327,2,0,P|418:217|410:289,1,143.999995605469,2|0,3:2|0:0,0:0:0:0:
269,347,23912,6,0,B|259:354|259:354|187:330,1,47.9999985351563,2|0,0:0|0:0,0:0:0:0:
124,285,24107,2,0,P|167:271|296:241,1,143.999995605469,2|0,3:2|0:0,0:0:0:0:
406,119,24691,6,0,B|388:111|388:111|383:114|383:114|361:107,1,47.9999985351563
215,48,24886,5,2,3:2:0:0:
272,257,25081,1,2,0:0:0:0:
304,15,25276,1,2,0:0:0:0:
51,219,25665,6,0,P|113:209|125:282,1,143.999995605469,2|0,3:2|0:0,0:0:0:0:
253,365,26250,6,0,P|250:348|269:358,1,47.9999985351563,2|0,0:0|0:0,0:0:0:0:
340,314,26444,2,0,P|353:250|419:258,1,143.999995605469,2|0,3:2|0:0,0:0:0:0:
213,146,27029,6,0,B|217:169|217:169|215:174|215:174|217:193,1,47.9999985351563,2|0,0:0|0:0,0:0:0:0:
251,269,27224,5,2,3:2:0:0:
296,160,27418,1,0,0:0:0:0:
215,202,27613,1,0,0:0:0:0:
344,239,27808,6,0,B|354:246|354:246|426:222,1,47.9999985351563
465,115,28003,1,2,3:2:0:0:
240,10,28392,6,0,P|234:35|231:50,1,35.9999989013672,2|0,0:0|0:0,0:0:0:0:
283,106,28782,6,0,B|270:111|270:111|215:74|149:63,1,143.999995605469,6|0,3:2|0:0,0:0:0:0:
53,171,29366,6,0,B|65:173|73:185|73:185|73:169|80:165,1,47.9999985351563,2|0,0:0|0:0,0:0:0:0:
14,236,29561,2,0,P|106:202|173:188,1,143.999995605469,2|0,3:2|0:0,0:0:0:0:
355,244,30146,6,0,B|360:252|360:252|345:298,1,47.9999985351563
258,348,30340,2,0,P|202:336|193:253,1,143.999995605469,2|0,3:2|0:0,0:0:0:0:
406,119,30925,6,0,B|388:111|388:111|383:114|383:114|361:107,1,47.9999985351563
233,160,31120,5,2,3:2:0:0:
442,217,31314,1,2,0:0:0:0:
200,249,31509,1,2,0:0:0:0:
287,81,31899,6,0,L|277:259,1,143.999995605469,2|0,3:2|0:0,0:0:0:0:
56,322,32678,2,0,L|47:178,1,143.999995605469,2|0,3:2|0:0,0:0:0:0:
47,178,33263,1,0,0:0:0:0:
132,245,33457,5,2,1:2:0:0:
230,170,33652,1,2,1:2:0:0:
354,220,33847,1,10,0:0:0:0:
445,168,34042,1,2,1:2:0:0:
474,131,34139,1,0,1:2:0:0:
449,83,34237,6,0,P|396:71|359:62,1,80,6|0,3:2|0:0,0:0:0:0:
219,163,34626,2,0,P|180:172|141:181,1,80,10|0,0:0|0:0,0:0:0:0:
277,0,35016,2,0,P|263:143|249:286,1,287.999991210938,6|0,3:2|0:0,0:0:0:0:
134,191,35795,5,6,3:2:0:0:
353,248,35990,1,2,0:0:0:0:
95,260,36185,1,10,0:0:0:0:
217,174,36379,1,2,0:0:0:0:
87,75,36574,6,0,P|55:107|58:148,1,80,6|0,3:2|0:0,0:0:0:0:
200,292,36964,2,0,L|247:274,1,40,8|0,0:0|0:0,0:0:0:0:
308,341,37159,2,0,L|355:359,1,40,8|0,0:0|0:0,0:0:0:0:
439,230,37353,6,0,P|428:151|426:124,1,80,6|0,3:2|0:0,0:0:0:0:
266,58,37742,1,10,0:0:0:0:
239,232,37937,1,0,0:0:0:0:
351,194,38132,1,2,3:2:0:0:
226,316,38327,5,2,0:0:0:0:
253,142,38521,1,10,0:0:0:0:
359,200,38716,1,0,0:0:0:0:
120,258,38911,5,2,3:2:0:0:
120,258,39106,1,2,0:0:0:0:
277,219,39301,1,10,0:0:0:0:
171,161,39495,1,2,0:0:0:0:
392,363,39690,5,2,3:2:0:0:
235,324,39885,1,2,3:2:0:0:
434,258,40080,1,10,0:0:0:0:
443,266,40469,6,0,P|378:253|304:238,1,120,2|0,3:2|0:0,0:0:0:0:
283,260,40859,1,10,0:0:0:0:
379,177,41054,1,0,0:0:0:0:
188,64,41249,5,2,3:2:0:0:
197,223,41443,1,2,0:0:0:0:
290,164,41638,1,10,0:0:0:0:
131,172,41833,1,0,0:0:0:0:
298,323,42028,5,2,3:2:0:0:
139,331,42223,1,2,0:0:0:0:
360,261,42417,5,10,0:0:0:0:
205,229,42612,1,2,0:0:0:0:
323,44,42807,1,2,3:2:0:0:
439,220,43197,6,0,P|459:212|462:189,1,35.9999989013672,8|0,0:0|0:0,0:0:0:0:
406,119,43586,6,0,P|341:102|243:70,1,160,6|10,3:2|0:0,0:0:0:0:
162,129,44171,1,0,0:0:0:0:
208,310,44365,5,2,3:2:0:0:
240,157,44560,1,2,0:0:0:0:
65,202,44755,1,10,0:0:0:0:
33,49,44950,1,0,0:0:0:0:
167,220,45145,5,2,3:2:0:0:
342,175,45340,1,2,0:0:0:0:
174,47,45534,1,10,0:0:0:0:
174,47,45729,1,2,0:0:0:0:
281,235,45924,5,2,3:2:0:0:
434,95,46119,1,2,3:2:0:0:
204,180,46314,1,10,0:0:0:0:
196,186,46703,5,2,3:2:0:0:
298,146,46898,1,0,0:0:0:0:
139,29,47093,2,0,P|134:72|130:129,1,80,8|0,0:0|0:0,0:0:0:0:
116,300,47482,5,2,3:2:0:0:
218,260,47677,1,0,0:0:0:0:
23,203,47872,2,0,P|91:191|111:187,1,80,8|0,0:0|0:0,0:0:0:0:
324,298,48262,5,2,3:2:0:0:
208,256,48456,1,2,0:0:0:0:
459,120,48651,1,10,0:0:0:0:
411,273,48846,1,2,0:0:0:0:
337,166,49041,5,2,3:2:0:0:
409,191,49236,1,0,1:2:0:0:
288,221,49430,1,0,1:2:0:0:
235,19,49625,5,0,1:2:0:0:
235,19,49723,1,0,1:2:0:0:
235,19,49820,2,0,P|218:140|214:173,1,128,6|0,3:2|0:0,0:0:0:0:
390,348,50404,5,2,0:0:0:0:
455,286,50599,2,0,P|459:225|409:191,1,128,2|0,0:0|0:0,0:0:0:0:
298,299,51184,1,2,0:0:0:0:
374,267,51378,5,6,0:0:0:0:
225,221,51573,1,0,0:0:0:0:
340,140,51768,1,2,0:0:0:0:
340,140,51963,1,0,0:0:0:0:
298,299,52158,5,0,0:0:0:0:
289,304,52547,2,0,L|233:293,1,48,2|0,0:0|0:0,0:0:0:0:
172,340,52937,6,0,P|121:305|125:244,1,128,6|0,0:0|0:0,0:0:0:0:
324,197,53521,5,2,0:0:0:0:
225,221,53716,2,0,B|159:208|195:157|129:145,1,128,2|0,0:0|0:0,0:0:0:0:
320,67,54301,5,0,0:0:0:0:
236,5,54495,2,0,P|207:28|210:59,1,64,6|0,0:0|0:0,0:0:0:0:
309,157,54885,1,2,0:0:0:0:
407,101,55080,1,0,0:0:0:0:
234,129,55275,5,0,0:0:0:0:
223,135,55664,2,0,L|214:191,1,48,2|0,0:0|0:0,0:0:0:0:
123,234,56054,6,0,P|173:221|215:307,1,143.999995605469,6|0,0:0|0:0,0:0:0:0:
316,164,56638,1,2,0:0:0:0:
140,147,56833,2,0,P|106:125|99:95,1,71.9999978027344,2|0,0:0|0:0,0:0:0:0:
159,0,57223,1,0,0:0:0:0:
234,129,57417,1,0,0:0:0:0:
301,52,57612,5,6,0:0:0:0:
176,78,57807,1,0,0:0:0:0:
324,174,58002,1,2,0:0:0:0:
199,200,58197,1,0,0:0:0:0:
372,100,58391,5,0,0:0:0:0:
383,107,58781,2,0,P|407:124|410:151,1,48,2|0,0:0|0:0,0:0:0:0:
385,233,59171,6,0,P|319:214|237:199,1,143.999995605469,2|0,0:0|0:0,0:0:0:0:
183,264,59755,1,2,0:0:0:0:
101,59,59950,2,0,P|60:78|75:140,1,107.999996704102,2|0,0:0|0:0,0:0:0:0:
109,155,60340,2,0,P|163:135|195:128,1,71.9999978027344,2|0,0:0|0:0,0:0:0:0:
301,266,60729,5,2,1:2:0:0:
301,266,60827,2,0,L|294:303,1,27.9999991455078,0|0,1:2|0:0,0:0:0:0:
217,332,61021,1,0,1:2:0:0:
217,332,61119,2,0,L|211:304,1,27.9999991455078,0|0,1:2|0:0,0:0:0:0:
293,377,61314,1,0,0:0:0:0:
401,296,61508,5,2,1:2:0:0:
228,218,61703,1,0,1:2:0:0:
228,218,61801,1,0,1:2:0:0:
228,218,61898,1,0,1:2:0:0:
466,242,62093,1,0,0:0:0:0:
315,74,62288,6,0,P|307:170|301:266,1,191.999994140625,6|8,3:2|0:0,0:0:0:0:
183,140,62872,5,2,3:2:0:0:
386,212,63067,1,2,3:2:0:0:
228,218,63262,1,0,0:0:0:0:
228,218,63359,1,0,0:0:0:0:
228,218,63456,1,8,0:0:0:0:
336,143,63651,1,2,3:2:0:0:
98,62,63846,5,2,3:2:0:0:
260,106,64041,1,2,3:2:0:0:
132,237,64236,1,10,0:0:0:0:
294,281,64430,1,2,3:2:0:0:
79,326,64625,5,2,3:2:0:0:
85,172,64820,1,0,0:0:0:0:
85,172,64917,1,0,0:0:0:0:
85,172,65015,1,10,0:0:0:0:
218,252,65210,1,0,0:0:0:0:
25,231,65404,6,0,P|3:149|102:93,1,191.999994140625,6|8,3:2|0:0,0:0:0:0:
285,200,65989,1,2,3:2:0:0:
85,172,66184,1,2,3:2:0:0:
260,106,66378,1,0,0:0:0:0:
260,106,66476,1,0,0:0:0:0:
260,106,66573,1,8,0:0:0:0:
294,281,66768,1,2,3:2:0:0:
485,228,66963,5,2,3:2:0:0:
285,200,67158,1,2,3:2:0:0:
313,0,67353,1,10,0:0:0:0:
512,28,67547,1,2,3:2:0:0:
394,182,67742,5,2,3:2:0:0:
386,190,68132,2,0,P|336:201|316:244,1,96,10|0,0:0|0:0,0:0:0:0:
276,271,68521,6,0,P|237:262|216:228,1,80,6|2,3:2|0:0,0:0:0:0:
224,177,68814,1,2,3:2:0:0:
224,177,68911,1,10,0:0:0:0:
388,263,69106,1,0,3:2:0:0:
258,349,69301,6,0,L|192:335,1,40,6|0,3:2|0:0,0:0:0:0:
149,189,69495,2,0,L|215:203,1,40,2|0,0:0|0:0,0:0:0:0:
391,107,69690,2,0,P|405:52|358:21,1,120,10|0,0:0|0:0,0:0:0:0:
313,10,70080,6,0,P|309:50|303:103,1,80,6|2,3:2|0:0,0:0:0:0:
295,141,70372,1,2,3:2:0:0:
295,141,70469,1,10,0:0:0:0:
193,78,70664,1,0,3:2:0:0:
122,197,70859,6,0,L|119:148,1,40,6|0,3:2|0:0,0:0:0:0:
277,257,71054,2,0,L|280:208,1,40,2|0,0:0|0:0,0:0:0:0:
179,325,71249,2,0,B|173:321|173:321|43:307,1,120,10|0,0:0|0:0,0:0:0:0:
27,330,71638,6,0,P|-6:288|2:262,1,80,6|2,3:2|0:0,0:0:0:0:
36,231,71930,1,2,3:2:0:0:
36,231,72028,1,10,0:0:0:0:
200,204,72223,1,0,3:2:0:0:
200,204,72320,1,2,0:0:0:0:
200,204,72417,1,6,3:2:0:0:
110,283,72612,1,2,0:0:0:0:
88,155,72807,1,10,0:0:0:0:
191,282,73002,1,2,0:0:0:0:
344,131,73197,5,2,3:2:0:0:
189,199,73391,1,0,0:0:0:0:
266,80,73586,1,2,3:2:0:0:
267,250,73781,1,0,0:0:0:0:
81,162,73976,5,2,3:2:0:0:
269,161,74171,1,2,3:2:0:0:
457,160,74365,1,2,3:2:0:0:
464,167,74755,5,6,0:0:0:0:
464,167,80599,6,0,P|429:148|424:132,1,48
490,98,80989,6,0,P|432:86|376:73,1,103.999995239258,6|0,0:0|0:0,0:0:0:0:
22,286,81768,2,0,P|80:298|136:311,1,103.999995239258,2|0,0:0|0:0,0:0:0:0:
308,193,82547,6,0,P|250:181|194:168,2,103.999995239258,2|0|2,0:0|0:0|0:0,0:0:0:0:
486,275,83716,6,0,P|484:297|465:312,1,48
411,325,84106,6,0,P|391:294|449:191,1,167.999994873047,6|0,0:0|0:0,0:0:0:0:
288,296,84885,6,0,P|309:307|317:330,1,48,6|0,0:0|0:0,0:0:0:0:
249,358,85275,6,0,B|241:362|241:362|117:346|117:346|109:352,1,143.999995605469,8|0,0:0|0:0,0:0:0:0:
60,381,85664,6,0,P|55:308|53:279,1,80,6|0,3:2|0:0,0:0:0:0:
212,180,86054,1,10,0:0:0:0:
48,121,86249,1,0,0:0:0:0:
321,7,86443,2,0,P|317:47|314:87,1,80,6|0,3:2|0:0,0:0:0:0:
309,201,86833,1,8,0:0:0:0:
223,65,87028,1,0,0:0:0:0:
407,176,87223,5,6,3:2:0:0:
246,144,87417,1,2,0:0:0:0:
214,305,87612,1,10,0:0:0:0:
375,337,87807,1,2,0:0:0:0:
448,113,88002,5,6,3:2:0:0:
364,239,88197,1,0,0:0:0:0:
344,135,88391,1,8,0:0:0:0:
469,218,88586,1,8,0:0:0:0:
500,61,88781,6,0,P|434:48|406:41,1,80,6|0,3:2|0:0,0:0:0:0:
194,178,89171,2,0,P|260:191|288:198,1,80,10|0,0:0|0:0,0:0:0:0:
406,285,89560,1,2,3:2:0:0:
304,307,89755,1,2,0:0:0:0:
399,186,89950,1,10,0:0:0:0:
492,267,90145,5,2,0:0:0:0:
334,233,90340,1,2,3:2:0:0:
475,186,90534,1,0,0:0:0:0:
312,52,90729,5,10,0:0:0:0:
453,99,90924,1,0,0:0:0:0:
295,133,91119,5,2,3:2:0:0:
437,16,91314,1,2,3:2:0:0:
415,274,91508,1,10,0:0:0:0:
366,209,91703,5,0,3:2:0:0:
366,209,91801,1,0,3:2:0:0:
366,208,91898,2,0,P|447:193|494:260,1,160,6|10,3:2|0:0,0:0:0:0:
390,351,92482,1,0,0:0:0:0:
210,260,92677,5,2,3:2:0:0:
337,287,92872,1,2,0:0:0:0:
185,342,93067,1,10,0:0:0:0:
131,194,93262,5,2,0:0:0:0:
131,194,93359,1,0,0:0:0:0:
131,194,93456,2,0,P|126:254|123:286,1,80,2|0,3:2|0:0,0:0:0:0:
317,96,93846,2,0,P|322:156|325:188,1,80,10|0,0:0|0:0,0:0:0:0:
112,9,94236,1,2,3:2:0:0:
105,16,94625,6,0,L|159:29,1,48,8|0,0:0|0:0,0:0:0:0:
247,68,95015,6,0,P|206:50|144:150,1,160,6|10,3:2|0:0,0:0:0:0:
225,168,95599,1,0,0:0:0:0:
117,283,95794,5,2,3:2:0:0:
233,177,95989,1,2,0:0:0:0:
57,208,96184,1,10,0:0:0:0:
209,254,96378,1,2,0:0:0:0:
59,342,96573,5,2,3:2:0:0:
141,210,96768,1,2,0:0:0:0:
267,331,96963,1,10,0:0:0:0:
333,217,97158,1,2,0:0:0:0:
203,262,97353,5,2,3:2:0:0:
362,311,97547,1,2,3:2:0:0:
338,96,97742,1,10,0:0:0:0:
331,105,98132,5,6,3:2:0:0:
428,145,98327,1,8,0:0:0:0:
304,173,98521,5,10,0:0:0:0:
378,85,98716,1,8,0:0:0:0:
371,228,98911,5,2,3:2:0:0:
297,111,99106,1,8,0:0:0:0:
458,171,99301,5,10,0:0:0:0:
296,212,99495,1,8,0:0:0:0:
296,212,99593,1,8,0:0:0:0:
296,212,99690,2,0,L|209:198,1,80,2|0,3:2|0:0,0:0:0:0:
351,2,100080,2,0,L|438:16,1,80,10|0,0:0|0:0,0:0:0:0:
166,132,100469,5,2,3:2:0:0:
166,132,100859,1,8,0:0:0:0:
278,44,101054,5,0,1:2:0:0:
278,44,101151,1,0,1:2:0:0:
278,44,101249,2,0,P|272:102|265:175,1,128,6|0,3:2|0:0,0:0:0:0:
244,326,101833,1,0,0:0:0:0:
147,204,102028,5,2,0:0:0:0:
147,204,102417,2,0,B|216:188|197:258|262:247,1,132.00000402832,6|0,0:0|0:0,0:0:0:0:
265,171,102807,6,0,B|196:155|215:225|150:214,1,128,6|0,0:0|0:0,0:0:0:0:
42,129,103391,1,0,0:0:0:0:
120,21,103586,2,0,P|126:74|129:102,1,64,2|0,0:0|0:0,0:0:0:0:
274,163,103976,2,0,P|277:131|281:99,1,64
202,54,104365,6,0,P|284:44|364:31,1,143.999995605469,6|0,0:0|0:0,0:0:0:0:
441,162,105145,2,0,P|401:151|383:147,1,47.9999985351563,6|0,0:0|0:0,0:0:0:0:
249,203,105534,2,0,P|289:214|309:220,1,47.9999985351563
447,267,105924,5,6,1:2:0:0:
423,268,106021,1,0,1:2:0:0:
403,282,106119,1,0,1:2:0:0:
394,303,106216,1,0,1:2:0:0:
395,323,106314,6,0,B|386:328|386:328|345:307|274:301,1,120,2|0,1:2|1:2,0:0:0:0:
247,335,106703,6,0,L|206:343,1,40,6|0,1:2|1:2,0:0:0:0:
196,253,106898,2,0,L|155:245,1,40,2|0,1:2|1:2,0:0:0:0:
51,347,107093,2,0,P|0:316|0:297,1,80,2|2,3:2|3:2,0:0:0:0:
90,153,107482,5,6,3:2:0:0:
84,182,107580,1,2,0:0:0:0:
80,211,107677,1,2,0:0:0:0:
76,240,107775,1,2,0:0:0:0:
73,270,107872,1,2,0:0:0:0:
0,212,108067,1,0,0:0:0:0:
206,257,108262,6,0,P|251:230|201:122,1,160,6|2,3:2|0:0,0:0:0:0:
27,85,109041,5,6,3:2:0:0:
139,195,109236,1,2,0:0:0:0:
139,195,109333,1,2,0:0:0:0:
139,195,109430,2,0,L|192:183,1,40,2|0,0:0|0:0,0:0:0:0:
165,99,109625,2,0,L|218:111,1,40
388,215,109820,6,0,P|337:202|296:313,1,160,6|2,3:2|0:0,0:0:0:0:
469,363,110599,6,0,B|464:358|464:358|468:314,1,48,6|0,3:2|0:0,0:0:0:0:
475,309,110989,6,0,B|467:316|467:316|403:310,1,71.9999978027344,2|0,3:2|0:0,0:0:0:0:
398,316,111378,6,0,B|388:304|388:304|396:215,1,96,2|0,3:2|0:0,0:0:0:0:
404,216,111768,6,0,B|390:227|390:227|283:217,1,120,2|0,3:2|0:0,0:0:0:0:
279,224,112158,6,0,B|267:210|267:210|277:103,1,95.9999970703126,2|0,3:2|1:2,0:0:0:0:
84,63,112547,2,2,B|100:74|100:74|107:151,1,95.9999970703126,2|0,3:2|1:2,0:0:0:0:
78,353,112937,6,0,P|23:318|40:257,1,95.9999970703126,2|8,3:2|0:0,0:0:0:0:
46,247,113229,1,8,0:0:0:0:
46,247,113327,2,0,L|105:231,1,47.9999985351563,2|0,3:2|0:0,0:0:0:0:
190,314,113521,2,0,L|249:330,1,47.9999985351563,2|0,3:2|3:2,0:0:0:0:
476,202,113717,6,0,P|402:184|374:173,1,88.000002685547,6|0,3:2|0:0,0:0:0:0:
172,238,114106,1,10,0:0:0:0:
247,49,114301,1,0,0:0:0:0:
302,285,114495,5,2,3:2:0:0:
205,152,114690,1,0,0:0:0:0:
361,203,114885,1,10,0:0:0:0:
205,253,115080,1,2,0:0:0:0:
302,121,115275,5,6,3:2:0:0:
481,210,115469,1,2,0:0:0:0:
356,238,115664,1,10,0:0:0:0:
427,94,115859,1,2,0:0:0:0:
212,168,116054,5,2,3:2:0:0:
412,168,116249,1,2,0:0:0:0:
212,168,116443,1,10,0:0:0:0:
356,238,116638,5,0,0:0:0:0:
126,113,116833,2,0,L|118:212,1,88.000002685547,6|2,3:2|0:0,0:0:0:0:
277,338,117223,1,10,0:0:0:0:
447,254,117417,1,2,0:0:0:0:
189,267,117612,6,0,P|236:238|328:216,1,132.00000402832,2|0,3:2|0:0,0:0:0:0:
356,238,118002,2,0,P|388:199|373:161,1,88.000002685547,10|0,0:0|0:0,0:0:0:0:
83,61,118391,5,6,3:2:0:0:
123,211,118586,1,2,0:0:0:0:
233,20,118781,1,10,0:0:0:0:
273,170,118976,1,0,0:0:0:0:
74,55,119171,5,2,3:2:0:0:
284,175,119365,1,10,0:0:0:0:
239,9,119560,1,10,0:0:0:0:
118,220,119755,5,8,0:0:0:0:
118,220,119853,1,8,0:0:0:0:
118,220,119950,2,0,P|74:198|70:154,1,88.000002685547,6|0,3:2|0:0,0:0:0:0:
247,20,120340,2,0,P|239:76|234:119,1,88.000002685547,10|0,0:0|0:0,0:0:0:0:
212,290,120729,5,2,3:2:0:0:
148,147,120924,1,0,0:0:0:0:
384,246,121119,1,10,0:0:0:0:
223,200,121314,1,2,0:0:0:0:
392,85,121508,5,6,3:2:0:0:
298,253,121703,1,2,0:0:0:0:
272,55,121898,1,10,0:0:0:0:
375,239,122093,1,2,0:0:0:0:
159,318,122288,5,2,3:2:0:0:
353,318,122482,1,2,0:0:0:0:
159,318,122677,1,10,0:0:0:0:
137,239,122872,5,0,0:0:0:0:
318,78,123067,2,0,P|304:193|297:259,1,176.000005371094,6|10,3:2|0:0,0:0:0:0:
185,167,123651,1,2,0:0:0:0:
384,246,123846,2,0,P|421:216|421:178,1,88.000002685547,6|0,3:2|0:0,0:0:0:0:
229,52,124236,1,10,0:0:0:0:
338,173,124430,1,2,0:0:0:0:
126,247,124625,5,6,3:2:0:0:
220,216,124820,1,2,0:0:0:0:
59,178,125015,1,10,0:0:0:0:
201,305,125210,5,2,0:0:0:0:
201,305,125307,1,0,0:0:0:0:
201,305,125404,1,0,3:2:0:0:
367,155,125599,5,2,0:0:0:0:
211,206,125794,1,10,0:0:0:0:
55,257,125989,1,2,0:0:0:0:
202,196,126184,5,0,3:2:0:0:
22,130,126378,5,2,0:0:0:0:
193,186,126573,1,2,3:2:0:0:
365,242,126768,1,2,0:0:0:0:
487,23,126963,5,2,3:2:0:0:
315,76,127158,1,2,0:0:0:0:
446,199,127353,1,10,0:0:0:0:
416,100,127743,6,0,P|391:112|377:147,2,64,6|2|2,0:0|0:0|0:0,0:0:0:0:
452,174,132417,5,0,1:2:0:0:
304,129,132612,1,0,1:2:0:0:
377,220,132807,1,8,0:0:0:0:
246,240,133002,1,0,3:2:0:0:
246,240,133099,1,0,1:2:0:0:
246,240,133197,1,0,3:2:0:0:
246,240,133294,1,0,1:2:0:0:
246,240,133391,1,0,3:2:0:0:
181,0,133586,6,0,B|175:6|175:6|161:153,1,143.999995605469,8|0,0:0|0:0,0:0:0:0:
155,193,133976,5,6,3:2:0:0:
233,161,134171,1,0,0:0:0:0:
61,111,134365,2,0,L|52:190,1,80,10|0,0:0|0:0,0:0:0:0:
102,361,134755,5,2,3:2:0:0:
180,329,134950,1,0,0:0:0:0:
36,285,135145,2,0,P|91:273|131:266,1,80,10|0,0:0|0:0,0:0:0:0:
385,228,135534,5,2,3:2:0:0:
354,302,135729,1,0,0:0:0:0:
220,147,135924,5,10,0:0:0:0:
277,282,136119,1,0,0:0:0:0:
444,166,136314,6,0,P|397:139|391:106,1,80,2|0,3:2|0:0,0:0:0:0:
276,200,136703,1,10,0:0:0:0:
392,235,136898,1,0,0:0:0:0:
214,349,137093,5,2,3:2:0:0:
191,266,137288,1,0,0:0:0:0:
347,176,137482,5,10,0:0:0:0:
390,325,137677,1,0,0:0:0:0:
324,95,137872,5,2,3:2:0:0:
407,118,138067,1,0,0:0:0:0:
234,251,138262,5,10,0:0:0:0:
383,294,138456,1,0,0:0:0:0:
87,335,138651,5,10,0:0:0:0:
474,244,139041,5,10,0:0:0:0:
140,42,139430,5,10,0:0:0:0:
52,90,139625,1,8,0:0:0:0:
0,8,139820,1,10,0:0:0:0:
129,126,140015,5,8,0:0:0:0:
138,124,140112,1,8,0:0:0:0:
142,133,140210,2,0,B|231:108|279:169|265:179|331:256|439:213,1,320,6|2,3:2|0:0,0:0:0:0:
249,364,141378,6,0,P|217:353|204:326,1,64
296,160,141768,6,0,P|285:237|278:307,1,128,6|0,0:0|0:0,0:0:0:0:
196,204,142353,1,2,0:0:0:0:
380,168,142547,2,0,P|386:128|316:82,1,128,2|0,0:0|0:0,0:0:0:0:
69,248,143327,6,0,P|123:221|211:193,1,128,6|0,0:0|0:0,0:0:0:0:
382,207,143911,1,0,0:0:0:0:
298,157,144106,1,2,0:0:0:0:
420,5,144495,2,0,P|451:32|446:70,1,64
382,113,144885,6,0,P|302:98|243:87,1,128,6|0,0:0|0:0,0:0:0:0:
309,231,145469,1,2,0:0:0:0:
130,271,145664,2,0,P|210:286|269:297,1,128,2|0,0:0|0:0,0:0:0:0:
200,209,146249,5,0,0:0:0:0:
200,209,146346,1,0,0:0:0:0:
200,209,146443,1,6,3:2:0:0:
274,182,146638,1,0,0:0:0:0:
227,260,146833,5,10,2:2:0:0:
228,167,147028,1,0,0:0:0:0:
297,251,147223,5,2,3:2:0:0:
191,212,147417,1,0,0:0:0:0:
315,168,147612,5,10,2:2:0:0:
228,272,147807,1,0,0:0:0:0:
230,114,148002,5,2,3:2:0:0:
310,254,148197,1,0,0:0:0:0:
133,188,148391,5,10,2:2:0:0:
324,155,148586,1,0,0:0:0:0:
177,328,148781,5,2,3:2:0:0:
218,98,148976,1,0,0:0:0:0:
353,335,149171,5,10,2:2:0:0:
110,195,149365,1,0,0:0:0:0:
413,149,149560,5,6,3:2:0:0:
331,178,149755,1,0,0:0:0:0:
383,92,149950,5,10,2:2:0:0:
382,195,150145,1,2,0:0:0:0:
306,102,150340,5,6,3:2:0:0:
422,145,150534,1,0,0:0:0:0:
286,194,150729,5,10,2:2:0:0:
382,79,150924,1,2,0:0:0:0:
380,253,151119,5,6,3:2:0:0:
292,99,151314,1,0,0:0:0:0:
486,172,151508,5,14,2:2:0:0:
276,208,151703,1,2,0:0:0:0:
438,18,151898,5,6,3:2:0:0:
393,271,152093,1,0,0:0:0:0:
244,10,152288,5,14,2:2:0:0:
512,164,152482,1,2,0:0:0:0:
175,218,152677,6,0,P|170:165|167:137,1,64,6|0,3:2|0:0,0:0:0:0:
472,254,153067,2,0,P|468:285|465:317,1,64,10|0,0:0|0:0,0:0:0:0:
261,376,153456,6,0,P|300:379|340:382,1,80,6|0,3:2|0:0,0:0:0:0:
456,78,153846,2,0,P|416:82|376:85,1,80,10|0,0:0|0:0,0:0:0:0:
344,245,154236,6,0,P|338:193|334:142,1,95.9999970703126,6|0,3:2|0:0,0:0:0:0:
46,50,154625,2,0,P|42:102|38:152,1,95.9999970703126,10|0,0:0|0:0,0:0:0:0:
171,1,155015,6,0,P|233:5|295:11,1,111.999996582031,6|0,3:2|0:0,0:0:0:0:
135,298,155404,2,0,P|72:302|10:308,1,111.999996582031,10|0,0:0|0:0,0:0:0:0:
141,199,155794,6,0,L|149:239,3,23.9999992675781,2|2|2|2,3:2|0:0|0:0|0:0,0:0:0:0:
210,289,156184,2,0,L|218:249,3,23.9999992675781,2|2|2|2,0:0|0:0|0:0|0:0,0:0:0:0:
278,212,156573,6,0,L|283:238,3,20,2|2|2|2,0:0|0:0|0:0|0:0,0:0:0:0:
347,276,156963,2,0,L|352:249,3,20,2|2|2|2,0:0|0:0|0:0|0:0,0:0:0:0:
415,225,157353,6,0,L|419:249,3,16,2|2|2|2,0:0|0:0|0:0|0:0,0:0:0:0:
484,263,157742,2,0,L|489:236,3,16,2|2|2|2,0:0|0:0|0:0|0:0,0:0:0:0:
472,174,158132,5,2,0:0:0:0:
468,168,158229,1,2,0:0:0:0:
478,165,158327,1,2,0:0:0:0:
478,171,158424,1,2,0:0:0:0:
472,162,158521,1,2,0:0:0:0:
394,123,158716,1,0,0:0:0:0:
256,192,158911,5,2,3:2:0:0:
248,199,159301,5,2,3:2:0:0:
240,206,159690,6,0,P|201:194|191:177,1,60,2|0,3:2|0:0,0:0:0:0:
261,119,160080,6,0,P|238:214|226:314,1,155.999992858887,6|0,3:2|0:0,0:0:0:0:
243,355,160469,5,6,3:2:0:0:
355,237,160664,1,0,0:0:0:0:
136,299,160859,1,10,0:0:0:0:
319,338,161054,1,0,0:0:0:0:
175,116,161249,5,2,3:2:0:0:
358,155,161443,1,0,0:0:0:0:
117,184,161638,2,0,P|88:152|90:102,1,88.000002685547,10|2,0:0|0:0,0:0:0:0:
376,38,162028,5,6,3:2:0:0:
286,193,162223,1,2,0:0:0:0:
253,71,162417,1,10,0:0:0:0:
408,161,162612,1,2,0:0:0:0:
315,320,162807,5,2,3:2:0:0:
315,120,163002,1,2,0:0:0:0:
315,320,163197,1,10,0:0:0:0:
225,279,163391,5,0,0:0:0:0:
404,148,163586,2,0,L|312:131,1,88.000002685547,6|2,3:2|0:0,0:0:0:0:
150,100,163976,1,10,0:0:0:0:
275,198,164171,1,2,0:0:0:0:
125,313,164365,6,0,P|72:294|58:222,1,132.00000402832,2|0,3:2|0:0,0:0:0:0:
85,182,164755,2,0,L|133:170,1,44.0000013427735,10|0,0:0|0:0,0:0:0:0:
167,240,164950,2,0,L|215:252,1,44.0000013427735
403,77,165145,5,6,3:2:0:0:
293,268,165340,1,2,0:0:0:0:
253,118,165534,1,10,0:0:0:0:
443,227,165729,1,0,0:0:0:0:
244,112,165924,5,2,3:2:0:0:
409,66,166119,1,10,0:0:0:0:
288,277,166314,1,10,0:0:0:0:
454,232,166508,5,8,0:0:0:0:
454,232,166606,1,8,0:0:0:0:
454,232,166703,2,0,P|486:188|475:152,1,88.000002685547,6|0,3:2|0:0,0:0:0:0:
316,52,167093,1,10,0:0:0:0:
259,207,167288,1,0,0:0:0:0:
399,171,167482,5,2,3:2:0:0:
215,132,167677,1,0,0:0:0:0:
319,280,167872,1,10,0:0:0:0:
135,319,168067,1,2,0:0:0:0:
380,357,168262,5,6,3:2:0:0:
329,200,168456,1,2,0:0:0:0:
307,384,168651,1,10,0:0:0:0:
399,171,168846,1,2,0:0:0:0:
197,250,169041,5,2,3:2:0:0:
391,250,169236,1,2,0:0:0:0:
197,250,169430,1,10,0:0:0:0:
182,173,169625,5,0,0:0:0:0:
341,21,169820,2,0,P|331:108|322:195,1,176.000005371094,6|10,3:2|0:0,0:0:0:0:
112,229,170404,1,2,0:0:0:0:
256,141,170599,5,6,3:2:0:0:
129,106,170794,1,0,0:0:0:0:
269,264,170989,1,10,0:0:0:0:
396,229,171184,1,2,0:0:0:0:
249,381,171378,5,6,3:2:0:0:
197,209,171573,1,2,0:0:0:0:
263,3,171768,5,10,0:0:0:0:
315,175,171963,1,2,0:0:0:0:
32,192,172158,5,2,3:2:0:0:
24,199,172547,1,10,0:0:0:0:
117,336,172742,5,8,0:0:0:0:
117,336,172840,1,8,0:0:0:0:
117,336,172938,2,0,P|179:321|231:311,1,95.9999970703126,6|0,3:2|0:0,0:0:0:0:
496,242,173327,2,0,P|449:232|402:220,1,95.9999970703126,10|0,0:0|0:0,0:0:0:0:
195,4,173716,2,0,P|190:78|187:117,1,95.9999970703126,2|2,3:2|0:0,0:0:0:0:
306,319,174106,1,10,0:0:0:0:
384,142,174301,1,2,0:0:0:0:
145,250,174495,5,6,3:2:0:0:
325,202,174690,1,2,0:0:0:0:
182,110,174885,2,0,P|129:101|81:91,1,95.9999970703126,10|0,0:0|0:0,0:0:0:0:
418,291,175275,5,2,3:2:0:0:
238,243,175469,1,2,0:0:0:0:
381,151,175664,1,10,0:0:0:0:
195,4,175859,5,2,0:0:0:0:
195,4,175956,1,0,0:0:0:0:
195,4,176054,2,0,P|190:78|187:117,1,95.9999970703126,6|0,3:2|0:0,0:0:0:0:
317,380,176443,2,0,P|322:306|325:267,1,95.9999970703126,10|0,0:0|0:0,0:0:0:0:
90,233,176833,5,2,3:2:0:0:
256,192,177028,1,0,0:0:0:0:
422,151,177223,1,10,0:0:0:0:
188,99,177417,5,0,0:0:0:0:
188,99,177515,1,0,0:0:0:0:
188,99,177612,1,6,3:2:0:0:
323,284,177807,1,2,0:0:0:0:
324,99,178002,1,10,0:0:0:0:
189,284,178197,1,0,0:0:0:0:
73,146,178391,5,8,2:2:0:0:
256,192,178586,1,10,0:0:0:0:
438,237,178781,1,8,0:0:0:0:
302,364,178976,5,8,0:0:0:0:
302,364,179073,1,8,0:0:0:0:
302,364,179171,2,0,P|253:354|204:346,1,95.9999970703126,6|0,3:2|0:0,0:0:0:0:
210,20,179560,2,0,P|259:30|308:38,1,95.9999970703126,10|0,0:0|0:0,0:0:0:0:
242,278,179950,5,2,3:2:0:0:
175,224,180145,1,0,0:0:0:0:
336,162,180340,5,10,0:0:0:0:
323,247,180534,1,2,0:0:0:0:
189,139,180729,5,6,3:2:0:0:
269,108,180924,1,2,0:0:0:0:
240,286,181119,5,10,0:0:0:0:
329,252,181314,1,2,0:0:0:0:
101,166,181508,5,2,3:2:0:0:
256,192,181703,1,2,0:0:0:0:
89,174,181898,2,0,L|80:77,1,95.9999970703126,10|0,0:0|0:0,0:0:0:0:
417,129,182288,6,0,P|329:113|260:93,1,143.999995605469,6|0,3:2|0:0,0:0:0:0:
236,61,182677,1,10,0:0:0:0:
329,192,182872,1,2,0:0:0:0:
54,244,183067,6,0,P|142:228|211:208,1,143.999995605469,6|0,3:2|0:0,0:0:0:0:
235,176,183456,1,10,0:0:0:0:
142,307,183651,1,2,0:0:0:0:
417,359,183846,5,6,3:2:0:0:
306,382,184041,1,2,0:0:0:0:
236,291,184236,1,10,0:0:0:0:
378,210,184430,5,2,0:0:0:0:
378,210,184528,1,0,0:0:0:0:
378,210,184625,1,0,3:2:0:0:
343,292,184820,5,2,0:0:0:0:
256,192,185015,1,10,0:0:0:0:
169,92,185210,1,2,0:0:0:0:
246,196,185404,5,4,3:2:0:0:
332,90,185599,5,2,0:0:0:0:
236,200,185794,1,2,3:2:0:0:
140,310,185989,1,2,0:0:0:0:
226,204,186184,5,0,3:2:0:0:
60,173,186378,5,2,0:0:0:0:
216,208,186573,1,10,0:0:0:0:
373,244,186768,1,2,0:0:0:0:
197,371,186963,6,0,P|146:357|133:315,1,95.9999970703126,4|2,3:2|0:0,0:0:0:0:
440,153,187353,2,0,P|453:204|424:237,1,95.9999970703126,10|2,0:0|0:0,0:0:0:0:
130,51,187742,2,0,P|168:14|210:23,1,95.9999970703126,0|2,3:2|0:0,0:0:0:0:
208,292,188132,5,10,0:0:0:0:
193,100,188327,1,2,0:0:0:0:
366,183,188522,6,0,L|102:183,1,263.99999194336,2|0,3:2|0:0,0:0:0:0:
186,108,189690,6,0,L|186:264,1,155.999992858887,12|0,0:0|0:0,0:0:0:0:
186,350,190080,6,0,P|144:348|114:320,1,80,6|2,3:2|0:0,0:0:0:0:
100,275,190372,1,2,3:2:0:0:
100,275,190469,1,10,0:0:0:0:
260,305,190664,1,0,3:2:0:0:
319,191,190859,6,0,L|322:230,1,40,2|0,3:2|0:0,0:0:0:0:
429,278,191054,2,0,L|432:238,1,40,2|0,0:0|0:0,0:0:0:0:
240,149,191249,2,0,P|292:153|316:86,1,120,10|0,0:0|0:0,0:0:0:0:
296,50,191638,6,0,P|239:42|200:34,1,80,6|2,3:2|0:0,0:0:0:0:
169,20,191930,1,2,3:2:0:0:
169,20,192028,1,10,0:0:0:0:
232,157,192223,1,0,3:2:0:0:
116,226,192417,6,0,P|147:217|176:212,1,40,2|0,3:2|0:0,0:0:0:0:
372,229,192612,2,0,P|341:238|312:243,1,40,2|0,0:0|0:0,0:0:0:0:
255,384,192807,2,0,P|195:356|216:291,1,120,10|0,0:0|0:0,0:0:0:0:
236,271,193197,5,2,3:2:0:0:
441,292,193391,1,2,0:0:0:0:
441,292,193489,1,2,3:2:0:0:
441,292,193586,2,0,P|469:249|460:223,1,80,10|0,0:0|0:0,0:0:0:0:
295,77,193976,5,2,3:2:0:0:
363,313,194171,1,2,0:2:0:0:
363,313,194268,1,2,3:2:0:0:
363,313,194365,1,10,0:0:0:0:
413,168,194560,1,0,0:0:0:0:
261,252,194755,5,2,3:2:0:0:
378,234,194950,1,2,0:0:0:0:
243,135,195145,1,10,0:0:0:0:
360,117,195340,1,2,0:0:0:0:
257,259,195534,5,2,3:2:0:0:
365,110,195729,1,2,3:2:0:0:
237,130,195924,1,10,0:0:0:0:
385,239,196119,1,2,3:2:0:0:
478,68,196314,6,0,P|429:53|395:40,1,80,6|2,3:2|0:0,0:0:0:0:
361,11,196606,1,2,3:2:0:0:
361,11,196703,1,10,0:0:0:0:
292,180,196898,5,0,3:2:0:0:
292,180,196995,1,2,2:2:0:0:
292,180,197093,2,0,P|285:144|283:115,1,40,2|0,3:2|0:0,0:0:0:0:
452,201,197288,2,0,P|449:220|444:240,1,40,2|0,0:0|0:0,0:0:0:0:
287,378,197482,2,0,P|297:298|306:249,1,120,10|0,0:0|0:0,0:0:0:0:
361,205,197872,6,0,P|331:180|292:180,1,80,6|2,3:2|0:0,0:0:0:0:
247,204,198164,1,2,3:2:0:0:
247,204,198262,1,10,0:0:0:0:
113,144,198456,5,0,3:2:0:0:
113,144,198554,1,2,2:2:0:0:
113,144,198651,2,0,P|147:133|159:115,1,40,2|0,3:2|0:0,0:0:0:0:
13,39,198846,2,0,P|5:73|15:93,1,40,2|0,0:0|0:0,0:0:0:0:
129,262,199041,2,0,P|123:203|113:144,1,120,10|0,0:0|0:0,0:0:0:0:
82,71,199430,5,6,3:2:0:0:
7,233,199625,1,2,2:2:0:0:
7,233,199723,1,2,3:2:0:0:
7,233,199820,2,0,P|37:208|76:208,1,80,10|0,0:0|0:0,0:0:0:0:
342,322,200210,5,2,3:2:0:0:
149,341,200404,1,2,2:2:0:0:
149,341,200502,1,2,3:2:0:0:
149,341,200599,2,0,P|124:311|124:272,1,80,10|0,0:0|0:0,0:0:0:0:
356,99,200989,5,2,3:2:0:0:
198,228,201184,1,2,0:0:0:0:
213,84,201378,1,10,0:0:0:0:
341,243,201573,1,2,3:2:0:0:
207,76,201768,5,2,3:2:0:0:
365,93,201963,1,2,0:0:0:0:
191,234,202158,1,10,0:0:0:0:
348,251,202353,1,2,0:0:0:0:
248,157,202547,5,2,0:0:0:0:
185,319,204106,6,0,P|195:286|192:320,1,95.9999970703126,6|0,3:2|0:0,0:0:0:0:
310,355,204495,2,0,P|315:320|321:361,1,120.000004577637,2|0,3:2|0:0,0:0:0:0:
500,209,204885,6,0,B|431:247|444:329|444:329|429:247|352:228,1,287.999991210938,2|2,3:2|3:2,0:0:0:0:
