osu file format v14

[General]
AudioFilename: audio.mp3
AudioLeadIn: 0
PreviewTime: 83521
Countdown: 0
SampleSet: None
StackLeniency: 0.7
Mode: 0
LetterboxInBreaks: 0
WidescreenStoryboard: 0

[Editor]
Bookmarks: 53757
DistanceSpacing: 1.5
BeatDivisor: 4
GridSize: 16
TimelineZoom: 1.1

[Metadata]
Title:Who Killed U.N.Owen
TitleUnicode:Who Killed U.N.Owen
Artist:Liz Triangle
ArtistUnicode:Liz Triangle
Creator:Zinreu
Version:Waji's Hard
Source:東方紅魔郷 ~ the Embodiment of Scarlet Devil.
Tags:東方Project lily-an Koumakyou~ Team Shanghai Alice cut version kaztora azuki B1 Reitaisai7 Touhou Koumakyou u.n. owen was her? extra boss theme U.N.オーエンは彼女なのか? ZUN flandre scarlet -light- wajinshu
BeatmapID:1674220
BeatmapSetID:796544

[Difficulty]
HPDrainRate:4
CircleSize:4
OverallDifficulty:6
ApproachRate:7
SliderMultiplier:1.5
SliderTickRate:1

[Events]
//Background and Video events
0,0,"1600x900_flandre_scarlet-998677.jpg",0,0
//Break Periods
2,81632,82385
2,96950,99393
2,104509,106952
//Storyboard Layer 0 (Background)
//Storyboard Layer 1 (Fail)
//Storyboard Layer 2 (Pass)
//Storyboard Layer 3 (Foreground)
//Storyboard Sound Samples

[TimingPoints]
19269,-133.333333333333,4,3,1,60,0,0
19270,472.44094488189,4,3,1,60,1,0
23048,-100,4,3,1,60,0,0
34388,-100,4,3,1,60,0,0
83521,-100,4,3,1,60,0,1
96750,-100,4,3,1,60,0,0
109978,-100,4,3,1,60,0,0

[Colours]
Combo1 : 255,128,192
Combo2 : 0,255,255
Combo3 : 18,124,255
Combo4 : 128,0,255

[HitObjects]
151,161,19270,5,6,2:0:0:0:
151,161,21159,1,2,0:0:0:0:
151,161,23049,6,0,P|160:205|164:254,1,75,6|0,2:0|0:0,0:0:0:0:
140,329,23521,1,8,0:0:0:0:
140,329,23994,6,0,P|184:320|233:316,1,75,8|0,0:0|0:0,0:0:0:0:
308,340,24466,1,8,0:0:0:0:
308,340,24939,6,0,P|299:296|295:247,1,75,0|0,0:0|0:0,0:0:0:0:
317,171,25411,1,8,0:0:0:0:
158,32,25884,5,8,0:0:0:0:
239,97,26120,1,8,0:0:0:0:
343,91,26356,1,8,0:0:0:0:
405,5,26592,1,8,0:0:0:0:
471,85,26829,6,0,P|487:144|427:213,1,150,6|8,2:0|0:0,0:0:0:0:
281,95,27773,2,0,P|352:82|405:131,1,150,8|8,0:0|0:0,0:0:0:0:
316,315,28718,2,0,L|327:166,1,150,8|8,0:0|0:0,0:0:0:0:
167,305,29663,2,0,L|156:156,1,150,8|8,0:0|0:0,0:0:0:0:
204,61,30372,1,8,0:0:0:0:
305,87,30608,6,0,B|413:89|413:89|408:124|377:140,1,150,6|8,2:0|0:0,0:0:0:0:
204,61,31553,2,0,B|96:63|96:63|101:98|132:114,1,150,8|8,0:0|0:0,0:0:0:0:
179,299,32498,6,0,P|192:328|201:357,2,37.5,8|0|2,0:0|0:0|0:0,0:0:0:0:
145,233,32971,1,2,0:0:0:0:
153,204,33207,1,2,0:0:0:0:
161,179,33443,1,2,0:0:0:0:
262,150,33679,2,0,L|255:243,1,75,14|6,0:0|2:0,0:0:0:0:
256,224,34389,5,6,2:0:0:0:
333,293,34624,2,0,P|380:282|418:279,1,75,0|8,0:0|0:0,0:0:0:0:
494,336,35096,1,2,0:0:0:0:
494,231,35332,2,0,P|489:193|480:157,1,75,8|0,0:0|0:0,0:0:0:0:
394,96,35805,2,0,P|398:58|407:22,1,75,8|0,0:0|0:0,0:0:0:0:
468,122,36277,6,0,P|437:162|332:147,1,150,8|10,0:0|0:0,0:0:0:0:
250,112,36986,1,0,0:0:0:0:
244,216,37222,2,0,P|248:253|237:288,2,75,10|0|8,0:0|0:0|0:0,0:0:0:0:
141,245,37931,1,8,0:0:0:0:
148,139,38168,5,6,2:0:0:0:
174,37,38404,1,0,0:0:0:0:
250,112,38640,2,0,P|264:163|271:205,1,75,8|2,0:0|0:0,0:0:0:0:
184,247,39112,2,0,P|170:298|163:340,1,75,8|0,0:0|0:0,0:0:0:0:
268,289,39585,1,8,0:0:0:0:
268,184,39821,6,0,P|223:170|169:160,1,75,0|10,0:0|0:0,0:0:0:0:
91,154,40293,1,0,0:0:0:0:
177,91,40529,2,0,P|191:140|199:185,1,75,8|0,0:0|0:0,0:0:0:0:
263,83,41002,1,8,0:0:0:0:
156,20,41238,1,8,0:0:0:0:
100,121,41475,1,2,0:0:0:0:
274,4,41948,5,6,2:0:0:0:
341,83,42183,1,0,0:0:0:0:
436,40,42419,2,0,P|485:32|520:24,1,75,8|0,0:0|0:0,0:0:0:0:
491,130,42892,2,0,P|454:122|417:116,1,75,8|0,0:0|0:0,0:0:0:0:
312,105,43364,1,8,0:0:0:0:
368,193,43600,1,0,0:0:0:0:
263,181,43836,6,0,P|224:132|250:37,1,150,10|8,0:0|0:0,0:0:0:0:
119,224,44781,2,0,P|135:294|93:354,1,150,10|10,0:0|0:0,0:0:0:0:
29,270,45490,1,8,0:0:0:0:
53,167,45726,5,6,2:0:0:0:
116,83,45962,1,0,0:0:0:0:
213,122,46199,1,8,0:0:0:0:
37,84,46671,5,10,0:0:0:0:
100,0,46907,1,0,0:0:0:0:
197,39,47144,1,8,0:0:0:0:
296,6,47380,1,0,0:0:0:0:
374,76,47616,2,0,P|363:125|361:166,1,75,6|0,2:0|0:0,0:0:0:0:
437,221,48088,2,0,P|399:224|363:233,1,75,6|0,2:0|0:0,0:0:0:0:
265,196,48561,1,6,2:0:0:0:
265,196,49033,5,10,0:0:0:0:
284,93,49270,1,10,0:0:0:0:
197,39,49506,6,0,P|185:90|180:133,1,75,6|0,2:0|0:0,0:0:0:0:
92,104,49978,2,0,P|107:154|124:193,1,75,8|0,0:0|0:0,0:0:0:0:
33,213,50451,2,0,P|71:248|105:274,1,75,10|0,0:0|0:0,0:0:0:0:
30,331,50923,2,0,P|81:343|123:348,1,75,8|0,0:0|0:0,0:0:0:0:
191,330,51395,6,0,P|181:297|173:277,2,37.5,10|0|0,0:0|0:0|0:0,0:0:0:0:
292,356,51868,2,0,P|341:346|378:346,1,75,8|0,0:0|0:0,0:0:0:0:
466,374,52340,1,10,0:0:0:0:
420,279,52577,1,2,0:0:0:0:
478,191,52813,2,0,P|493:142|509:104,1,75,10|10,0:0|0:0,0:0:0:0:
401,93,53285,6,0,L|324:84,1,75,6|0,2:0|0:0,0:0:0:0:
273,157,53758,2,0,L|196:166,1,75,8|0,0:0|0:0,0:0:0:0:
198,75,54230,2,0,L|122:94,1,75,8|0,0:0|0:0,0:0:0:0:
72,167,54703,2,0,L|3:202,1,75,8|0,0:0|0:0,0:0:0:0:
42,86,55175,6,0,P|33:49|20:14,1,75,10|0,0:0|0:0,0:0:0:0:
125,93,55647,1,8,0:0:0:0:
88,191,55884,1,0,0:0:0:0:
190,170,56120,2,0,P|225:156|261:148,2,75,10|2|10,0:0|0:0|0:0,0:0:0:0:
153,268,56829,1,2,0:0:0:0:
173,370,57065,6,0,P|137:356|101:348,2,75,6|0|8,2:0|0:0|0:0,0:0:0:0:
326,274,58010,2,0,P|361:260|397:252,2,75,10|0|8,0:0|0:0|0:0,0:0:0:0:
326,274,58955,6,0,P|337:306|345:336,2,37.5,10|0|0,0:0|0:0|0:0,0:0:0:0:
284,177,59427,2,0,P|237:173|192:175,1,75,8|0,0:0|0:0,0:0:0:0:
105,189,59899,1,10,0:0:0:0:
0,198,60135,1,2,0:0:0:0:
47,102,60372,2,0,P|51:55|49:10,1,75,10|8,0:0|0:0,0:0:0:0:
155,18,60844,6,0,P|227:29|309:3,1,150,6|10,2:0|0:0,0:0:0:0:
374,204,61789,2,0,P|302:183|228:194,1,150,10|10,0:0|0:0,0:0:0:0:
421,278,62734,2,0,P|460:212|417:128,2,150,10|10|10,0:0|0:0|0:0,0:0:0:0:
421,278,64151,5,8,0:0:0:0:
341,320,64388,1,8,0:0:0:0:
247,273,64624,6,0,P|210:276|164:291,1,75,6|0,2:0|0:0,0:0:0:0:
78,242,65096,2,0,P|84:197|91:168,1,75,8|0,0:0|0:0,0:0:0:0:
174,99,65570,1,10,0:0:0:0:
174,99,66041,5,8,0:0:0:0:
270,58,66277,1,0,0:0:0:0:
356,118,66514,2,0,P|345:178|342:206,1,75,10|0,0:0|0:0,0:0:0:0:
374,292,66986,1,10,0:0:0:0:
458,230,67222,1,0,0:0:0:0:
450,125,67458,2,0,P|385:118|353:25,1,150,10|8,0:0|0:0,0:0:0:0:
247,79,68167,1,8,0:0:0:0:
236,183,68403,6,0,P|273:179|309:169,1,75,6|2,2:0|0:0,0:0:0:0:
368,265,68875,2,0,P|330:261|294:251,1,75,8|0,0:0|0:0,0:0:0:0:
398,182,69349,1,10,0:0:0:0:
483,374,69822,5,8,0:0:0:0:
394,358,70058,1,0,0:0:0:0:
304,349,70293,2,0,P|259:353|219:363,1,75,10|0,0:0|0:0,0:0:0:0:
207,256,70766,2,0,P|166:275|132:299,1,75,8|0,0:0|0:0,0:0:0:0:
71,370,71238,1,10,0:0:0:0:
24,164,71711,5,10,0:0:0:0:
95,109,71948,1,8,0:0:0:0:
194,142,72183,2,0,P|204:84|208:42,1,75,6|0,2:0|0:0,0:0:0:0:
287,1,72656,1,8,0:0:0:0:
371,64,72893,1,0,0:0:0:0:
296,136,73128,1,10,0:0:0:0:
296,136,73600,6,0,P|286:182|279:228,1,75,8|0,0:0|0:0,0:0:0:0:
361,277,74073,2,0,P|371:323|378:369,1,75,10|0,0:0|0:0,0:0:0:0:
458,245,74545,2,0,P|464:208|472:171,1,75,8|0,0:0|0:0,0:0:0:0:
509,72,75019,1,10,0:0:0:0:
509,72,75490,6,0,P|461:79|423:92,1,75,8|8,0:0|0:0,0:0:0:0:
332,106,75962,1,6,2:0:0:0:
229,80,76199,1,0,0:0:0:0:
260,180,76435,2,0,P|265:217|268:254,1,75,10|0,0:0|0:0,0:0:0:0:
197,331,76907,1,10,0:0:0:0:
119,259,77144,1,0,0:0:0:0:
185,179,77380,2,0,P|242:181|277:178,1,75,10|0,0:0|0:0,0:0:0:0:
360,150,77852,6,0,P|370:75|386:2,1,150,6|10,2:0|0:0,0:0:0:0:
290,45,78561,1,0,0:0:0:0:
251,142,78797,2,0,P|267:215|277:289,1,150,10|10,0:0|0:0,0:0:0:0:
184,338,79506,1,8,0:0:0:0:
93,284,79742,5,8,0:0:0:0:
179,225,79978,1,8,0:0:0:0:
85,177,80214,1,8,0:0:0:0:
171,118,80450,1,8,0:0:0:0:
49,34,80687,1,6,2:0:0:0:
303,302,83285,5,0,0:0:0:0:
303,302,83521,6,0,P|321:366|325:392,1,75,6|0,2:0|0:0,0:0:0:0:
369,255,83994,2,0,P|405:262|441:274,1,75,8|0,0:0|0:0,0:0:0:0:
364,172,84466,2,0,P|428:153|454:150,1,75,8|0,0:0|0:0,0:0:0:0:
317,106,84939,2,0,P|324:69|336:33,1,75,8|0,0:0|0:0,0:0:0:0:
439,10,85412,5,10,0:0:0:0:
320,183,85884,2,0,P|336:232|343:259,2,75,8|0|8,0:0|0:0|0:0,0:0:0:0:
243,111,86592,1,0,0:0:0:0:
169,186,86829,2,0,P|153:235|146:262,1,75,8|8,0:0|0:0,0:0:0:0:
67,326,87301,6,0,P|57:289|45:254,1,75,6|0,2:0|0:0,0:0:0:0:
96,163,87773,2,0,P|105:126|117:91,1,75,8|0,0:0|0:0,0:0:0:0:
194,19,88246,2,0,P|206:54|215:90,1,75,8|0,0:0|0:0,0:0:0:0:
236,194,88719,1,8,0:0:0:0:
310,267,88955,1,0,0:0:0:0:
335,166,89191,2,0,L|344:1,2,150,10|8|8,0:0|0:0|0:0,0:0:0:0:
410,365,90608,1,8,0:0:0:0:
312,321,90844,1,8,0:0:0:0:
209,302,91081,6,0,L|187:392,1,75,6|0,2:0|0:0,0:0:0:0:
143,255,91554,2,0,L|70:274,1,75,8|0,0:0|0:0,0:0:0:0:
148,172,92026,2,0,L|58:150,1,75,8|0,0:0|0:0,0:0:0:0:
195,106,92499,2,0,L|175:33,1,75,8|0,0:0|0:0,0:0:0:0:
73,10,92970,5,10,0:0:0:0:
192,183,93444,2,0,P|176:232|169:259,1,75,8|0,0:0|0:0,0:0:0:0:
281,308,93915,2,0,P|271:271|259:236,1,75,8|0,0:0|0:0,0:0:0:0:
364,183,94388,2,0,P|348:232|341:259,1,75,8|8,0:0|0:0,0:0:0:0:
270,331,94860,6,0,P|231:317|189:310,1,75,6|0,2:0|0:0,0:0:0:0:
95,333,95332,2,0,L|74:153,2,150,8|8|8,0:0|0:0|0:0,0:0:0:0:
216,160,96750,5,4,2:0:0:0:
56,125,100293,5,0,0:0:0:0:
56,125,100411,1,0,0:0:0:0:
56,125,100529,2,0,P|102:138|138:144,1,75,6|0,2:0|0:0,0:0:0:0:
233,133,101002,2,0,P|279:120|315:114,1,75,8|0,0:0|0:0,0:0:0:0:
409,132,101474,1,8,0:0:0:0:
429,234,101710,1,0,0:0:0:0:
342,294,101947,1,8,0:0:0:0:
241,263,102183,1,8,0:0:0:0:
241,263,102301,1,0,0:0:0:0:
241,263,102419,6,0,P|230:318|229:351,1,75,10|0,0:0|0:0,0:0:0:0:
134,290,102892,2,0,P|130:252|121:216,1,75,8|0,0:0|0:0,0:0:0:0:
66,126,103364,2,0,P|144:110|200:149,1,150,8|8,0:0|0:0,0:0:0:0:
219,250,104073,1,8,0:0:0:0:
121,216,104309,1,12,0:0:0:0:
437,65,107852,5,8,0:0:0:0:
427,169,108088,2,0,P|423:217|421:265,1,75,6|0,2:0|0:0,0:0:0:0:
446,346,108561,1,8,0:0:0:0:
446,346,109033,6,0,P|397:338|363:336,1,75,8|0,0:0|0:0,0:0:0:0:
271,368,109506,1,8,0:0:0:0:
186,305,109742,1,0,0:0:0:0:
252,223,109978,6,0,P|272:170|294:131,1,75,4|8,2:0|0:0,0:0:0:0:
166,68,110451,2,0,P|182:101|194:137,2,75,8|8|8,0:0|0:0|0:0,0:0:0:0:
68,29,111159,1,8,0:0:0:0:
83,190,111395,1,4,2:0:0:0:
