osu file format v14

[General]
AudioFilename: audio.mp3
AudioLeadIn: 0
PreviewTime: 83521
Countdown: 0
SampleSet: None
StackLeniency: 0.7
Mode: 0
LetterboxInBreaks: 0
WidescreenStoryboard: 0

[Editor]
DistanceSpacing: 1
BeatDivisor: 4
GridSize: 16
TimelineZoom: 1.1

[Metadata]
Title:Who Killed U.N.Owen
TitleUnicode:Who Killed U.N.Owen
Artist:Liz Triangle
ArtistUnicode:Liz Triangle
Creator:Zinreu
Version:Normal
Source:東方紅魔郷 ~ the Embodiment of Scarlet Devil.
Tags:東方Project lily-an Koumakyou~ Team Shanghai Alice cut version kaztora azuki B1 Reitaisai7 Touhou Koumakyou u.n. owen was her? extra boss theme U.N.オーエンは彼女なのか? ZUN flandre scarlet -light- wajinshu
BeatmapID:1672658
BeatmapSetID:796544

[Difficulty]
HPDrainRate:3
CircleSize:3.2
OverallDifficulty:4
ApproachRate:4
SliderMultiplier:1
SliderTickRate:1

[Events]
//Background and Video events
0,0,"1600x900_flandre_scarlet-998677.jpg",0,0
//Break Periods
2,80886,82201
2,104508,106532
//Storyboard Layer 0 (Background)
//Storyboard Layer 1 (Fail)
//Storyboard Layer 2 (Pass)
//Storyboard Layer 3 (Foreground)
//Storyboard Sound Samples

[TimingPoints]
19270,472.44094488189,4,3,1,60,1,0
34388,-100,4,3,1,60,0,0
83521,-100,4,3,1,60,0,1
96750,-100,4,3,1,60,0,0
109978,-100,4,3,1,60,0,0

[Colours]
Combo1 : 255,128,192
Combo2 : 0,255,255
Combo3 : 18,124,255
Combo4 : 128,0,255

[HitObjects]
59,214,19269,5,6,2:0:0:0:
175,51,20214,1,2,0:0:0:0:
293,211,21159,1,2,0:0:0:0:
177,374,22104,1,2,0:0:0:0:
187,174,23049,6,0,P|222:140|232:91,1,100,6|8,2:0|0:0,0:0:0:0:
332,79,23994,2,0,P|357:121|402:140,1,100,8|8,0:0|0:0,0:0:0:0:
355,229,24939,2,0,P|306:218|261:237,1,100,0|8,0:0|0:0,0:0:0:0:
165,210,25884,1,8,0:0:0:0:
135,114,26356,1,8,0:0:0:0:
208,45,26829,6,0,P|237:58|322:59,1,100,6|8,2:0|0:0,0:0:0:0:
369,138,27773,2,0,P|340:151|255:152,1,100,8|8,0:0|0:0,0:0:0:0:
207,231,28718,2,0,P|236:244|321:245,1,100,8|8,0:0|0:0,0:0:0:0:
367,325,29663,2,0,P|338:338|262:339,1,100,8|8,0:0|0:0,0:0:0:0:
179,300,30608,6,0,P|163:239|135:201,1,100,6|8,2:0|0:0,0:0:0:0:
214,138,31553,2,0,P|262:177|307:192,1,100,8|8,0:0|0:0,0:0:0:0:
371,257,32498,1,8,0:0:0:0:
436,181,32970,1,2,0:0:0:0:
382,96,33443,1,2,0:0:0:0:
334,80,33679,1,14,0:0:0:0:
285,67,33915,1,6,2:0:0:0:
192,28,34388,5,6,2:0:0:0:
142,30,34624,2,0,P|71:52|58:83,1,100,0|2,0:0|0:0,0:0:0:0:
58,120,35332,2,0,P|82:134|119:130,1,50,8|0,0:0|0:0,0:0:0:0:
148,112,35805,2,0,P|174:130|183:162,1,50,8|0,0:0|0:0,0:0:0:0:
195,194,36277,2,0,B|175:245|206:245|190:292,1,100,8|10,0:0|0:0,0:0:0:0:
92,312,37222,1,10,0:0:0:0:
164,380,37695,1,8,0:0:0:0:
255,336,38167,5,6,2:0:0:0:
302,350,38403,1,0,0:0:0:0:
348,330,38640,2,0,P|378:329|416:314,2,50,8|2|8,0:0|0:0|0:0,0:0:0:0:
334,230,39584,2,0,P|338:197|352:164,1,50,8|0,0:0|0:0,0:0:0:0:
377,144,40057,2,0,P|398:142|441:145,2,50,10|0|8,0:0|0:0|0:0,0:0:0:0:
277,157,41002,1,8,0:0:0:0:
227,164,41238,1,8,0:0:0:0:
177,173,41474,1,2,0:0:0:0:
96,234,41947,5,6,2:0:0:0:
97,283,42183,2,0,P|95:300|97:348,2,50,0|8|0,0:0|0:0|0:0,0:0:0:0:
142,260,42892,2,0,P|171:247|204:242,1,50,8|0,0:0|0:0,0:0:0:0:
231,217,43364,2,0,P|257:211|291:211,1,50,8|0,0:0|0:0,0:0:0:0:
330,210,43836,2,0,B|350:159|319:159|340:91,1,100,10|8,0:0|0:0,0:0:0:0:
433,127,44781,1,10,0:0:0:0:
427,226,45254,1,10,0:0:0:0:
402,322,45726,6,0,P|405:354|402:387,2,50,6|0|8,2:0|0:0|0:0,0:0:0:0:
348,237,46671,2,0,P|348:207|352:168,2,50,10|0|8,0:0|0:0|0:0,0:0:0:0:
313,273,47380,1,0,0:0:0:0:
268,251,47616,1,6,2:0:0:0:
251,152,48088,1,6,2:0:0:0:
165,204,48561,1,6,2:0:0:0:
48,41,49506,6,0,B|31:64|31:64|29:143,1,100,6|8,2:0|0:0,0:0:0:0:
96,210,50451,2,0,B|112:186|112:186|114:107,1,100,10|8,0:0|0:0,0:0:0:0:
193,55,51395,2,0,P|210:54|260:51,1,50,10|0,0:0|0:0,0:0:0:0:
285,78,51868,1,8,0:0:0:0:
289,177,52340,1,10,0:0:0:0:
289,277,52813,1,10,0:0:0:0:
355,351,53285,6,0,B|371:327|371:327|373:248,1,100,6|8,2:0|0:0,0:0:0:0:
307,182,54230,2,0,B|290:205|290:205|288:284,1,100,8|8,0:0|0:0,0:0:0:0:
201,324,55175,2,0,P|164:334|146:363,1,50,10|0,0:0|0:0,0:0:0:0:
112,318,55647,2,0,P|103:272|90:251,1,50,8|0,0:0|0:0,0:0:0:0:
79,224,56120,2,0,P|72:175|83:123,1,100,10|10,0:0|0:0,0:0:0:0:
167,177,57065,5,6,2:0:0:0:
216,177,57301,1,0,0:0:0:0:
265,180,57537,1,8,0:0:0:0:
314,266,58010,1,10,0:0:0:0:
289,309,58246,1,0,0:0:0:0:
267,353,58482,1,8,0:0:0:0:
166,353,58955,2,0,L|142:295,1,50,10|0,0:0|0:0,0:0:0:0:
124,261,59427,2,0,L|99:196,1,50,8|0,0:0|0:0,0:0:0:0:
86,168,59899,2,0,P|109:155|146:144,1,50,10|2,0:0|0:0,0:0:0:0:
179,135,60372,1,10,0:0:0:0:
266,86,60844,6,0,P|273:124|265:199,1,100,6|10,2:0|0:0,0:0:0:0:
185,233,61789,2,0,P|176:194|183:115,1,100,10|10,0:0|0:0,0:0:0:0:
266,86,62734,1,10,0:0:0:0:
362,112,63207,1,10,0:0:0:0:
406,201,63679,1,10,0:0:0:0:
326,262,64151,5,8,0:0:0:0:
308,309,64388,1,8,0:0:0:0:
286,354,64624,2,0,P|253:347|220:349,1,50,6|0,2:0|0:0,0:0:0:0:
195,319,65096,2,0,P|185:281|176:264,1,50,8|0,0:0|0:0,0:0:0:0:
141,239,65569,1,10,0:0:0:0:
95,150,66041,2,0,P|124:147|149:149,1,50,8|0,0:0|0:0,0:0:0:0:
188,173,66514,2,0,P|227:183|303:173,2,100,10|10|10,0:0|0:0|0:0,0:0:0:0:
373,98,68403,6,0,P|385:117|395:156,1,50,6|2,2:0|0:0,0:0:0:0:
399,192,68876,2,0,P|384:227|359:248,1,50,8|0,0:0|0:0,0:0:0:0:
333,263,69348,1,10,0:0:0:0:
236,238,69821,1,8,0:0:0:0:
235,287,70057,1,0,0:0:0:0:
235,336,70293,2,0,P|267:336|290:343,1,50,10|0,0:0|0:0,0:0:0:0:
324,312,70766,2,0,B|320:287|333:260|333:260,1,50,8|0,0:0|0:0,0:0:0:0:
372,234,71238,1,10,0:0:0:0:
311,154,71710,5,10,0:0:0:0:
294,106,71947,1,8,0:0:0:0:
276,59,72183,2,0,P|248:50|170:36,1,100,6|8,2:0|0:0,0:0:0:0:
146,74,72892,1,0,0:0:0:0:
124,118,73128,1,10,0:0:0:0:
163,210,73600,2,0,P|142:219|107:216,1,50,8|0,0:0|0:0,0:0:0:0:
78,252,74073,2,0,P|89:278|83:316,1,50,10|0,0:0|0:0,0:0:0:0:
120,338,74545,2,0,P|147:333|183:343,1,50,8|0,0:0|0:0,0:0:0:0:
219,336,75018,1,10,0:0:0:0:
318,325,75490,6,0,P|327:291|344:261,1,50,8|8,0:0|0:0,0:0:0:0:
363,237,75962,1,6,2:0:0:0:
409,148,76435,1,10,0:0:0:0:
331,85,76907,2,0,P|285:88|215:81,1,100,10|10,0:0|0:0,0:0:0:0:
193,116,77616,2,0,P|197:145|192:182,1,50,0|6,0:0|2:0,0:0:0:0:
45,163,78561,5,0,0:0:0:0:
35,212,78797,2,0,P|30:242|35:279,2,50,10|0|10,0:0|0:0|0:0,0:0:0:0:
132,236,79742,2,0,B|240:268|239:212|341:238,1,200,8|6,0:0|2:0,0:0:0:0:
272,304,83521,6,0,P|366:289|375:290,1,100,6|8,2:0|0:0,0:0:0:0:
375,189,84466,2,0,P|327:172|286:144,1,100,8|8,0:0|0:0,0:0:0:0:
253,50,85411,1,10,0:0:0:0:
172,109,85884,2,0,P|148:108|122:111,1,50,8|0,0:0|0:0,0:0:0:0:
77,133,86356,1,8,0:0:0:0:
145,205,86829,1,8,0:0:0:0:
128,303,87301,6,0,P|152:304|177:300,1,50,6|0,2:0|0:0,0:0:0:0:
213,265,87773,2,0,P|239:261|274:267,1,50,8|0,0:0|0:0,0:0:0:0:
301,294,88246,1,8,0:0:0:0:
376,228,88718,1,8,0:0:0:0:
337,135,89191,2,0,P|306:136|266:124,1,50,10|0,0:0|0:0,0:0:0:0:
258,92,89663,2,0,P|246:64|223:45,1,50,8|0,0:0|0:0,0:0:0:0:
182,58,90136,2,0,B|160:117|187:117|176:170,1,100,8|8,0:0|0:0,0:0:0:0:
181,255,91081,5,6,2:0:0:0:
268,302,91553,1,8,0:0:0:0:
358,259,92025,1,8,0:0:0:0:
361,158,92498,1,8,0:0:0:0:
318,67,92970,1,10,0:0:0:0:
239,128,93443,2,0,P|212:132|174:132,1,50,8|0,0:0|0:0,0:0:0:0:
139,126,93915,1,8,0:0:0:0:
81,207,94388,1,8,0:0:0:0:
133,291,94860,6,0,P|160:287|198:287,1,50,6|0,2:0|0:0,0:0:0:0:
230,299,95332,1,8,0:0:0:0:
301,369,95805,1,8,0:0:0:0:
371,298,96277,1,8,0:0:0:0:
256,192,96750,12,0,98167,0:0:0:0:
371,76,100293,6,0,P|377:100|376:146,1,50,0|6,0:0|2:0,0:0:0:0:
403,168,100766,2,0,P|403:193|412:231,1,50,0|8,0:0|0:0,0:0:0:0:
404,267,101238,1,0,0:0:0:0:
369,303,101474,2,0,P|346:292|321:288,1,50,8|0,0:0|0:0,0:0:0:0:
277,265,101946,1,8,0:0:0:0:
228,177,102419,6,0,L|166:168,1,50,10|0,0:0|0:0,0:0:0:0:
187,120,102892,2,0,L|127:102,1,50,8|0,0:0|0:0,0:0:0:0:
89,114,103364,2,0,B|32:92|32:92|60:175|58:248,1,200,8|12,0:0|0:0,0:0:0:0:
93,299,107852,5,8,0:0:0:0:
87,249,108088,2,0,P|113:238|140:233,1,50,6|0,2:0|0:0,0:0:0:0:
184,234,108561,1,8,0:0:0:0:
215,328,109033,2,0,P|241:339|268:344,1,50,8|0,0:0|0:0,0:0:0:0:
313,349,109506,1,8,0:0:0:0:
363,261,109978,5,4,2:0:0:0:
353,212,110214,1,8,0:0:0:0:
376,164,110451,2,0,P|379:134|366:102,1,50,8|8,0:0|0:0,0:0:0:0:
346,73,110923,1,8,0:0:0:0:
275,143,111395,1,4,2:0:0:0:
