osu file format v14

[General]
AudioFilename: audio.mp3
AudioLeadIn: 0
PreviewTime: 83521
Countdown: 0
SampleSet: None
StackLeniency: 0.7
Mode: 0
LetterboxInBreaks: 0
WidescreenStoryboard: 1

[Editor]
DistanceSpacing: 1
BeatDivisor: 4
GridSize: 16
TimelineZoom: 1.5

[Metadata]
Title:Who Killed U.N.Owen
TitleUnicode:Who Killed U.N.Owen
Artist:Liz Triangle
ArtistUnicode:Liz Triangle
Creator:Zinreu
Version:Light's Lunatic
Source:東方紅魔郷 ~ the Embodiment of Scarlet Devil.
Tags:東方Project lily-an Koumakyou~ Team Shanghai Alice cut version kaztora azuki B1 Reitaisai7 Touhou Koumakyou u.n. owen was her? extra boss theme U.N.オーエンは彼女なのか? ZUN flandre scarlet -light- wajinshu
BeatmapID:1672657
BeatmapSetID:796544

[Difficulty]
HPDrainRate:6
CircleSize:4
OverallDifficulty:7.5
ApproachRate:8
SliderMultiplier:1.85
SliderTickRate:1

[Events]
//Background and Video events
0,0,"1600x900_flandre_scarlet-998677.jpg",0,0
//Break Periods
2,81632,82535
//Storyboard Layer 0 (Background)
//Storyboard Layer 1 (Fail)
//Storyboard Layer 2 (Pass)
//Storyboard Layer 3 (Foreground)
//Storyboard Sound Samples

[TimingPoints]
19270,472.44094488189,4,3,1,60,1,0
19270,-142.857142857143,4,3,1,60,0,0
23049,-100,4,3,1,60,0,0
34388,-125,4,3,1,60,0,0
41474,-200,4,3,1,60,0,0
41829,-200,4,3,1,20,0,0
41947,-125,4,3,1,60,0,0
60844,-100,4,3,1,60,0,0
83521,-100,4,3,1,60,0,1
85766,-100,4,3,1,20,0,1
85884,-100,4,3,1,60,0,1
96632,-100,4,3,1,20,0,1
96750,-125,4,3,1,60,0,0
99584,-200,4,3,1,60,0,0
100293,-100,4,3,1,60,0,0
100529,-100,4,3,1,60,0,1
104309,-125,4,3,1,60,0,0
107144,-200,4,3,1,60,0,0
107852,-100,4,3,1,60,0,0
108088,-100,4,3,1,60,0,1
109978,-100,4,3,1,60,0,0
111632,-100,4,3,1,5,0,0

[Colours]
Combo1 : 255,128,192
Combo2 : 0,255,255
Combo3 : 18,124,255
Combo4 : 128,0,255

[HitObjects]
388,352,19269,5,6,2:0:0:0:
296,235,19742,2,0,P|290:267|294:303,1,64.7499980239869,2|2,0:0|0:0,0:0:0:0:
381,189,20214,1,2,0:0:0:0:
382,172,20332,1,0,0:0:0:0:
384,156,20451,1,0,0:0:0:0:
386,140,20569,1,0,0:0:0:0:
388,124,20687,1,2,0:0:0:0:
232,33,21159,5,2,0:0:0:0:
232,33,21277,1,0,0:0:0:0:
232,33,21395,2,0,L|235:108,1,64.7499980239869,2|2,0:0|0:0,0:0:0:0:
283,202,21868,1,0,0:0:0:0:
166,254,22104,6,0,L|168:189,1,64.7499980239869,2|2,0:0|0:0,0:0:0:0:
313,345,22577,1,2,0:0:0:0:
335,354,22695,1,0,0:0:0:0:
359,356,22813,1,0,0:0:0:0:
383,350,22931,1,0,0:0:0:0:
403,338,23049,6,0,P|422:287|403:229,1,92.5,6|0,2:0|0:0,0:0:0:0:
238,271,23521,2,0,L|335:262,1,92.5,8|0,0:0|0:0,0:0:0:0:
457,77,23994,2,0,P|406:58|348:77,1,92.5,8|0,0:0|0:0,0:0:0:0:
415,250,24466,2,0,L|406:153,1,92.5,8|0,0:0|0:0,0:0:0:0:
269,46,24939,5,0,0:0:0:0:
237,32,25057,1,0,0:0:0:0:
202,30,25175,1,0,0:0:0:0:
170,40,25293,1,0,0:0:0:0:
142,62,25411,1,8,0:0:0:0:
304,196,25647,1,0,0:0:0:0:
153,339,25884,5,8,0:0:0:0:
129,145,26120,1,8,0:0:0:0:
303,300,26356,1,8,0:0:0:0:
305,25,26592,1,8,0:0:0:0:
305,25,26710,1,0,0:0:0:0:
305,25,26829,6,0,L|295:128,1,92.5,6|0,2:0|0:0,0:0:0:0:
235,356,27301,2,0,P|216:313|229:264,1,92.5,8|0,0:0|0:0,0:0:0:0:
448,183,27773,2,0,B|416:193|416:193|354:185,1,92.5,8|0,0:0|0:0,0:0:0:0:
130,71,28246,2,0,B|162:61|162:61|224:69,1,92.5,8|0,0:0|0:0,0:0:0:0:
192,276,28718,6,0,P|173:239|180:181,1,92.5,8|0,0:0|0:0,0:0:0:0:
373,98,29191,2,0,P|377:143|357:184,1,92.5,8|0,0:0|0:0,0:0:0:0:
204,36,29663,1,8,0:0:0:0:
224,25,29781,1,0,0:0:0:0:
247,21,29899,1,0,0:0:0:0:
269,26,30017,1,0,0:0:0:0:
289,38,30136,1,8,0:0:0:0:
247,218,30372,1,8,0:0:0:0:
86,123,30608,6,0,L|186:115,1,92.5,6|0,2:0|0:0,0:0:0:0:
260,307,31081,2,0,L|167:299,1,92.5,8|0,0:0|0:0,0:0:0:0:
359,203,31553,2,0,P|367:246|347:303,1,92.5,8|0,0:0|0:0,0:0:0:0:
104,345,32025,2,0,P|90:301|98:255,1,92.5,8|0,0:0|0:0,0:0:0:0:
304,132,32498,5,8,0:0:0:0:
304,132,32616,1,0,0:0:0:0:
304,132,32734,1,2,0:0:0:0:
240,217,32970,1,2,0:0:0:0:
252,60,33207,1,2,0:0:0:0:
388,153,33443,1,2,0:0:0:0:
159,113,33679,5,14,0:0:0:0:
401,48,33915,2,0,L|397:147,1,92.5,6|0,2:0|0:0,0:0:0:0:
333,339,34388,5,6,2:0:0:0:
323,202,34624,1,0,0:0:0:0:
468,280,34860,2,0,L|384:266,1,74,8|2,0:0|0:0,0:0:0:0:
233,196,35332,2,0,L|305:183,1,74,8|0,0:0|0:0,0:0:0:0:
230,309,35805,1,8,0:0:0:0:
230,309,36041,1,0,0:0:0:0:
149,209,36277,6,0,B|158:115|123:155|136:60,1,148,8|10,0:0|0:0,0:0:0:0:
244,179,36986,1,0,0:0:0:0:
72,173,37222,2,0,L|-8:158,1,74,10|0,0:0|0:0,0:0:0:0:
207,92,37695,1,8,0:0:0:0:
136,240,37931,1,8,0:0:0:0:
127,44,38167,5,6,2:0:0:0:
201,177,38403,1,0,0:0:0:0:
248,13,38640,1,8,0:0:0:0:
101,119,38876,1,2,0:0:0:0:
101,119,38994,1,0,0:0:0:0:
101,119,39112,2,0,P|108:165|101:212,1,74,8|0,0:0|0:0,0:0:0:0:
208,341,39584,2,0,P|206:304|212:267,1,74,8|0,0:0|0:0,0:0:0:0:
299,98,40057,5,10,0:0:0:0:
303,299,40293,1,0,0:0:0:0:
400,133,40529,1,8,0:0:0:0:
397,326,40766,1,0,0:0:0:0:
229,163,41002,5,8,0:0:0:0:
465,241,41238,1,8,0:0:0:0:
273,370,41474,6,0,L|192:359,1,69.375,2|0,0:0|0:0,0:0:0:0:
166,378,41947,6,0,P|181:336|166:281,1,74,6|0,2:0|0:0,0:0:0:0:
57,162,42419,1,8,0:0:0:0:
84,329,42655,1,0,0:0:0:0:
149,139,42892,1,8,0:0:0:0:
9,237,43128,1,0,0:0:0:0:
160,278,43364,2,0,L|238:267,1,74,8|0,0:0|0:0,0:0:0:0:
400,143,43836,6,0,B|324:128|344:174|255:154,1,148,10|8,0:0|0:0,0:0:0:0:
121,89,44545,1,0,0:0:0:0:
273,15,44781,2,0,P|294:43|296:85,1,74,10|0,0:0|0:0,0:0:0:0:
150,209,45254,1,10,0:0:0:0:
183,21,45490,1,8,0:0:0:0:
264,177,45726,5,6,2:0:0:0:
55,148,45962,1,0,0:0:0:0:
223,88,46199,2,0,L|324:78,1,74,8|0,0:0|0:0,0:0:0:0:
164,236,46671,1,10,0:0:0:0:
117,51,46907,1,0,0:0:0:0:
253,186,47144,1,8,0:0:0:0:
269,12,47380,1,0,0:0:0:0:
150,142,47616,5,6,2:0:0:0:
355,103,47852,1,0,0:0:0:0:
232,300,48088,1,6,2:0:0:0:
212,68,48325,1,0,0:0:0:0:
393,249,48561,2,0,L|294:238,1,74,6|0,2:0|0:0,0:0:0:0:
177,180,49033,1,10,0:0:0:0:
258,376,49270,1,10,0:0:0:0:
323,115,49506,6,0,L|320:29,1,74,6|0,2:0|0:0,0:0:0:0:
160,171,49978,2,0,L|158:245,1,74,8|0,0:0|0:0,0:0:0:0:
332,102,50451,6,0,L|329:16,1,74,10|0,0:0|0:0,0:0:0:0:
150,186,50923,2,0,L|147:259,1,74,8|0,0:0|0:0,0:0:0:0:
228,104,51395,5,10,0:0:0:0:
228,104,51514,1,0,0:0:0:0:
228,104,51632,1,0,0:0:0:0:
51,200,51868,1,8,0:0:0:0:
234,272,52104,1,0,0:0:0:0:
82,112,52340,5,10,0:0:0:0:
124,318,52577,1,2,0:0:0:0:
298,159,52813,1,10,0:0:0:0:
37,188,53049,1,10,0:0:0:0:
245,287,53285,6,0,L|331:269,1,74,6|0,2:0|0:0,0:0:0:0:
194,140,53758,2,0,L|108:122,1,74,8|0,0:0|0:0,0:0:0:0:
258,296,54230,6,0,L|344:278,1,74,8|0,0:0|0:0,0:0:0:0:
186,123,54703,2,0,L|100:105,1,74,8|0,0:0|0:0,0:0:0:0:
301,199,55175,5,10,0:0:0:0:
209,21,55411,1,0,0:0:0:0:
165,218,55647,1,8,0:0:0:0:
305,60,55884,1,0,0:0:0:0:
258,296,56120,5,10,0:0:0:0:
206,109,56356,1,2,0:0:0:0:
410,27,56592,1,10,0:0:0:0:
462,214,56828,1,2,0:0:0:0:
288,200,57065,5,6,2:0:0:0:
440,113,57301,1,0,0:0:0:0:
283,46,57537,2,0,L|207:35,1,74,8|0,0:0|0:0,0:0:0:0:
207,217,58010,5,10,0:0:0:0:
359,130,58246,1,0,0:0:0:0:
202,63,58482,2,0,L|126:52,1,74,8|0,0:0|0:0,0:0:0:0:
297,200,58955,5,10,0:0:0:0:
297,200,59073,1,0,0:0:0:0:
297,200,59191,1,0,0:0:0:0:
202,63,59427,1,8,0:0:0:0:
195,230,59663,1,0,0:0:0:0:
336,95,59899,5,10,0:0:0:0:
294,337,60136,1,2,0:0:0:0:
142,142,60372,1,10,0:0:0:0:
384,252,60608,1,8,0:0:0:0:
141,338,60844,6,0,P|96:341|43:310,1,92.5,6|0,2:0|0:0,0:0:0:0:
280,159,61317,2,0,P|325:156|378:187,1,92.5,10|0,0:0|0:0,0:0:0:0:
115,250,61789,2,0,L|127:155,1,92.5,10|0,0:0|0:0,0:0:0:0:
305,263,62262,2,0,L|293:358,1,92.5,10|0,0:0|0:0,0:0:0:0:
144,163,62734,5,10,0:0:0:0:
352,92,62970,1,0,0:0:0:0:
122,150,63207,1,10,0:0:0:0:
321,244,63443,1,0,0:0:0:0:
280,16,63679,1,10,0:0:0:0:
280,16,64151,5,8,0:0:0:0:
219,227,64388,1,8,0:0:0:0:
87,69,64624,6,0,P|78:117|90:167,1,92.5,6|0,2:0|0:0,0:0:0:0:
310,224,65096,2,0,P|295:180|265:145,1,92.5,8|0,0:0|0:0,0:0:0:0:
278,349,65569,2,0,L|380:338,1,92.5,10|0,0:0|0:0,0:0:0:0:
219,227,66041,1,8,0:0:0:0:
126,373,66277,1,0,0:0:0:0:
18,184,66514,6,0,L|136:195,1,92.5,10|0,0:0|0:0,0:0:0:0:
304,29,66986,2,0,L|186:40,1,92.5,10|0,0:0|0:0,0:0:0:0:
382,262,67458,2,0,B|391:171|354:189|374:73,1,185,10|8,0:0|0:0,0:0:0:0:
470,227,68167,1,8,0:0:0:0:
262,116,68403,5,6,2:0:0:0:
293,338,68640,1,2,0:0:0:0:
362,137,68876,1,8,0:0:0:0:
216,299,69112,1,0,0:0:0:0:
204,55,69348,2,0,P|248:35|297:41,1,92.5,10|0,0:0|0:0,0:0:0:0:
278,222,69821,1,8,0:0:0:0:
85,163,70057,1,0,0:0:0:0:
262,116,70293,5,10,0:0:0:0:
110,299,70529,1,0,0:0:0:0:
138,78,70766,1,8,0:0:0:0:
278,222,71002,1,0,0:0:0:0:
96,319,71238,2,0,L|95:218,1,92.5,10|0,0:0|0:0,0:0:0:0:
262,99,71710,1,10,0:0:0:0:
227,359,71947,1,8,0:0:0:0:
151,147,72183,5,6,2:0:0:0:
355,245,72419,1,0,0:0:0:0:
142,130,72655,1,8,0:0:0:0:
221,371,72892,1,0,0:0:0:0:
262,130,73128,2,0,L|270:32,1,92.5,10|0,0:0|0:0,0:0:0:0:
189,226,73600,1,8,0:0:0:0:
398,143,73836,1,0,0:0:0:0:
327,360,74073,5,10,0:0:0:0:
262,130,74309,1,0,0:0:0:0:
336,374,74545,1,8,0:0:0:0:
388,129,74781,1,0,0:0:0:0:
224,307,75018,2,0,L|323:296,1,92.5,10|0,0:0|0:0,0:0:0:0:
172,144,75490,1,8,0:0:0:0:
146,367,75726,1,8,0:0:0:0:
291,193,75962,5,6,2:0:0:0:
73,267,76199,1,0,0:0:0:0:
303,201,76435,1,10,0:0:0:0:
92,96,76671,1,0,0:0:0:0:
229,279,76907,1,10,0:0:0:0:
263,45,77144,1,0,0:0:0:0:
118,217,77380,1,10,0:0:0:0:
345,270,77616,1,0,0:0:0:0:
184,74,77852,6,0,L|186:173,1,92.5,6|0,2:0|0:0,0:0:0:0:
294,362,78325,1,10,0:0:0:0:
340,143,78561,1,0,0:0:0:0:
154,302,78797,2,0,P|205:313|252:293,1,92.5,10|0,0:0|0:0,0:0:0:0:
300,61,79270,1,10,0:0:0:0:
115,204,79506,1,8,0:0:0:0:
325,224,79742,5,8,0:0:0:0:
103,58,79978,1,8,0:0:0:0:
185,372,80214,1,8,0:0:0:0:
289,73,80451,1,8,0:0:0:0:
19,236,80687,1,6,2:0:0:0:
141,143,83285,5,0,0:0:0:0:
250,32,83521,6,0,P|281:58|295:115,1,92.5,6|0,2:0|0:0,0:0:0:0:
99,219,83994,2,0,P|106:179|148:138,1,92.5,8|0,0:0|0:0,0:0:0:0:
276,353,84466,2,0,L|177:340,1,92.5,8|0,0:0|0:0,0:0:0:0:
328,189,84939,2,0,L|419:176,1,92.5,8|0,0:0|0:0,0:0:0:0:
247,307,85411,6,0,B|264:225|223:247|242:157,1,138.75,10|0,0:0|0:0,0:0:0:0:
265,136,85884,1,8,0:0:0:0:
155,279,86120,1,0,0:0:0:0:
88,42,86356,2,0,P|129:26|193:45,1,92.5,8|0,0:0|0:0,0:0:0:0:
247,218,86829,1,8,0:0:0:0:
71,154,87065,1,8,0:0:0:0:
267,35,87301,5,6,2:0:0:0:
248,309,87537,1,0,0:0:0:0:
143,105,87773,1,8,0:0:0:0:
106,375,88010,1,0,0:0:0:0:
251,167,88246,1,8,0:0:0:0:
33,273,88482,1,0,0:0:0:0:
33,273,88600,1,0,0:0:0:0:
33,273,88718,2,0,L|139:283,1,92.5,8|0,0:0|0:0,0:0:0:0:
351,174,89191,5,10,0:0:0:0:
124,196,89427,1,0,0:0:0:0:
363,164,89663,1,8,0:0:0:0:
184,361,89899,1,0,0:0:0:0:
282,97,90136,2,0,L|277:201,1,92.5,8|0,0:0|0:0,0:0:0:0:
344,347,90608,1,8,0:0:0:0:
119,279,90844,1,8,0:0:0:0:
305,259,91081,6,0,B|345:252|345:252|412:273,1,92.5,6|0,2:0|0:0,0:0:0:0:
184,361,91553,2,0,B|144:368|144:368|77:347,1,92.5,8|0,0:0|0:0,0:0:0:0:
195,139,92025,2,0,P|220:180|218:231,1,92.5,8|0,0:0|0:0,0:0:0:0:
114,56,92498,2,0,P|155:31|206:33,1,92.5,8|0,0:0|0:0,0:0:0:0:
388,191,92970,6,0,L|290:178,1,92.5,10|0,0:0|0:0,0:0:0:0:
444,78,93443,1,8,0:0:0:0:
388,294,93679,1,0,0:0:0:0:
291,23,93915,2,0,P|329:36|372:83,1,92.5,8|0,0:0|0:0,0:0:0:0:
252,268,94388,1,8,0:0:0:0:
285,107,94624,1,8,0:0:0:0:
351,214,94860,5,6,2:0:0:0:
122,272,95096,1,0,0:0:0:0:
220,76,95332,1,8,0:0:0:0:
205,332,95569,1,0,0:0:0:0:
83,84,95805,1,8,0:0:0:0:
345,227,96041,1,0,0:0:0:0:
345,227,96159,1,0,0:0:0:0:
345,227,96277,2,0,B|266:201|289:262|190:237,1,138.75,8|0,0:0|0:0,0:0:0:0:
184,217,96750,5,4,2:0:0:0:
73,139,96986,1,8,0:0:0:0:
102,305,97222,1,8,0:0:0:0:
177,135,97458,1,8,0:0:0:0:
177,135,97577,1,8,0:0:0:0:
222,291,97813,1,8,0:0:0:0:
222,291,97931,1,8,0:0:0:0:
288,145,98167,2,0,L|294:63,1,74,0|0,0:0|0:0,0:0:0:0:
357,245,98640,5,8,0:0:0:0:
168,210,98876,1,8,0:0:0:0:
278,382,99112,1,8,0:0:0:0:
288,145,99348,1,8,0:0:0:0:
194,309,99584,6,0,L|295:301,1,92.5,2|0,0:0|0:0,0:0:0:0:
167,211,100293,1,0,0:0:0:0:
167,211,100411,1,0,0:0:0:0:
167,211,100529,5,6,2:0:0:0:
80,384,100766,1,0,0:0:0:0:
66,128,101002,1,8,0:0:0:0:
194,309,101238,1,0,0:0:0:0:
216,43,101474,1,8,0:0:0:0:
58,231,101710,1,0,0:0:0:0:
299,166,101947,1,8,0:0:0:0:
96,32,102183,1,8,0:0:0:0:
96,32,102301,1,0,0:0:0:0:
96,32,102419,5,10,0:0:0:0:
114,301,102655,1,0,0:0:0:0:
220,92,102892,1,8,0:0:0:0:
286,319,103128,1,0,0:0:0:0:
408,129,103364,2,0,L|308:122,1,92.5,8|0,0:0|0:0,0:0:0:0:
407,280,103836,1,8,0:0:0:0:
443,56,104073,1,8,0:0:0:0:
284,198,104309,5,12,0:0:0:0:
424,141,104545,1,8,0:0:0:0:
296,49,104781,1,8,0:0:0:0:
264,209,105018,1,8,0:0:0:0:
264,209,105136,1,8,0:0:0:0:
167,79,105372,1,8,0:0:0:0:
167,79,105490,1,8,0:0:0:0:
80,225,105726,2,0,L|157:215,1,74,8|0,0:0|0:0,0:0:0:0:
15,152,106199,5,8,0:0:0:0:
62,306,106435,1,8,0:0:0:0:
160,129,106671,1,0,0:0:0:0:
157,110,106789,1,0,0:0:0:0:
155,92,106907,1,0,0:0:0:0:
152,73,107025,1,0,0:0:0:0:
150,55,107144,6,0,P|188:43|245:60,1,92.5,2|0,0:0|0:0,0:0:0:0:
305,203,107852,1,8,0:0:0:0:
103,171,108088,5,6,2:0:0:0:
344,114,108325,1,0,0:0:0:0:
211,314,108561,2,0,L|115:301,1,92.5,8|0,0:0|0:0,0:0:0:0:
338,124,109033,1,8,0:0:0:0:
274,375,109270,1,0,0:0:0:0:
198,174,109506,1,8,0:0:0:0:
398,314,109742,1,0,0:0:0:0:
398,314,109860,1,0,0:0:0:0:
398,314,109978,5,4,2:0:0:0:
248,76,110214,1,8,0:0:0:0:
285,354,110451,1,8,0:0:0:0:
385,72,110687,1,8,0:0:0:0:
174,267,110923,5,8,0:0:0:0:
450,168,111159,1,8,0:0:0:0:
157,9,111395,2,0,L|161:119,1,92.5,4|0,2:0|0:0,0:0:0:0:
