osu file format v14

[General]
AudioFilename: audio.mp3
AudioLeadIn: 0
PreviewTime: 83521
Countdown: 0
SampleSet: None
StackLeniency: 0.7
Mode: 0
LetterboxInBreaks: 0
WidescreenStoryboard: 1

[Editor]
Bookmarks: 84939
DistanceSpacing: 1.6
BeatDivisor: 4
GridSize: 16
TimelineZoom: 1.4

[Metadata]
Title:Who Killed U.N.Owen
TitleUnicode:Who Killed U.N.Owen
Artist:Liz Triangle
ArtistUnicode:Liz Triangle
Creator:Zinreu
Version:Light Insane
Source:東方紅魔郷 ~ the Embodiment of Scarlet Devil.
Tags:東方Project lily-an Koumakyou~ Team Shanghai Alice cut version kaztora azuki B1 Reitaisai7 Touhou Koumakyou u.n. owen was her? extra boss theme U.N.オーエンは彼女なのか? ZUN flandre scarlet -light- wajinshu
BeatmapID:1672656
BeatmapSetID:796544

[Difficulty]
HPDrainRate:5
CircleSize:4
OverallDifficulty:7
ApproachRate:7.5
SliderMultiplier:1.4
SliderTickRate:1

[Events]
//Background and Video events
0,0,"1600x900_flandre_scarlet-998677.jpg",0,0
//Break Periods
//Storyboard Layer 0 (Background)
//Storyboard Layer 1 (Fail)
//Storyboard Layer 2 (Pass)
//Storyboard Layer 3 (Foreground)
//Storyboard Sound Samples

[TimingPoints]
19270,472.44094488189,4,3,1,60,1,0
23048,-100,4,3,1,60,0,0
23049,-100,4,3,1,60,0,0
32616,-100,4,3,1,40,0,0
33679,-100,4,3,1,60,0,0
41474,-133.333333333333,4,3,1,20,0,0
41947,-100,4,3,1,60,0,0
60844,-100,4,3,1,60,0,0
81632,-100,4,3,1,20,0,0
83049,-100,4,3,1,31,0,0
83521,-83.3333333333333,4,3,1,60,0,1
96750,-100,4,3,1,60,0,0
99584,-100,4,3,1,20,0,0
100293,-100,4,3,1,60,0,0
100529,-100,4,3,1,60,0,1
104309,-100,4,3,1,60,0,0
106671,-100,4,3,1,40,0,0
107144,-100,4,3,1,20,0,0
107852,-100,4,3,1,60,0,0
108088,-100,4,3,1,60,0,1
109978,-100,4,3,1,60,0,0
111632,-100,4,3,1,5,0,0

[Colours]
Combo1 : 255,128,192
Combo2 : 0,255,255
Combo3 : 18,124,255
Combo4 : 128,0,255

[HitObjects]
74,81,23049,6,0,B|63:105|76:179,1,70,6|0,2:0|0:0,0:0:0:0:
117,251,23521,1,8,0:0:0:0:
207,318,23758,1,0,0:0:0:0:
331,332,23994,6,0,B|343:305|329:234,1,70,8|0,0:0|0:0,0:0:0:0:
282,163,24466,1,8,0:0:0:0:
190,98,24703,1,0,0:0:0:0:
85,97,24939,2,0,P|66:95|30:100,4,35,0|0|0|0|8,0:0|0:0|0:0|0:0|0:0,0:0:0:0:
195,42,25647,5,0,0:0:0:0:
308,116,25884,2,0,P|338:103|388:96,1,70,8|8,0:0|0:0,0:0:0:0:
465,200,26356,2,0,P|436:217|378:226,1,70,8|8,0:0|0:0,0:0:0:0:
234,180,26829,5,6,2:0:0:0:
57,282,27301,1,8,0:0:0:0:
282,355,27773,1,8,0:0:0:0:
151,182,28246,1,8,0:0:0:0:
366,79,28718,5,8,0:0:0:0:
259,292,29191,1,8,0:0:0:0:
409,231,29663,1,8,0:0:0:0:
228,128,30136,1,8,0:0:0:0:
338,346,30608,5,6,2:0:0:0:
333,154,31080,1,8,0:0:0:0:
184,342,31553,1,8,0:0:0:0:
375,288,32025,1,8,0:0:0:0:
259,324,32498,5,8,0:0:0:0:
259,324,32616,1,0,0:0:0:0:
259,324,32734,1,2,0:0:0:0:
148,276,32970,1,2,0:0:0:0:
190,161,33207,1,2,0:0:0:0:
303,213,33443,1,2,0:0:0:0:
184,342,33679,5,14,0:0:0:0:
77,112,33915,1,6,2:0:0:0:
432,151,34388,5,6,2:0:0:0:
283,28,34624,1,0,0:0:0:0:
325,159,34860,2,0,P|308:192|300:227,1,70,8|2,0:0|0:0,0:0:0:0:
277,339,35332,1,8,0:0:0:0:
169,298,35569,1,0,0:0:0:0:
93,211,35805,2,0,P|83:171|84:132,1,70,8|0,0:0|0:0,0:0:0:0:
188,157,36277,6,0,B|254:178|255:140|329:160,1,140,8|10,0:0|0:0,0:0:0:0:
462,243,36986,1,0,0:0:0:0:
289,260,37222,1,10,0:0:0:0:
369,87,37458,1,0,0:0:0:0:
373,257,37695,5,8,0:0:0:0:
375,296,37931,5,8,0:0:0:0:
360,332,38167,5,6,2:0:0:0:
266,278,38403,1,0,0:0:0:0:
155,262,38640,2,0,P|157:216|145:183,1,70,8|2,0:0|0:0,0:0:0:0:
120,65,39112,2,0,P|112:101|123:159,2,70,8|0|8,0:0|0:0|0:0,0:0:0:0:
249,105,39821,5,0,0:0:0:0:
353,42,40057,2,0,L|429:51,1,70,10|0,0:0|0:0,0:0:0:0:
499,184,40529,2,0,L|407:197,1,70,8|0,0:0|0:0,0:0:0:0:
351,335,41002,1,8,0:0:0:0:
253,157,41238,1,8,0:0:0:0:
133,329,41474,6,0,P|76:333|15:359,1,105.000004005432,2|6,0:0|2:0,0:0:0:0:
157,190,42183,5,0,0:0:0:0:
36,159,42419,1,8,0:0:0:0:
84,43,42655,1,0,0:0:0:0:
208,64,42892,2,0,P|245:68|293:58,1,70,8|0,0:0|0:0,0:0:0:0:
374,161,43364,2,0,P|337:157|289:167,1,70,8|0,0:0|0:0,0:0:0:0:
150,142,43836,2,0,B|157:194|157:194|152:228|152:228|161:290,1,140,10|8,0:0|0:0,0:0:0:0:
181,384,44545,1,0,0:0:0:0:
281,226,44781,6,0,P|288:192|304:160,1,70,10|0,0:0|0:0,0:0:0:0:
359,40,45254,1,10,0:0:0:0:
464,114,45490,1,8,0:0:0:0:
428,269,45726,6,0,P|404:233|350:210,1,70,6|0,2:0|0:0,0:0:0:0:
233,248,46199,1,8,0:0:0:0:
20,71,46671,6,0,P|44:107|98:130,1,70,10|0,0:0|0:0,0:0:0:0:
248,157,47144,2,0,P|224:121|170:98,1,70,8|0,0:0|0:0,0:0:0:0:
103,54,47616,5,6,2:0:0:0:
150,158,47852,1,0,0:0:0:0:
95,257,48088,1,6,2:0:0:0:
165,345,48325,1,0,0:0:0:0:
357,371,48561,5,6,2:0:0:0:
272,279,48797,1,0,0:0:0:0:
364,194,49033,1,10,0:0:0:0:
450,282,49270,1,10,0:0:0:0:
450,110,49506,5,6,2:0:0:0:
272,279,49978,1,8,0:0:0:0:
155,68,50451,1,10,0:0:0:0:
364,194,50923,1,8,0:0:0:0:
107,317,51395,5,10,0:0:0:0:
103,295,51514,1,0,0:0:0:0:
108,274,51632,1,0,0:0:0:0:
251,285,51868,1,8,0:0:0:0:
111,143,52104,1,0,0:0:0:0:
276,140,52340,6,0,P|279:73|284:61,1,70,10|2,0:0|0:0,0:0:0:0:
417,143,52813,2,0,P|414:210|409:222,1,70,10|10,0:0|0:0,0:0:0:0:
252,320,53285,5,6,2:0:0:0:
112,114,53758,1,8,0:0:0:0:
327,236,54230,1,8,0:0:0:0:
85,266,54702,1,8,0:0:0:0:
276,91,55175,6,0,P|303:90|365:98,1,70,10|0,0:0|0:0,0:0:0:0:
404,219,55647,1,8,0:0:0:0:
302,302,55884,1,0,0:0:0:0:
141,301,56120,5,10,0:0:0:0:
83,181,56356,1,2,0:0:0:0:
148,60,56592,2,0,P|174:54|236:52,1,70,10|2,0:0|0:0,0:0:0:0:
383,61,57065,5,6,2:0:0:0:
458,78,57301,1,0,0:0:0:0:
407,136,57537,1,8,0:0:0:0:
185,324,58010,5,10,0:0:0:0:
110,307,58246,1,0,0:0:0:0:
161,249,58482,1,8,0:0:0:0:
225,63,58955,5,10,0:0:0:0:
226,85,59073,1,0,0:0:0:0:
231,106,59191,1,0,0:0:0:0:
361,82,59427,1,8,0:0:0:0:
239,232,59663,1,0,0:0:0:0:
390,215,59899,6,0,P|457:214|469:218,1,70,10|2,0:0|0:0,0:0:0:0:
397,338,60372,2,0,P|329:338|317:334,1,70,10|8,0:0|0:0,0:0:0:0:
143,278,60844,5,6,2:0:0:0:
131,76,61317,1,10,0:0:0:0:
331,134,61789,1,10,0:0:0:0:
328,337,62262,1,10,0:0:0:0:
203,344,62734,5,10,0:0:0:0:
287,268,62970,1,0,0:0:0:0:
189,209,63207,1,10,0:0:0:0:
284,147,63443,1,0,0:0:0:0:
202,69,63679,2,0,P|169:65|125:72,1,70,10|0,0:0|0:0,0:0:0:0:
72,179,64151,5,8,0:0:0:0:
67,219,64388,5,8,0:0:0:0:
75,259,64624,6,0,P|108:263|152:256,1,70,6|0,2:0|0:0,0:0:0:0:
240,192,65096,1,8,0:0:0:0:
159,110,65332,1,0,0:0:0:0:
246,36,65569,1,10,0:0:0:0:
433,202,66041,5,8,0:0:0:0:
342,377,66277,1,0,0:0:0:0:
388,290,66514,2,0,P|349:279|304:284,1,70,10|0,0:0|0:0,0:0:0:0:
119,213,66986,2,0,P|158:224|203:219,1,70,10|0,0:0|0:0,0:0:0:0:
254,321,67458,2,0,B|234:241|274:271|253:164,1,140,10|8,0:0|0:0,0:0:0:0:
254,41,68167,1,8,0:0:0:0:
93,134,68403,6,0,P|65:170|64:221,1,70,6|2,2:0|0:0,0:0:0:0:
217,239,68876,2,0,P|242:214|255:182,1,70,8|0,0:0|0:0,0:0:0:0:
350,51,69348,2,0,P|380:90|381:167,1,105,10|0,0:0|0:0,0:0:0:0:
390,174,69821,5,8,0:0:0:0:
323,305,70057,1,0,0:0:0:0:
255,182,70293,2,0,P|251:145|232:103,1,70,10|0,0:0|0:0,0:0:0:0:
102,83,70766,1,8,0:0:0:0:
54,193,71002,1,0,0:0:0:0:
147,277,71238,2,0,P|151:314|170:356,1,70,10|0,0:0|0:0,0:0:0:0:
345,254,71710,5,10,0:0:0:0:
377,283,71947,5,8,0:0:0:0:
420,286,72183,6,0,P|426:239|441:204,1,70,6|0,2:0|0:0,0:0:0:0:
358,155,72655,2,0,P|318:181|283:194,2,70,8|0|10,0:0|0:0|0:0,0:0:0:0:
167,70,73600,6,0,L|68:54,1,70,8|0,0:0|0:0,0:0:0:0:
48,208,74073,2,0,L|146:189,1,70,10|0,0:0|0:0,0:0:0:0:
312,152,74545,1,8,0:0:0:0:
182,314,74781,1,0,0:0:0:0:
217,135,75018,2,0,P|230:98|254:66,1,70,10|0,0:0|0:0,0:0:0:0:
401,100,75490,6,0,L|411:207,1,105,8|0,0:0|0:0,0:0:0:0:
412,225,75962,1,6,2:0:0:0:
266,350,76199,1,0,0:0:0:0:
263,182,76435,1,10,0:0:0:0:
344,286,76671,1,0,0:0:0:0:
181,287,76907,2,0,P|181:322|168:370,2,70,10|0|10,0:0|0:0|0:0,0:0:0:0:
174,154,77616,5,0,0:0:0:0:
105,44,77852,1,6,2:0:0:0:
417,42,78325,5,0,0:0:0:0:
263,87,78561,1,10,0:0:0:0:
368,188,78797,2,0,P|366:224|378:273,1,70,10|0,0:0|0:0,0:0:0:0:
270,329,79270,2,0,P|242:305|200:292,1,70,10|8,0:0|0:0,0:0:0:0:
256,192,79742,12,6,80687,2:0:0:0:
224,192,81632,5,0,0:0:0:0:
256,160,81868,1,0,0:0:0:0:
288,192,82104,1,0,0:0:0:0:
256,224,82340,1,0,0:0:0:0:
224,256,82577,5,0,0:0:0:0:
256,288,82813,1,0,0:0:0:0:
288,256,83049,1,0,0:0:0:0:
321,104,83285,5,0,0:0:0:0:
433,75,83521,6,0,L|428:193,1,83.9999974365235,6|0,2:0|0:0,0:0:0:0:
288,256,83994,2,0,L|282:166,1,83.9999974365235,8|0,0:0|0:0,0:0:0:0:
187,60,84466,2,0,P|154:87|96:107,1,83.9999974365235,8|0,0:0|0:0,0:0:0:0:
92,269,84939,2,0,P|124:241|182:221,1,83.9999974365235,8|0,0:0|0:0,0:0:0:0:
292,327,85411,6,0,P|281:285|212:206,1,125.999996154785,10|0,0:0|0:0,0:0:0:0:
191,183,85884,1,8,0:0:0:0:
110,84,86120,1,0,0:0:0:0:
263,39,86356,2,0,P|299:30|348:-12,1,83.9999974365235,8|0,0:0|0:0,0:0:0:0:
374,120,86829,1,8,0:0:0:0:
306,221,87065,1,8,0:0:0:0:
207,344,87301,6,0,P|236:334|312:323,1,83.9999974365235,6|0,2:0|0:0,0:0:0:0:
232,219,87773,1,8,0:0:0:0:
217,88,88010,1,0,0:0:0:0:
112,169,88246,2,0,P|83:179|7:190,1,83.9999974365235,8|0,0:0|0:0,0:0:0:0:
28,213,88600,1,0,0:0:0:0:
30,236,88718,1,8,0:0:0:0:
170,224,88955,5,0,0:0:0:0:
217,88,89191,2,0,P|251:70|305:56,1,83.9999974365235,10|0,0:0|0:0,0:0:0:0:
467,207,89663,2,0,P|427:195|390:177,1,83.9999974365235,8|0,0:0|0:0,0:0:0:0:
371,43,90136,2,0,B|375:130|307:101|313:209,1,167.999994873047,8|8,0:0|0:0,0:0:0:0:
335,306,90844,1,8,0:0:0:0:
193,256,91081,6,0,P|171:180|149:151,1,83.9999974365235,6|0,2:0|0:0,0:0:0:0:
78,116,91553,2,0,P|144:63|163:62,1,83.9999974365235,8|0,0:0|0:0,0:0:0:0:
262,42,92025,2,0,P|301:38|356:2,1,83.9999974365235,8|0,0:0|0:0,0:0:0:0:
436,101,92498,2,0,P|409:132|395:173,1,83.9999974365235,8|0,0:0|0:0,0:0:0:0:
385,350,92970,6,0,B|327:322|241:321,1,125.999996154785,10|0,0:0|0:0,0:0:0:0:
217,319,93443,1,8,0:0:0:0:
112,254,93679,1,0,0:0:0:0:
118,103,93915,2,0,P|108:62|82:20,1,83.9999974365235,8|0,0:0|0:0,0:0:0:0:
112,254,94388,2,0,P|82:283|37:303,1,83.9999974365235,8|8,0:0|0:0,0:0:0:0:
225,187,94860,6,0,P|265:176|314:181,1,83.9999974365235,6|0,2:0|0:0,0:0:0:0:
268,301,95332,1,8,0:0:0:0:
146,231,95569,2,0,P|140:183|155:135,1,83.9999974365235,0|8,0:0|0:0,0:0:0:0:
166,132,95923,1,0,0:0:0:0:
189,121,96041,1,0,0:0:0:0:
323,90,96277,2,0,P|329:138|314:186,1,83.9999974365235,8|0,0:0|0:0,0:0:0:0:
386,326,96750,5,4,2:0:0:0:
320,172,96986,1,8,0:0:0:0:
243,320,97222,1,8,0:0:0:0:
164,178,97458,1,8,0:0:0:0:
164,178,97577,1,8,0:0:0:0:
92,327,97813,1,8,0:0:0:0:
92,327,97931,1,8,0:0:0:0:
27,175,98167,2,0,L|14:86,1,70,0|0,0:0|0:0,0:0:0:0:
228,47,98640,6,0,P|266:49|315:57,1,70,8|8,0:0|0:0,0:0:0:0:
455,147,99112,2,0,P|417:155|368:157,1,70,8|8,0:0|0:0,0:0:0:0:
293,269,99584,2,0,B|318:188|281:190|297:114,1,140,2|0,0:0|0:0,0:0:0:0:
84,128,100293,6,0,P|89:162|82:196,1,70,0|6,0:0|2:0,0:0:0:0:
224,306,100766,2,0,P|217:271|223:237,1,70,0|8,0:0|0:0,0:0:0:0:
210,109,101238,5,0,0:0:0:0:
289,29,101474,1,8,0:0:0:0:
387,81,101710,1,0,0:0:0:0:
404,191,101947,2,0,P|439:193|492:208,1,70,8|8,0:0|0:0,0:0:0:0:
480,222,102301,5,0,0:0:0:0:
488,244,102419,1,10,0:0:0:0:
388,307,102655,1,0,0:0:0:0:
292,239,102892,2,0,P|257:244|223:238,1,70,8|0,0:0|0:0,0:0:0:0:
138,57,103364,6,0,B|170:125|132:189|132:189|101:255|140:320,1,245,8|0,0:0|0:0,0:0:0:0:
139,299,104309,5,12,0:0:0:0:
226,161,104545,1,8,0:0:0:0:
286,312,104781,1,8,0:0:0:0:
355,165,105018,1,8,0:0:0:0:
355,165,105136,1,8,0:0:0:0:
423,319,105372,1,8,0:0:0:0:
423,319,105490,1,8,0:0:0:0:
487,169,105726,2,0,L|511:96,1,70,8|0,0:0|0:0,0:0:0:0:
323,49,106199,6,0,P|293:68|261:80,1,70,8|8,0:0|0:0,0:0:0:0:
38,123,106671,2,0,P|68:144|99:156,1,70,0|0,0:0|0:0,0:0:0:0:
176,54,107143,2,0,B|161:124|208:124|175:219,1,140,2|0,0:0|0:0,0:0:0:0:
421,78,107852,5,8,0:0:0:0:
305,195,108088,2,0,P|273:160|225:140,1,70,6|0,2:0|0:0,0:0:0:0:
85,91,108561,1,8,0:0:0:0:
120,353,109033,6,0,P|141:310|183:279,1,70,8|0,0:0|0:0,0:0:0:0:
305,195,109506,1,8,0:0:0:0:
139,76,109978,5,4,2:0:0:0:
113,235,110214,1,8,0:0:0:0:
234,171,110451,1,8,0:0:0:0:
31,134,110687,1,8,0:0:0:0:
227,271,110923,5,8,0:0:0:0:
238,42,111159,1,8,0:0:0:0:
426,145,111395,2,0,P|449:163|472:200,1,70,4|0,2:0|0:0,0:0:0:0:
