osu file format v14

[General]
AudioFilename: audio.mp3
AudioLeadIn: 0
PreviewTime: 81514
Countdown: 0
SampleSet: Soft
StackLeniency: 0.3
Mode: 0
LetterboxInBreaks: 0
WidescreenStoryboard: 0

[Editor]
Bookmarks: 19269,34388,49506,64624
DistanceSpacing: 1.3
BeatDivisor: 12
GridSize: 4
TimelineZoom: 2.1

[Metadata]
Title:Who Killed U.N.Owen
TitleUnicode:Who Killed U.N.Owen
Artist:Liz Triangle
ArtistUnicode:Liz Triangle
Creator:Blitzifyyy
Version:Stormi's Hard
Source:東方紅魔郷 ~ the Embodiment of Scarlet Devil.
Tags:zan1to baar_vendel stormiverse 東方Project lily-an Koumakyou~ Team Shanghai Alice cut version kaztora azuki B1 Reitaisai7 Touhou Koumakyou u.n. owen was her? extra boss theme U.N.オーエンは彼女なのか? ZUN flandre scarlet japanese videogame
BeatmapID:2127692
BeatmapSetID:1016586

[Difficulty]
HPDrainRate:5
CircleSize:4
OverallDifficulty:6
ApproachRate:7
SliderMultiplier:1.5
SliderTickRate:1

[Events]
//Background and Video events
0,0,"thumb-1920-875142-min.png",0,0
//Break Periods
//Storyboard Layer 0 (Background)
//Storyboard Layer 1 (Fail)
//Storyboard Layer 2 (Pass)
//Storyboard Layer 3 (Foreground)
//Storyboard Layer 4 (Overlay)
//Storyboard Sound Samples

[TimingPoints]
19272,472.44094488189,4,2,1,50,1,0
19272,-105.263157894737,4,2,1,50,0,0
23051,-100,4,2,1,60,0,0
26831,-95.2380952380952,4,2,1,60,0,0
32500,-95.2380952380952,4,2,1,50,0,0
33917,-95.2380952380952,4,2,1,60,0,0
34390,-100,4,2,1,50,0,0
49508,-100,4,2,1,45,0,0
51397,-100,4,2,1,50,0,0
53287,-100,4,2,1,45,0,0
55177,-100,4,2,1,50,0,0
57067,-100,4,2,1,45,0,0
58957,-100,4,2,1,50,0,0
64626,-95.2380952380952,4,2,1,55,0,0
72185,-95.2380952380952,4,2,1,60,0,0
83523,-90.9090909090909,4,2,1,70,0,1
96752,-100,4,2,1,55,0,0
100295,-90.9090909090909,4,2,1,70,0,1
104311,-100,4,2,1,55,0,0
108090,-90.9090909090909,4,2,1,70,0,1
111397,-100,4,2,1,60,0,0

[Colours]
Combo1 : 206,206,206
Combo2 : 251,255,164
Combo3 : 251,79,83
Combo4 : 242,146,104

[HitObjects]
120,16,19272,6,0,P|191:16|261:28,1,142.49999619484,2|2,0:0|0:0,0:0:0:0:
345,67,19980,1,2,0:0:0:0:
421,14,20216,2,0,L|417:-32,6,23.7499993658066,2|2|2|2|2|2|2,0:0|0:0|0:0|0:0|0:0|0:0|0:0,0:0:0:0:
473,198,21161,5,2,0:0:0:0:
473,198,21279,1,2,0:0:0:0:
473,198,21397,2,0,P|437:198|402:204,2,71.2499980974198,2|2|2,0:0|0:0|0:0,0:0:0:0:
481,290,22106,2,0,P|446:296|410:296,1,71.2499980974198,2|2,0:0|0:0,0:0:0:0:
372,322,22460,1,0,0:0:0:0:
372,322,22579,2,0,P|354:319|337:319,3,35.6249990487099,2|2|2|0,0:0|0:0|0:0|0:0,0:0:0:0:
284,286,23051,6,0,P|291:323|291:360,2,75,4|0|8,1:0|0:0|0:0,0:0:0:0:
242,198,23760,1,0,0:0:0:0:
297,118,23996,2,0,P|326:94|358:75,2,75,0|0|8,1:0|0:0|0:0,0:0:0:0:
242,198,24705,1,0,0:0:0:0:
145,190,24941,2,0,L|99:186,3,37.5,0|2|2|2,1:0|0:0|0:0|0:0,0:0:0:0:
62,146,25413,2,0,P|62:183|55:220,1,75,8|0,0:0|0:0,0:0:0:0:
13,308,25886,5,0,1:0:0:0:
110,300,26122,1,0,0:0:0:0:
152,212,26358,1,8,0:0:0:0:
249,220,26594,1,0,1:0:0:0:
308,136,26831,6,0,P|315:97|315:58,1,78.7499975967408,4|0,1:0|0:0,0:0:0:0:
213,49,27303,2,0,P|206:88|206:127,1,78.7499975967408,8|0,0:0|0:0,0:0:0:0:
249,220,27775,2,0,P|215:239|178:253,1,78.7499975967408,0|0,1:0|0:0,0:0:0:0:
136,161,28248,2,0,P|169:141|206:127,1,78.7499975967408,8|0,0:0|0:0,0:0:0:0:
249,220,28720,6,0,P|258:256|273:293,1,78.7499975967408,0|0,1:0|0:0,0:0:0:0:
372,260,29193,2,0,P|361:221|344:186,1,78.7499975967408,8|0,0:0|0:0,0:0:0:0:
262,130,29665,2,0,P|287:105|405:105,1,157.499995193482,0|8,1:0|0:0,0:0:0:0:
345,187,30374,1,0,1:0:0:0:
262,130,30610,6,0,P|242:96|229:59,1,78.7499975967408,4|0,1:0|0:0,0:0:0:0:
322,16,31083,2,0,P|342:50|355:87,1,78.7499975967408,8|0,0:0|0:0,0:0:0:0:
345,187,31555,2,0,P|383:178|419:164,1,78.7499975967408,0|0,1:0|0:0,0:0:0:0:
450,262,32027,2,0,P|411:271|375:287,1,78.7499975967408,8|0,0:0|0:0,0:0:0:0:
284,236,32500,5,0,1:0:0:0:
284,236,32618,1,0,1:0:0:0:
284,236,32736,1,0,1:0:0:0:
296,336,32972,2,0,P|258:343|220:356,2,78.7499975967408,0|0|0,1:0|1:0|1:0,0:0:0:0:
396,320,33681,1,4,1:0:0:0:
453,238,33917,1,4,1:0:0:0:
259,222,34390,5,4,1:0:0:0:
301,134,34626,1,0,0:0:0:0:
301,134,34862,2,0,P|307:97|307:60,1,75,8|0,0:0|0:0,0:0:0:0:
398,126,35334,2,0,P|426:150|459:169,1,75,0|0,1:0|0:0,0:0:0:0:
356,214,35807,2,0,P|321:227|288:246,1,75,8|0,0:0|0:0,0:0:0:0:
233,326,36279,6,0,P|191:238|233:166,1,150,0|8,1:0|0:0,0:0:0:0:
288,246,36988,1,0,0:0:0:0:
233,326,37224,2,0,P|201:345|165:358,2,75,0|0|8,1:0|0:0|0:0,0:0:0:0:
288,246,37933,1,0,1:0:0:0:
385,254,38169,5,4,1:0:0:0:
440,174,38405,1,0,0:0:0:0:
440,174,38642,2,0,P|468:150|501:131,1,75,8|0,0:0|0:0,0:0:0:0:
398,86,39114,2,0,P|363:73|330:54,1,75,0|0,1:0|0:0,0:0:0:0:
343,166,39586,2,0,P|349:203|349:240,1,75,8|0,0:0|0:0,0:0:0:0:
307,328,40059,5,0,1:0:0:0:
210,336,40295,1,0,0:0:0:0:
155,256,40531,1,8,0:0:0:0:
58,248,40768,1,0,0:0:0:0:
113,168,41004,2,0,P|119:131|119:94,2,75,0|0|8,1:0|1:0|0:0,0:0:0:0:
3,328,41949,5,4,1:0:0:0:
58,248,42185,1,0,0:0:0:0:
58,248,42421,2,0,P|86:224|119:205,1,75,8|0,0:0|0:0,0:0:0:0:
229,149,42894,2,0,P|194:136|161:117,1,75,0|0,1:0|0:0,0:0:0:0:
58,51,43366,2,0,P|64:88|64:125,1,75,8|0,0:0|0:0,0:0:0:0:
22,213,43838,6,0,P|106:213|152:167,1,150,0|8,1:0|0:0,0:0:0:0:
64,125,44547,1,0,0:0:0:0:
22,213,44783,2,0,P|22:250|28:287,1,75,0|0,1:0|0:0,0:0:0:0:
119,205,45256,2,0,P|125:242|125:279,1,75,8|0,0:0|1:0,0:0:0:0:
83,367,45728,5,4,1:0:0:0:
180,359,45964,1,0,0:0:0:0:
222,271,46201,1,8,0:0:0:0:
28,287,46673,5,0,1:0:0:0:
125,279,46909,1,0,0:0:0:0:
167,191,47146,1,8,0:0:0:0:
264,199,47382,1,0,0:0:0:0:
222,111,47618,6,0,P|222:74|228:37,1,75,4|0,1:0|0:0,0:0:0:0:
125,103,48090,2,0,P|93:121|57:135,1,75,4|0,1:0|0:0,0:0:0:0:
167,191,48563,2,0,P|199:209|228:234,1,75,4|0,1:0|1:0,0:0:0:0:
270,322,49035,1,8,0:0:0:0:
270,322,49272,1,0,1:0:0:0:
173,314,49508,6,0,P|141:296|112:271,1,75,4|0,1:0|0:0,0:0:0:0:
167,191,49980,2,0,P|167:154|173:117,1,75,8|0,0:0|0:0,0:0:0:0:
270,125,50453,2,0,P|302:107|338:93,1,75,0|0,1:0|0:0,0:0:0:0:
380,181,50925,2,0,P|412:199|441:224,1,75,8|0,0:0|0:0,0:0:0:0:
483,312,51397,5,0,1:0:0:0:
483,312,51516,1,0,0:0:0:0:
483,312,51634,1,0,0:0:0:0:
386,304,51870,2,0,P|354:286|325:261,1,75,8|0,0:0|0:0,0:0:0:0:
283,173,52342,1,0,1:0:0:0:
186,165,52579,1,0,0:0:0:0:
228,253,52815,1,8,0:0:0:0:
228,253,53051,1,0,1:0:0:0:
283,173,53287,6,0,P|289:136|289:99,1,75,4|0,1:0|0:0,0:0:0:0:
192,91,53760,2,0,P|164:67|131:48,1,75,8|0,0:0|0:0,0:0:0:0:
76,128,54232,2,0,P|41:141|8:160,1,75,0|0,1:0|0:0,0:0:0:0:
50,248,54705,2,0,P|44:285|44:322,1,75,8|0,0:0|0:0,0:0:0:0:
141,330,55177,6,0,P|147:293|147:256,1,75,0|0,1:0|0:0,0:0:0:0:
105,168,55649,1,8,0:0:0:0:
202,176,55886,1,0,0:0:0:0:
160,88,56122,2,0,P|132:64|99:45,2,75,0|0|8,1:0|0:0|0:0,0:0:0:0:
202,176,56831,1,0,1:0:0:0:
299,168,57067,5,4,1:0:0:0:
299,168,57303,1,0,0:0:0:0:
257,80,57539,2,0,P|257:43|263:6,1,75,8|0,0:0|0:0,0:0:0:0:
354,88,58012,1,0,1:0:0:0:
354,88,58248,1,0,0:0:0:0:
299,168,58484,2,0,P|293:205|293:242,1,75,8|0,0:0|0:0,0:0:0:0:
244,328,58957,5,0,1:0:0:0:
230,337,59035,2,0,L|138:345,1,50
133,247,59429,2,0,P|127:210|127:173,1,75,8|0,0:0|0:0,0:0:0:0:
179,81,59901,1,0,1:0:0:0:
111,1,60138,1,0,0:0:0:0:
77,99,60374,1,8,0:0:0:0:
77,99,60610,1,0,1:0:0:0:
179,81,60846,6,0,P|211:63|240:38,1,75,4|0,1:0|0:0,0:0:0:0:
292,130,61319,2,0,P|324:148|360:162,1,75,8|0,0:0|0:0,0:0:0:0:
308,253,61791,2,0,P|308:290|314:327,1,75,0|0,1:0|0:0,0:0:0:0:
209,323,62264,2,0,P|177:341|148:366,1,75,8|0,0:0|0:0,0:0:0:0:
90,278,62736,5,0,1:0:0:0:
150,203,62972,1,0,0:0:0:0:
94,125,63209,1,8,0:0:0:0:
136,37,63445,1,0,0:0:0:0:
233,29,63681,1,0,1:0:0:0:
356,180,64153,1,8,0:0:0:0:
356,180,64390,1,0,1:0:0:0:
415,96,64626,6,0,P|422:57|422:18,1,78.7499975967408,4|0,1:0|0:0,0:0:0:0:
320,9,65098,2,0,P|313:48|313:87,1,78.7499975967408,8|0,0:0|0:0,0:0:0:0:
356,180,65571,1,0,1:0:0:0:
156,128,66043,1,8,0:0:0:0:
156,128,66279,1,0,0:0:0:0:
236,64,66516,6,0,P|270:44|307:31,1,78.7499975967408,0|0,1:0|0:0,0:0:0:0:
350,124,66988,2,0,P|316:144|279:157,1,78.7499975967408,8|0,0:0|0:0,0:0:0:0:
177,148,67460,2,0,P|177:166|270:259,1,157.499995193482,0|8,1:0|0:0,0:0:0:0:
279,157,68169,1,0,1:0:0:0:
177,148,68405,6,0,P|140:161|106:181,1,78.7499975967408,4|0,1:0|0:0,0:0:0:0:
149,274,68878,2,0,P|186:261|220:241,1,78.7499975967408,8|0,0:0|0:0,0:0:0:0:
279,157,69350,1,0,1:0:0:0:
415,300,69823,1,8,0:0:0:0:
415,300,70059,1,0,0:0:0:0:
356,384,70295,6,0,P|322:364|292:339,1,78.7499975967408,0|0,1:0|0:0,0:0:0:0:
415,300,70768,2,0,P|385:275|351:255,1,78.7499975967408,8|0,0:0|0:0,0:0:0:0:
249,246,71240,1,0,1:0:0:0:
320,56,71712,1,8,0:0:0:0:
320,56,71949,1,0,1:0:0:0:
363,149,72185,6,0,P|363:188|356:227,1,78.7499975967408,4|0,1:0|0:0,0:0:0:0:
254,218,72657,2,0,P|254:179|261:140,1,78.7499975967408,8|0,0:0|0:0,0:0:0:0:
320,56,73130,1,0,1:0:0:0:
119,51,73602,1,8,0:0:0:0:
119,51,73838,1,0,0:0:0:0:
162,144,74075,6,0,P|192:169|226:189,1,78.7499975967408,0|0,1:0|0:0,0:0:0:0:
221,60,74547,2,0,P|255:80|285:105,1,78.7499975967408,8|0,0:0|0:0,0:0:0:0:
328,198,75020,2,0,P|387:114|378:62,1,157.499995193482,0|8,1:0|0:0,0:0:0:0:
285,105,75728,1,0,1:0:0:0:
328,198,75964,6,0,P|358:223|392:243,1,78.7499975967408,4|0,1:0|0:0,0:0:0:0:
451,159,76437,2,0,P|421:133|387:114,1,78.7499975967408,8|0,0:0|0:0,0:0:0:0:
285,105,76909,1,0,1:0:0:0:
285,105,77146,1,0,0:0:0:0:
242,12,77382,1,8,0:0:0:0:
242,12,77618,1,0,0:0:0:0:
183,96,77854,6,0,P|81:105|40:71,1,157.499995193482,4|8,1:0|0:0,0:0:0:0:
124,12,78563,1,0,0:0:0:0:
183,96,78799,2,0,P|190:135|190:174,1,78.7499975967408,0|0,1:0|0:0,0:0:0:0:
88,183,79272,2,0,P|81:144|81:105,1,78.7499975967408,8|0,0:0|0:0,0:0:0:0:
124,12,79744,5,0,1:0:0:0:
226,3,79980,1,0,1:0:0:0:
285,87,80216,1,0,1:0:0:0:
387,78,80453,1,0,1:0:0:0:
387,78,80571,1,0,0:0:0:0:
387,78,80689,1,4,1:0:0:0:
488,172,83287,5,0,1:0:0:0:
391,218,83523,6,0,P|350:218|309:211,1,82.5000025177003,4|0,1:0|0:0,0:0:0:0:
318,104,83996,2,0,P|359:104|400:111,1,82.5000025177003,8|0,0:0|0:0,0:0:0:0:
488,172,84468,2,0,P|509:208|523:247,1,82.5000025177003,0|0,1:0|0:0,0:0:0:0:
426,293,84941,2,0,P|405:257|391:218,1,82.5000025177003,8|0,0:0|0:0,0:0:0:0:
400,111,85413,6,0,P|382:111|284:209,1,165.000005035401,0|8,1:0|0:0,0:0:0:0:
391,218,86122,1,0,0:0:0:0:
488,172,86358,2,0,P|488:50|461:23,1,165.000005035401,0|8,1:0|0:0,0:0:0:0:
400,111,87067,1,0,1:0:0:0:
488,172,87303,5,4,1:0:0:0:
479,279,87539,1,0,0:0:0:0:
382,325,87775,1,8,0:0:0:0:
294,264,88012,1,0,0:0:0:0:
197,310,88248,2,0,P|156:317|128:316,1,68.7500020980836,0|0,1:0|0:0,0:0:0:0:
96,312,88523,2,0,L|100:380,1,68.7500020980836,0|8,0:0|0:0,0:0:0:0:
21,286,88957,1,0,0:0:0:0:
106,208,89193,6,0,P|147:201|188:201,1,82.5000025177003,0|0,1:0|0:0,0:0:0:0:
332,224,89665,2,0,P|305:192|285:157,1,82.5000025177003,8|0,0:0|0:0,0:0:0:0:
293,41,90138,1,0,1:0:0:0:
197,96,90374,1,0,0:0:0:0:
197,96,90492,1,0,0:0:0:0:
197,96,90610,1,8,0:0:0:0:
188,203,90846,1,0,1:0:0:0:
276,264,91083,6,0,P|317:271|358:271,1,82.5000025177003,4|0,1:0|0:0,0:0:0:0:
367,164,91555,2,0,P|326:157|285:157,1,82.5000025177003,8|0,0:0|0:0,0:0:0:0:
188,203,92027,2,0,P|161:235|141:270,1,82.5000025177003,0|0,1:0|0:0,0:0:0:0:
229,331,92500,2,0,P|256:299|276:264,1,82.5000025177003,8|0,0:0|0:0,0:0:0:0:
285,157,92972,6,0,P|383:255|383:273,1,165.000005035401,0|8,1:0|0:0,0:0:0:0:
276,264,93681,1,0,0:0:0:0:
188,203,93917,2,0,P|276:50|294:50,1,165.000005035401,0|8,1:0|0:0,0:0:0:0:
285,157,94626,1,0,1:0:0:0:
188,203,94862,5,4,1:0:0:0:
197,310,95098,1,0,0:0:0:0:
109,371,95334,1,8,0:0:0:0:
12,325,95571,1,0,0:0:0:0:
3,218,95807,6,0,P|17:179|38:144,1,82.5000025177003,0|0,1:0|0:0,0:0:0:0:
49,128,96122,2,0,L|-35:89,1,55.0000016784668,0|8,0:0|0:0,0:0:0:0:
113,87,96516,1,0,0:0:0:0:
126,191,96752,6,0,P|113:226|94:259,2,75,0|0|0,1:0|1:0|1:0,0:0:0:0:
113,87,97460,1,0,1:0:0:0:
113,87,97579,1,8,1:0:0:0:
198,34,97815,1,8,1:0:0:0:
198,34,97933,1,0,1:0:0:0:
286,76,98169,1,0,1:0:0:0:
126,186,98642,5,0,1:0:0:0:
126,186,98878,1,0,1:0:0:0:
206,131,99114,1,0,1:0:0:0:
206,131,99350,1,0,1:0:0:0:
294,173,99586,2,0,L|340:169,4,37.5,0|0|0|0|0,0:0|0:0|0:0|0:0|0:0,0:0:0:0:
206,234,100295,1,0,1:0:0:0:
206,234,100413,1,0,1:0:0:0:
206,234,100531,6,0,P|165:241|124:241,1,82.5000025177003,4|0,1:0|0:0,0:0:0:0:
115,134,101004,2,0,P|156:127|197:127,1,82.5000025177003,8|0,0:0|0:0,0:0:0:0:
294,173,101476,1,0,1:0:0:0:
382,112,101712,1,0,0:0:0:0:
479,158,101949,1,8,0:0:0:0:
488,265,102185,1,0,1:0:0:0:
488,265,102303,1,0,1:0:0:0:
488,265,102421,6,0,P|474:304|453:339,1,82.5000025177003,0|0,1:0|0:0,0:0:0:0:
356,293,102894,2,0,P|370:254|391:219,1,82.5000025177003,8|0,0:0|0:0,0:0:0:0:
479,158,103366,2,0,P|400:112|330:131,1,165.000005035401,0|0,1:0|1:0,0:0:0:0:
391,219,104075,1,0,1:0:0:0:
479,158,104311,6,0,P|498:125|511:90,2,75,4|0|0,1:0|1:0|1:0,0:0:0:0:
391,219,105020,1,0,1:0:0:0:
391,219,105138,1,8,1:0:0:0:
303,177,105374,1,8,1:0:0:0:
303,177,105492,1,0,1:0:0:0:
223,232,105728,1,0,1:0:0:0:
383,122,106201,5,0,1:0:0:0:
383,122,106437,1,0,1:0:0:0:
295,80,106673,1,0,1:0:0:0:
295,80,106909,1,0,1:0:0:0:
215,135,107146,2,0,P|123:135|72:84,1,150
169,38,107854,1,0,1:0:0:0:
215,135,108090,5,4,1:0:0:0:
215,135,108327,1,0,0:0:0:0:
312,89,108563,2,0,P|353:89|394:96,1,82.5000025177003,8|0,0:0|0:0,0:0:0:0:
482,157,109035,1,0,1:0:0:0:
482,157,109272,1,0,0:0:0:0:
385,203,109508,2,0,P|344:203|303:196,1,82.5000025177003,8|0,0:0|1:0,0:0:0:0:
215,135,109980,5,0,1:0:0:0:
118,181,110216,1,0,1:0:0:0:
109,288,110453,1,0,1:0:0:0:
197,349,110689,1,0,1:0:0:0:
294,303,110925,2,0,P|335:296|376:296,1,82.5000025177003,0|0,1:0|1:0,0:0:0:0:
473,342,111397,5,8,1:0:0:0:
