osu file format v14

[General]
AudioFilename: audio.mp3
AudioLeadIn: 0
PreviewTime: 93527
Countdown: 0
SampleSet: Soft
StackLeniency: 0.3
Mode: 0
LetterboxInBreaks: 0
WidescreenStoryboard: 1

[Editor]
Bookmarks: 51652
DistanceSpacing: 1.4
BeatDivisor: 4
GridSize: 4
TimelineZoom: 1.7

[Metadata]
Title:The Night Circus
TitleUnicode:The Night Circus
Artist:Liz Triangle
ArtistUnicode:Liz Triangle
Creator:Kaori Nakaseko
Version:Lunatic
Source:東方Project
Tags:Hi
BeatmapID:1210996
BeatmapSetID:571419

[Difficulty]
HPDrainRate:6
CircleSize:4
OverallDifficulty:8
ApproachRate:9.3
SliderMultiplier:3
SliderTickRate:1

[Events]
//Background and Video events
0,0,"Clownpiece.full.1912579.jpg",0,0
//Break Periods
2,93415,103240
//Storyboard Layer 0 (Background)
//Storyboard Layer 1 (Fail)
//Storyboard Layer 2 (Pass)
//Storyboard Layer 3 (Foreground)
//Storyboard Sound Samples

[TimingPoints]
3727,476.190476190476,4,2,0,100,1,0
6822,-125,4,2,0,25,0,0
7298,-111.111111111111,4,2,0,25,0,0
7774,-100,4,2,0,25,0,0
8250,-90.9090909090909,4,2,0,25,0,0
8726,-83.3333333333333,4,2,0,25,0,0
9203,-76.9230769230769,4,2,0,25,0,0
9441,-100,4,2,0,100,0,0
10869,-100,4,2,0,5,0,0
11346,-100,4,2,0,100,0,0
14441,-125,4,2,0,28,0,0
14917,-111.111111111111,4,2,0,28,0,0
15393,-100,4,2,0,28,0,0
15869,-90.9090909090909,4,2,0,28,0,0
16346,-83.3333333333333,4,2,0,28,0,0
16822,-76.9230769230769,4,2,0,28,0,0
17060,-100,4,2,0,100,0,0
18435,476.190476190476,4,2,0,100,1,0
18435,-50,4,2,0,100,0,0
18840,312.5,4,2,0,100,1,0
18840,-133.333333333333,4,2,0,100,0,0
20090,-133.333333333333,4,2,0,100,0,0
21340,-200,4,2,0,100,0,0
22590,-133.333333333333,4,2,0,100,0,0
23840,-200,4,2,0,100,0,0
26183,-66.6666666666667,4,2,0,100,0,0
28371,-100,4,2,0,100,0,0
28840,-133.333333333333,4,2,0,100,0,0
31340,-200,4,2,0,100,0,0
37121,-100,4,2,0,100,0,0
38527,-200,4,2,0,100,0,0
43215,-133.333333333333,4,2,0,100,0,0
43840,-200,4,2,0,100,0,0
46027,-133.333333333333,4,2,0,100,0,0
48215,-100,4,2,0,100,0,0
53371,-200,4,2,0,100,0,0
58215,-100,4,2,0,100,0,0
58840,-200,4,2,0,100,0,0
59777,-100,4,2,0,100,0,0
62433,-133.333333333333,4,2,0,100,0,0
63840,-200,4,2,0,100,0,0
68840,-100,4,2,0,20,0,0
70090,-66.6666666666667,4,2,0,100,0,0
73840,-50,4,2,0,100,0,0
75090,-200,4,2,0,100,0,0
75715,-66.6666666666667,4,2,0,100,0,0
77277,-50,4,2,0,100,0,0
77590,-200,4,2,0,100,0,0
78840,-50,4,2,0,100,0,0
80090,-100,4,2,0,100,0,0
83840,-100,4,2,0,100,0,0
104777,-200,4,2,0,100,0,0
105715,-100,4,2,0,100,0,0
109152,-50,4,2,0,100,0,0
109621,-200,4,2,0,100,0,0
110715,-100,4,2,0,100,0,0
111808,-66.6666666666667,4,2,0,100,0,0
115090,-200,4,2,0,100,0,0
120090,-100,4,2,0,100,0,0
123840,-66.6666666666667,4,2,0,100,0,0
124777,-200,4,2,0,100,0,0
125871,-50,4,2,0,100,0,0
132590,-200,4,2,0,100,0,0
133840,-50,4,2,0,100,0,0
141340,-66.6666666666667,4,2,0,100,0,0
145402,-133.333333333333,4,2,0,100,0,0
151965,-100,4,2,0,100,0,0
157277,-200,4,2,0,100,0,0
167277,-100,4,2,0,100,0,0
171340,-200,4,2,0,100,0,0
176340,-50,4,2,0,100,0,0
179777,-200,4,2,0,100,0,0
188840,-50,4,2,0,100,0,0
191340,-200,4,2,0,100,0,0
191965,-200,4,2,0,100,0,0
194465,-50,4,2,0,100,0,0
194933,-200,4,2,0,100,0,0
197590,-50,4,2,0,100,0,0
199777,-200,4,2,0,100,0,0
200090,-50,4,2,0,100,0,0
200402,-200,4,2,0,100,0,0
200715,-50,4,2,0,100,0,0
202277,-200,4,2,0,100,0,0
205090,-50,4,2,0,100,0,0
210090,-200,4,2,0,100,0,0
212433,-50,4,2,0,100,0,0
215090,-200,4,2,0,100,0,0

[Colours]
Combo1 : 0,251,63
Combo2 : 0,139,206
Combo3 : 255,255,45

[HitObjects]
148,44,3726,5,0,0:0:0:0:
144,316,3965,1,0,0:0:0:0:
240,340,4203,1,0,0:0:0:0:
288,308,4322,5,0,0:0:0:0:
344,288,4441,1,0,0:0:0:0:
400,308,4560,1,0,0:0:0:0:
448,344,4679,1,0,0:0:0:0:
432,192,4917,1,0,0:0:0:0:
352,240,5155,1,0,0:0:0:0:
272,192,5393,1,0,0:0:0:0:
364,340,5631,5,0,0:0:0:0:
364,72,5869,1,0,0:0:0:0:
336,48,6107,5,0,0:0:0:0:
288,80,6226,1,0,0:0:0:0:
240,112,6346,1,0,0:0:0:0:
192,80,6465,1,0,0:0:0:0:
144,48,6584,1,0,0:0:0:0:
256,192,6822,2,0,L|316:148,1,60
256,192,7060,2,0,L|200:232,1,60
256,192,7298,6,0,L|320:144,1,67.4999979400635
256,192,7536,2,0,L|196:236,1,67.4999979400635
256,192,7774,6,0,L|340:128,1,75
256,192,8012,2,0,L|180:248,1,75
256,192,8250,6,0,L|328:140,1,82.5000025177003
256,192,8488,2,0,L|180:244,1,82.5000025177003
256,192,8726,6,0,L|352:124,1,89.9999972534181
256,192,8965,2,0,L|168:252,1,89.9999972534181
256,192,9203,2,0,L|152:136,1,97.4999955368044
48,80,9441,1,0,0:3:0:0:
108,76,9560,1,0,0:0:0:0:
164,96,9679,1,0,0:0:0:0:
216,128,9798,1,0,0:0:0:0:
264,164,9917,1,0,0:0:0:0:
304,208,10036,1,0,0:0:0:0:
304,208,10155,5,0,0:0:0:0:
264,164,10274,1,0,0:0:0:0:
216,128,10393,1,0,0:0:0:0:
164,96,10512,1,0,0:0:0:0:
108,72,10631,1,0,0:0:0:0:
48,56,10750,1,0,0:0:0:0:
36,116,10869,2,0,B|52:195|52:195|138:194,1,150
368,64,11346,5,0,0:0:0:0:
368,336,11585,1,0,0:0:0:0:
272,336,11823,1,0,0:0:0:0:
224,304,11942,5,0,0:0:0:0:
168,284,12060,1,0,0:0:0:0:
112,304,12179,1,0,0:0:0:0:
64,340,12299,1,0,0:0:0:0:
80,192,12537,1,0,0:0:0:0:
160,240,12775,1,0,0:0:0:0:
240,192,13013,1,0,0:0:0:0:
68,328,13251,5,0,0:0:0:0:
80,96,13489,1,0,0:0:0:0:
176,48,13727,1,0,0:0:0:0:
208,88,13846,5,0,0:0:0:0:
248,120,13966,1,0,0:0:0:0:
300,128,14085,1,0,0:0:0:0:
352,116,14204,1,0,0:0:0:0:
228,224,14441,2,0,L|280:168,1,60
268,180,14679,2,0,L|224:232,1,60
229,225,14917,6,0,L|284:164,1,67.4999979400635
268,180,15155,2,0,L|220:240,1,67.4999979400635
228,228,15393,6,0,L|284:160,1,75
268,180,15631,2,0,L|208:252,1,75
228,228,15869,6,0,L|284:160,1,82.5000025177003
268,180,16107,2,0,L|208:252,1,82.5000025177003
228,228,16346,6,0,L|292:152,1,89.9999972534181
268,180,16584,2,0,L|204:260,1,89.9999972534181
268,180,16822,2,0,L|388:184,1,97.4999955368044
480,192,17061,1,0,0:0:0:0:
424,172,17180,1,0,0:0:0:0:
364,184,17299,1,0,0:0:0:0:
312,216,17418,1,0,0:0:0:0:
256,240,17537,1,0,0:0:0:0:
196,244,17656,5,0,0:0:0:0:
140,220,17775,1,0,0:0:0:0:
100,176,17893,2,0,L|68:88,1,75
80,288,18435,6,0,B|87:253|87:253|176:224|176:224|176:112|176:112|272:48,1,300,0|0,0:3|0:3,0:3:0:0:
448,272,18840,6,0,P|448:176|352:80,1,225.000008583069
96,144,19308,1,0,0:0:0:0:
96,144,19386,1,0,0:0:0:0:
96,144,19465,1,0,0:0:0:0:
340,104,19621,1,0,0:0:0:0:
140,248,19777,1,0,0:0:0:0:
240,80,19933,5,0,0:0:0:0:
16,40,20090,2,0,P|16:104|60:140,1,112.500004291535
48,135,20324,1,0,0:0:0:0:
48,135,20402,1,0,0:0:0:0:
224,92,20558,5,0,0:0:0:0:
396,268,20715,2,0,P|423:227|400:144,1,112.500004291535
416,166,20949,1,0,0:0:0:0:
416,166,21027,1,0,0:0:0:0:
256,192,21183,1,0,0:0:0:0:
48,176,21340,6,0,P|86:124|176:96,1,150
416,112,21808,1,0,0:0:0:0:
416,112,21886,1,0,0:0:0:0:
416,112,21965,1,0,0:0:0:0:
416,321,22121,1,0,0:0:0:0:
192,208,22277,1,0,0:0:0:0:
328,212,22433,5,0,0:3:0:0:
247,33,22590,1,0,0:3:0:0:
76,144,22746,1,0,0:3:0:0:
50,169,22824,1,0,0:3:0:0:
25,193,22902,1,0,0:3:0:0:
256,192,23058,1,0,0:0:0:0:
128,320,23215,1,0,0:3:0:0:
332,312,23371,1,0,0:3:0:0:
357,288,23449,1,0,0:3:0:0:
383,263,23527,1,0,0:3:0:0:
256,192,23683,5,0,0:0:0:0:
64,176,23840,2,0,P|63:111|118:35,1,150
384,80,24308,2,0,L|432:48,2,37.5
288,256,24621,1,0,0:0:0:0:
192,144,24777,1,0,0:0:0:0:
96,256,24933,5,0,0:0:0:0:
32,112,25090,2,0,L|112:112,1,75
107,112,25324,1,0,0:0:0:0:
107,112,25402,1,0,0:0:0:0:
256,192,25558,5,0,0:0:0:0:
480,112,25715,2,0,L|400:112,1,75
144,256,26027,1,0,0:0:0:0:
256,48,26183,2,0,L|368:272,1,225
144,126,26652,5,0,0:0:0:0:
383,124,26808,2,0,L|237:328,1,225
144,126,27277,5,0,0:0:0:0:
369,126,27433,1,0,0:0:0:0:
256,340,27590,1,0,0:0:0:0:
107,191,27746,1,0,0:0:0:0:
324,76,27902,5,0,0:0:0:0:
320,324,28058,1,0,0:0:0:0:
107,191,28215,1,0,0:0:0:0:
64,64,28371,5,0,0:0:0:0:
172,168,28527,1,0,0:0:0:0:
276,60,28683,1,0,0:0:0:0:
400,144,28840,2,0,P|448:192|432:240,2,112.500004291535
256,192,29308,1,0,0:0:0:0:
68,228,29465,2,0,P|64:174|107:141,2,112.500004291535
288,64,29933,2,0,L|384:128,1,112.500004291535
224,320,30246,2,0,L|128:256,1,112.500004291535
100,196,30480,1,0,0:0:0:0:
112,128,30558,2,0,P|144:48|208:64,1,112.500004291535
368,48,30871,1,0,0:0:0:0:
432,192,31027,1,0,0:0:0:0:
256,320,31183,5,0,0:0:0:0:
432,192,31340,2,0,P|400:128|368:112,1,75
348,84,31574,1,0,0:0:0:0:
284,64,31652,2,0,P|212:68|185:91,1,75
156,104,31886,1,0,0:0:0:0:
156,104,31965,1,0,0:0:0:0:
88,220,32121,6,0,P|159:215|186:192,1,75
432,192,32433,2,0,L|432:144,2,37.5
256,192,32746,1,0,0:0:0:0:
80,112,32902,2,0,L|80:64,2,37.5
256,192,33215,1,0,0:0:0:0:
256,192,33293,1,0,0:0:0:0:
256,192,33371,1,0,0:0:0:0:
480,320,33527,6,0,P|409:315|382:292,1,75
348,280,33762,1,0,0:0:0:0:
280,280,33840,2,0,P|209:275|182:252,1,75
156,228,34075,1,0,0:0:0:0:
88,236,34152,6,0,P|17:231|-10:208,1,75
144,48,34465,1,0,0:0:0:0:
256,192,34621,1,0,0:0:0:0:
256,192,34699,1,0,0:0:0:0:
256,192,34777,1,0,0:0:0:0:
400,32,34933,2,0,P|452:80|458:115,1,75
424,144,35168,1,0,0:0:0:0:
416,212,35246,2,0,P|468:260|474:295,1,75
432,320,35480,1,0,0:0:0:0:
372,348,35558,5,0,0:0:0:0:
256,192,35715,1,0,0:0:0:0:
256,192,35793,1,0,0:0:0:0:
256,192,35871,1,0,0:0:0:0:
178,327,36027,1,0,0:0:0:0:
178,56,36183,1,0,0:0:0:0:
416,192,36340,2,0,P|384:112|336:80,1,75
320,48,36652,1,0,0:0:0:0:
144,304,36808,1,0,0:0:0:0:
320,48,37121,5,0,0:0:0:0:
144,304,37277,1,0,0:0:0:0:
192,48,37433,5,0,0:0:0:0:
368,304,37589,1,0,0:0:0:0:
432,176,37746,1,0,0:0:0:0:
392,121,37824,1,0,0:0:0:0:
352,66,37902,1,0,0:0:0:0:
96,192,38058,1,0,0:0:0:0:
400,192,38215,1,0,0:0:0:0:
288,64,38527,6,0,P|216:64|188:85,1,75
192,128,38761,1,0,0:0:0:0:
224,192,38840,2,0,P|295:191|323:170,1,75
320,128,39074,1,0,0:0:0:0:
288,64,39152,2,0,P|216:64|188:85,1,75
256,128,39386,1,0,0:0:0:0:
288,192,39465,2,0,P|216:192|188:213,1,75
192,256,39699,1,0,0:0:0:0:
224,320,39778,2,0,P|295:319|323:298,1,75
320,256,40012,1,0,0:0:0:0:
288,192,40090,2,0,P|216:192|188:213,1,75
160,144,40324,5,0,0:0:0:0:
192,80,40402,2,0,P|120:80|92:101,1,75
64,128,40636,1,0,0:0:0:0:
96,192,40714,1,0,0:0:0:0:
160,224,40792,1,0,0:0:0:0:
384,64,41027,2,0,L|336:128,1,75
192,272,41340,1,0,0:0:0:0:
208,96,41496,1,0,0:0:0:0:
384,64,41652,1,0,0:0:0:0:
128,64,41808,2,0,L|176:128,1,75
320,272,42121,1,0,0:0:0:0:
96,128,42277,1,0,0:0:0:0:
384,64,42433,2,0,L|336:128,1,75
192,288,42746,1,0,0:0:0:0:
320,32,42902,1,0,0:0:0:0:
192,288,43058,1,0,0:0:0:0:
128,32,43215,6,0,P|64:32|16:176,1,225.000008583069
32,320,43840,6,0,P|103:315|130:292,1,75
156,268,44075,1,0,0:0:0:0:
224,264,44153,2,0,P|295:259|322:236,1,75
348,212,44386,1,0,0:0:0:0:
416,216,44465,6,0,P|468:167|474:132,1,75
452,100,44699,1,0,0:0:0:0:
392,68,44777,2,0,P|321:73|294:96,1,75
96,64,45090,6,0,L|64:28,1,37.5
224,176,45246,2,0,L|264:220,1,37.5
208,80,45402,6,0,L|256:48,1,37.5
96,160,45558,2,0,L|28:212,1,75
400,48,46027,6,0,L|352:160,1,112.500004291535
272,320,46340,1,0,0:0:0:0:
400,48,46652,5,0,0:0:0:0:
304,320,46808,1,0,0:0:0:0:
112,192,46965,1,0,0:0:0:0:
112,192,47043,1,0,0:0:0:0:
112,192,47121,1,0,0:0:0:0:
304,48,47277,1,0,0:0:0:0:
304,320,47433,5,0,0:0:0:0:
304,48,47746,1,0,0:0:0:0:
96,224,47902,1,0,0:0:0:0:
256,64,48215,1,0,0:0:0:0:
321,97,48293,1,0,0:0:0:0:
352,164,48371,1,0,0:0:0:0:
335,236,48449,1,0,0:0:0:0:
278,282,48527,1,0,0:0:0:0:
256,192,48840,12,0,51027,0:0:0:0:
256,64,51340,6,0,L|352:192,1,150
256,320,51652,6,0,L|160:192,1,150
256,64,51965,6,0,L|160:192,1,150
256,320,52277,6,0,L|352:192,1,150
112,128,52590,6,0,P|64:192|64:272,1,150
400,128,52902,6,0,P|448:192|448:272,1,150
256,192,53215,1,0,0:0:0:0:
96,320,53371,2,0,L|160:272,1,75
272,192,53683,1,0,0:0:0:0:
384,320,53840,2,0,P|416:272|400:240,1,75
388,196,54074,1,0,0:0:0:0:
368,132,54152,2,0,P|400:84|384:52,1,75
336,40,54386,1,0,0:0:0:0:
272,68,54465,2,0,P|240:20|256:-12,1,75
180,28,54699,5,0,0:0:0:0:
124,68,54777,2,0,P|156:116|140:148,1,75
152,196,55011,1,0,0:0:0:0:
100,240,55090,5,0,0:0:0:0:
256,344,55246,1,0,0:0:0:0:
436,288,55402,2,0,L|388:224,1,75
260,52,55715,2,0,L|308:116,1,75
400,256,56027,1,0,0:0:0:0:
360,315,56105,1,0,0:0:0:0:
288,319,56183,1,0,0:0:0:0:
112,240,56340,6,0,P|64:208|64:192,2,75
288,320,56808,2,0,L|336:224,1,75
300,184,57043,1,0,0:0:0:0:
280,116,57121,2,0,L|300:32,1,75
297,43,57355,1,0,0:0:0:0:
297,43,57433,1,0,0:0:0:0:
224,336,57590,1,0,0:0:0:0:
320,144,57746,1,0,0:0:0:0:
320,144,57824,1,0,0:0:0:0:
320,144,57902,1,0,0:0:0:0:
112,144,58058,5,0,0:0:0:0:
384,336,58215,2,0,P|480:240|400:112,1,300
240,64,58683,1,0,0:0:0:0:
48,32,58840,2,0,L|96:96,1,75
160,112,59074,1,0,0:0:0:0:
224,144,59152,2,0,L|272:208,1,75
348,304,59465,1,0,0:0:0:0:
304,144,59621,1,0,0:0:0:0:
432,96,59777,2,0,L|352:304,1,150
256,272,60246,6,0,L|336:64,1,150
432,96,60558,6,0,L|352:304,1,150
144,224,60871,1,0,0:0:0:0:
256,80,61027,1,0,0:0:0:0:
368,224,61183,1,0,0:0:0:0:
368,224,61261,1,0,0:0:0:0:
368,224,61340,1,0,0:0:0:0:
144,112,61652,5,0,0:0:0:0:
368,112,61808,1,0,0:0:0:0:
256,272,62121,1,0,0:0:0:0:
432,64,62433,2,0,P|416:192|336:272,1,225.000008583069
288,288,62824,1,0,0:0:0:0:
224,256,62902,2,0,P|176:224|144:160,1,112.500004291535
144,112,63136,1,0,0:0:0:0:
144,112,63215,1,0,0:0:0:0:
144,112,63293,1,0,0:0:0:0:
144,112,63371,2,0,P|256:176|304:272,1,225.000008583069
416,320,63840,6,0,B|383:320|352:328|328:300|328:300|348:268|276:184|276:184,1,225
256,336,64465,1,0,0:0:0:0:
96,320,64621,6,0,B|128:320|160:336|200:304|200:304|176:280|176:256|176:256,1,150
176,204,65011,1,0,0:0:0:0:
184,136,65090,2,0,B|194:86|190:54|190:54|158:58|112:80|112:80,1,150
92,132,65480,1,0,0:0:0:0:
68,196,65558,2,0,P|68:236|92:272,1,75
256,192,66027,1,0,0:0:0:0:
256,192,66183,1,0,0:0:0:0:
256,192,66340,1,0,0:0:0:0:
448,224,66496,2,0,P|448:272|428:296,1,75
160,192,66965,1,0,0:0:0:0:
352,192,67277,1,0,0:0:0:0:
208,96,67590,2,0,P|256:48|304:96,2,150,0|0|0,0:0|0:0|0:0,0:3:0:0:
64,80,68840,2,0,L|48:32,1,37.5
120,184,68996,2,0,L|136:232,1,37.5
168,68,69152,6,0,L|152:20,1,37.5
224,172,69308,2,0,L|240:220,1,37.5
280,56,69465,6,0,L|264:8,1,37.5
336,160,69621,2,0,L|352:208,1,37.5
392,44,69777,6,0,L|376:-4,1,37.5
448,148,69933,2,0,L|464:196,1,37.5
96,320,70090,2,0,P|32:192|64:128,1,225.000008583069
416,64,70402,6,0,P|480:192|448:256,2,225.000008583069
96,160,71340,1,0,0:0:0:0:
160,64,71496,1,0,0:0:0:0:
208,160,71652,1,0,0:0:0:0:
272,64,71808,5,0,0:0:0:0:
336,160,71965,1,0,0:0:0:0:
400,64,72121,1,0,0:0:0:0:
336,160,72277,1,0,0:0:0:0:
272,64,72433,1,0,0:0:0:0:
40,184,72590,6,0,B|64:112|64:112|140:260,1,225.000008583069
232,96,72902,6,0,B|296:72|316:116|228:192|228:192|304:216,1,225.000008583069
416,196,73215,6,0,B|464:220|488:256|420:268|420:268|440:336|396:324|356:284,1,225.000008583069
64,240,73527,1,0,0:0:0:0:
48,176,73605,1,0,0:0:0:0:
64,112,73683,1,0,0:0:0:0:
112,64,73761,1,0,0:0:0:0:
176,32,73840,2,0,B|272:112|272:112|448:32|448:32,1,300
480,304,74152,6,0,B|435:159|435:159|283:234,1,300
112,64,74465,6,0,L|304:320,1,300
292,304,74777,6,0,L|96:48,1,300
416,112,75090,2,0,L|444:97,6,25
384,256,75558,5,0,0:0:0:0:
256,320,75715,2,0,B|112:320|80:192,1,225.000008583069
144,48,76027,1,0,0:0:0:0:
256,192,76183,1,0,0:0:0:0:
368,48,76340,5,0,0:0:0:0:
256,192,76496,1,0,0:0:0:0:
368,336,76652,5,0,0:0:0:0:
256,192,76808,1,0,0:0:0:0:
144,336,76965,5,0,0:0:0:0:
256,192,77121,1,0,0:0:0:0:
256,32,77277,2,0,B|304:80|304:80|208:160|208:160|276:244,1,300
96,288,77590,6,0,L|67:302,6,25
256,192,78058,1,0,0:0:0:0:
416,288,78215,6,0,L|444:302,6,25
256,192,78683,1,0,0:0:0:0:
336,192,78840,6,0,B|291:47|291:47|139:122,1,300
158,112,79152,6,0,B|203:257|203:257|355:182,1,300
335,191,79465,6,0,B|290:336|290:336|138:261,1,300
157,270,79777,6,0,B|202:125|202:125|354:200,1,300
80,80,80090,1,0,0:0:0:0:
80,80,80168,1,0,0:0:0:0:
80,80,80246,1,0,0:0:0:0:
80,80,80324,1,0,0:0:0:0:
80,80,80402,1,0,0:0:0:0:
96,96,80480,1,0,0:0:0:0:
112,112,80558,1,0,0:0:0:0:
128,128,80636,1,0,0:0:0:0:
144,144,80715,1,0,0:0:0:0:
176,160,80793,1,0,0:0:0:0:
208,160,80871,1,0,0:0:0:0:
256,144,80949,1,0,0:0:0:0:
288,112,81027,1,0,0:0:0:0:
320,80,81105,1,0,0:0:0:0:
352,48,81183,5,0,0:0:0:0:
384,80,81261,1,0,0:0:0:0:
416,112,81340,1,0,0:0:0:0:
368,336,81652,1,0,0:0:0:0:
256,192,81965,1,0,0:0:0:0:
144,336,82277,1,0,0:0:0:0:
368,48,82590,5,0,0:0:0:0:
256,192,82746,1,0,0:0:0:0:
144,48,82902,1,0,0:0:0:0:
256,192,83058,1,0,0:0:0:0:
368,48,83215,5,0,0:0:0:0:
128,128,83840,2,0,P|256:48|368:128,1,300,0|0,2:0|2:0,2:0:0:0:
320,336,84308,1,0,0:0:0:0:
256,336,84386,1,0,0:0:0:0:
192,336,84465,1,0,0:0:0:0:
96,192,84621,1,0,0:0:0:0:
256,64,84777,1,0,0:0:0:0:
416,192,84933,1,0,0:0:0:0:
256,64,85090,5,0,0:0:0:0:
80,304,85246,1,0,0:0:0:0:
80,304,85324,1,0,0:0:0:0:
80,304,85402,1,0,0:0:0:0:
160,192,85558,1,0,0:0:0:0:
256,64,85715,5,0,0:0:0:0:
432,304,85871,1,0,0:0:0:0:
432,304,85949,1,0,0:0:0:0:
432,304,86027,1,0,0:0:0:0:
256,240,86183,1,0,0:0:0:0:
144,320,86340,2,0,P|256:240|384:320,1,300,0|0,2:0|2:0,2:0:0:0:
320,48,86808,1,0,0:0:0:0:
256,48,86886,1,0,0:0:0:0:
192,48,86965,1,0,0:0:0:0:
96,192,87121,1,0,0:0:0:0:
256,64,87277,1,0,0:0:0:0:
416,192,87433,1,0,0:0:0:0:
113,77,87590,5,0,0:0:0:0:
411,81,87746,1,0,0:0:0:0:
411,81,87824,1,0,0:0:0:0:
411,81,87902,1,0,0:0:0:0:
256,192,88058,1,0,0:0:0:0:
398,306,88215,5,0,0:0:0:0:
100,302,88371,1,0,0:0:0:0:
100,302,88449,1,0,0:0:0:0:
100,302,88527,1,0,0:0:0:0:
256,192,88683,1,0,0:0:0:0:
432,48,88840,6,0,B|272:48|272:48|240:208,1,300
384,176,89308,1,0,0:0:0:0:
384,176,89386,1,0,0:0:0:0:
384,176,89464,1,0,0:0:0:0:
320,304,89621,1,0,0:0:0:0:
192,304,89777,1,0,0:0:0:0:
112,176,89933,1,0,0:0:0:0:
80,48,90090,6,0,B|240:48|240:48|272:208,2,300
80,48,90871,1,0,0:0:0:0:
256,192,91027,1,0,0:0:0:0:
352,192,91183,1,0,0:0:0:0:
160,192,91340,1,0,0:0:0:0:
256,192,91652,5,0,0:0:0:0:
255,96,91808,1,0,0:0:0:0:
255,288,91965,1,0,0:0:0:0:
255,96,92277,5,0,0:0:0:0:
255,288,92433,1,0,0:0:0:0:
352,96,92590,5,0,0:0:0:0:
160,288,92746,5,0,0:0:0:0:
160,96,92902,5,0,0:0:0:0:
352,288,93058,5,0,0:0:0:0:
160,96,93215,5,0,0:0:0:0:
416,320,103840,6,0,B|352:256|352:256|384:176|384:176|336:128,1,225
288,176,104152,6,0,B|192:144|192:144|256:32|256:32,1,225
320,48,104465,6,0,B|230:33|230:33|184:106|184:106|117:96,1,225
80,48,104777,6,0,L|176:48,1,75
208,96,105011,1,0,0:0:0:0:
272,128,105090,6,0,L|368:128,1,75
400,176,105324,1,0,0:0:0:0:
464,208,105402,6,0,L|464:288,1,75
400,304,105636,1,0,0:0:0:0:
336,272,105715,6,0,P|304:304|272:224,1,150
208,176,105949,1,0,0:0:0:0:
176,112,106027,6,0,P|208:80|240:160,1,150
128,320,106340,1,0,0:0:0:0:
192,224,106496,1,0,0:0:0:0:
256,128,106652,1,0,0:0:0:0:
320,32,106808,2,0,L|160:288,1,300
320,32,107277,1,0,0:0:0:0:
448,112,107433,1,0,0:0:0:0:
416,256,107590,1,0,0:0:0:0:
288,336,107746,1,0,0:0:0:0:
240,192,107902,1,0,0:0:0:0:
192,32,108058,5,0,0:0:0:0:
64,112,108214,1,0,0:0:0:0:
96,256,108371,1,0,0:0:0:0:
224,336,108527,2,0,L|240:176,1,150
288,48,108840,2,0,L|272:208,1,150
224,336,109152,2,0,L|240:160,1,150
288,48,109308,1,0,0:0:0:0:
288,48,109386,1,0,0:0:0:0:
288,48,109465,1,0,0:0:0:0:
80,96,109621,6,0,P|48:144|48:160,1,75
112,176,109933,2,0,P|144:224|144:240,1,75
224,304,110246,1,0,0:0:0:0:
288,192,110402,1,0,0:0:0:0:
352,304,110558,1,0,0:0:0:0:
416,160,110715,2,0,P|304:128|240:192,2,150
416,160,111105,1,0,0:0:0:0:
416,160,111183,1,0,0:0:0:0:
192,304,111340,1,0,0:0:0:0:
96,144,111496,1,0,0:0:0:0:
192,304,111652,1,0,0:0:0:0:
192,304,111808,6,0,P|192:240|160:320,1,225.000008583069
144,64,112121,1,0,0:0:0:0:
368,64,112277,1,0,0:0:0:0:
368,176,112433,1,0,0:0:0:0:
144,176,112590,5,0,0:0:0:0:
144,64,112746,1,0,0:0:0:0:
144,64,112824,1,0,0:0:0:0:
144,64,112902,1,0,0:0:0:0:
144,176,113058,2,0,L|384:176,1,225.000008583069
368,176,113371,6,0,L|128:176,1,225.000008583069
256,192,113683,12,0,114465,0:0:0:0:
64,320,115090,6,0,B|112:288|112:288|80:224|176:224,1,150
224,176,115558,6,0,P|240:128|208:96,1,75
176,48,115871,1,0,0:0:0:0:
336,48,116027,2,0,B|400:48|384:112|384:112|448:112,1,150
352,208,116496,6,0,P|320:256|336:288,1,75
368,132,116808,1,0,0:0:0:0:
368,132,116886,1,0,0:0:0:0:
368,132,116965,1,0,0:0:0:0:
256,220,117121,1,0,0:0:0:0:
160,176,117277,6,0,P|192:128|176:96,1,75
352,208,117590,2,0,P|320:256|336:288,1,75
352,176,117902,6,0,P|320:128|336:96,1,75
160,208,118215,2,0,P|192:256|176:288,1,75
304,304,118527,1,0,0:0:0:0:
304,304,118605,1,0,0:0:0:0:
304,304,118683,1,0,0:0:0:0:
368,256,118840,5,0,0:0:0:0:
368,256,118918,1,0,0:0:0:0:
368,256,118996,1,0,0:0:0:0:
408,184,119152,6,0,P|424:136|392:104,1,75
344,120,119465,2,0,P|328:72|360:40,1,75
96,80,120090,6,0,P|48:160|80:208,1,150
192,288,120402,1,0,0:0:0:0:
336,224,120558,1,0,0:0:0:0:
320,96,120715,1,0,0:0:0:0:
176,160,120871,1,0,0:0:0:0:
320,96,121027,1,0,0:0:0:0:
176,160,121183,1,0,0:0:0:0:
80,48,121340,6,0,B|176:32|176:32|208:96,1,150
320,272,121652,1,0,0:0:0:0:
448,96,121808,1,0,0:0:0:0:
224,96,121965,2,0,P|192:160|240:240,2,150
224,96,122433,1,0,0:0:0:0:
448,64,122590,6,0,L|384:208,1,150
320,336,122902,1,0,0:0:0:0:
176,336,123058,2,0,L|240:192,1,150
304,64,123370,1,0,0:0:0:0:
160,32,123527,2,0,L|96:176,1,150
32,304,123840,2,0,B|0:192|0:192|96:96,1,225.000008583069
176,112,124152,2,0,B|208:224|208:224|112:320,1,225.000008583069
32,304,124465,2,0,B|0:192|0:192|96:96,1,225.000008583069
176,112,124777,6,0,B|208:224|208:224|112:320,1,225.000008583069
256,80,125871,1,0,0:0:0:0:
256,80,126027,1,0,0:0:0:0:
256,80,126183,1,0,0:0:0:0:
128,80,126340,6,0,B|64:160|64:160|144:240|144:240|96:336,1,300
272,320,126652,2,0,B|304:160|304:160|432:224,1,300
384,48,126965,1,0,0:0:0:0:
352,96,127043,1,0,0:0:0:0:
320,144,127121,1,0,0:0:0:0:
256,336,127277,1,0,0:0:0:0:
224,288,127355,1,0,0:0:0:0:
192,240,127433,1,0,0:0:0:0:
160,16,127590,5,0,0:0:0:0:
128,64,127668,1,0,0:0:0:0:
96,112,127746,1,0,0:0:0:0:
64,160,127824,1,0,0:0:0:0:
32,208,127902,1,0,0:0:0:0:
80,320,128215,1,0,0:0:0:0:
184,256,128372,1,0,0:0:0:0:
300,224,128527,1,0,0:0:0:0:
416,260,128683,1,0,0:0:0:0:
464,288,128840,2,0,P|384:336|452:321,1,300
432,320,129152,5,0,0:0:0:0:
336,248,129309,1,0,0:0:0:0:
228,196,129464,1,0,0:0:0:0:
116,240,129620,1,0,0:0:0:0:
64,272,129777,2,0,B|96:112|96:112|208:192,1,300
416,64,130090,1,0,0:0:0:0:
400,112,130168,1,0,0:0:0:0:
384,160,130246,1,0,0:0:0:0:
368,208,130324,1,0,0:0:0:0:
352,256,130402,1,0,0:0:0:0:
112,336,130715,5,0,0:0:0:0:
128,272,130793,1,0,0:0:0:0:
144,208,130871,1,0,0:0:0:0:
160,144,130949,1,0,0:0:0:0:
176,80,131027,1,0,0:0:0:0:
208,304,131340,5,0,0:0:0:0:
256,80,131496,1,0,0:0:0:0:
304,304,131652,5,0,0:0:0:0:
256,80,131808,1,0,0:0:0:0:
96,256,131965,2,0,P|17:205|61:259,1,300
400,80,132277,1,0,0:0:0:0:
400,96,132355,1,0,0:0:0:0:
400,112,132433,1,0,0:0:0:0:
96,256,132590,2,0,B|96:208|96:256|96:256|96:224,1,75
96,256,133215,6,0,L|160:208,1,75
156,211,133527,1,0,0:0:0:0:
96,256,133683,1,0,0:0:0:0:
416,48,133840,2,0,B|368:128|368:128|432:192|432:192|384:304,1,300
416,48,134152,1,0,0:0:0:0:
96,336,134465,6,0,B|144:256|144:256|80:192|80:192|128:80,1,300
125,85,134777,1,0,0:0:0:0:
368,288,135090,5,0,0:0:0:0:
256,80,135246,1,0,0:0:0:0:
144,288,135402,1,0,0:0:0:0:
400,128,135558,1,0,0:0:0:0:
96,128,135715,1,0,0:0:0:0:
256,192,136027,5,0,0:0:0:0:
256,192,136340,12,0,138840,0:0:0:0:
232,88,141340,6,0,B|160:184|160:184|296:240,1,225.000008583069
176,132,141808,6,0,B|96:132|96:132|224:324,1,225.000008583069
248,236,142277,6,0,B|328:236|328:236|216:28,1,225.000008583069
300,168,142745,6,0,B|396:152|396:152|252:-24,1,225.000008583069
112,304,143215,5,0,0:0:0:0:
384,80,143527,1,0,0:0:0:0:
384,80,143840,5,0,0:0:0:0:
368,256,143996,1,0,0:0:0:0:
224,112,144309,5,0,0:0:0:0:
208,288,144465,1,0,0:0:0:0:
64,64,144777,5,0,0:0:0:0:
234,112,144933,1,0,0:0:0:0:
432,288,145246,5,0,0:0:0:0:
432,272,145324,1,0,0:0:0:0:
432,256,145402,2,0,B|432:144|432:144|336:80,1,225.000008583069
336,80,145793,1,0,0:0:0:0:
336,80,145871,1,0,0:0:0:0:
224,88,146027,2,0,B|128:88|128:88|128:168,1,168.750006437302
96,216,146340,6,0,L|32:216,2,56.2500021457673
128,200,146574,1,0,0:0:0:0:
160,216,146652,1,0,0:0:0:0:
192,200,146730,1,0,0:0:0:0:
224,216,146808,1,0,0:0:0:0:
256,200,146886,1,0,0:0:0:0:
304,216,146965,2,0,L|304:152,2,56.2500021457673
336,256,147199,1,0,0:0:0:0:
384,288,147277,6,0,L|384:352,2,56.2500021457673
432,256,147511,1,0,0:0:0:0:
464,208,147590,2,0,L|528:208,2,56.2500021457673
432,160,147824,1,0,0:0:0:0:
432,160,147902,1,0,0:0:0:0:
400,112,147980,1,0,0:0:0:0:
400,112,148058,1,0,0:0:0:0:
352,80,148136,1,0,0:0:0:0:
352,80,148215,2,0,P|352:32|320:64,1,112.500004291535
256,80,148449,1,0,0:0:0:0:
192,96,148527,2,0,P|192:144|224:112,1,112.500004291535
96,64,148840,5,0,0:0:0:0:
48,224,148996,1,0,0:0:0:0:
208,288,149152,5,0,0:0:0:0:
160,128,149308,1,0,0:0:0:0:
320,64,149465,5,0,0:0:0:0:
272,224,149621,1,0,0:0:0:0:
432,288,149777,5,0,0:0:0:0:
384,128,149933,1,0,0:0:0:0:
384,128,150090,5,0,0:0:0:0:
352,112,150168,1,0,0:0:0:0:
320,96,150246,1,0,0:0:0:0:
272,112,150324,1,0,0:0:0:0:
240,144,150402,1,0,0:0:0:0:
204,176,150480,5,0,0:0:0:0:
160,144,150558,1,0,0:0:0:0:
112,116,150636,1,0,0:0:0:0:
76,72,150715,1,0,0:0:0:0:
80,80,150871,5,0,0:0:0:0:
80,80,150949,1,0,0:0:0:0:
80,80,151027,2,0,B|48:144|48:144|80:208,1,112.500004291535
66,180,151261,5,0,0:0:0:0:
80,240,151340,2,0,L|0:240,2,56.2500021457673
128,272,151574,1,0,0:0:0:0:
176,304,151652,1,0,0:0:0:0:
224,336,151730,1,0,0:0:0:0:
272,304,151808,5,0,0:0:0:0:
320,272,151886,1,0,0:0:0:0:
368,240,151965,2,0,L|368:80,1,150
320,80,152199,1,0,0:0:0:0:
368,90,152277,2,0,L|368:256,1,150
416,256,152511,1,0,0:0:0:0:
416,208,152590,6,0,L|416:32,1,150
416,96,152824,1,0,0:0:0:0:
384,64,152902,1,0,0:0:0:0:
416,32,152980,1,0,0:0:0:0:
448,64,153058,1,0,0:0:0:0:
416,96,153136,1,0,0:0:0:0:
384,64,153215,5,0,0:0:0:0:
256,192,153371,1,0,0:0:0:0:
128,64,153527,5,0,0:0:0:0:
256,192,153683,1,0,0:0:0:0:
400,304,153840,2,0,L|320:144,1,150
400,304,154152,1,0,0:0:0:0:
332,169,154308,1,0,0:0:0:0:
112,80,154465,6,0,L|192:240,1,150
112,80,154777,1,0,0:0:0:0:
179,214,154933,1,0,0:0:0:0:
352,288,155090,5,0,0:0:0:0:
179,214,155246,1,0,0:0:0:0:
352,176,155402,1,0,0:0:0:0:
179,102,155558,1,0,0:0:0:0:
284,336,155715,5,0,0:0:0:0:
172,60,155871,1,0,0:0:0:0:
412,304,156027,1,0,0:0:0:0:
80,104,156183,1,0,0:0:0:0:
352,176,156340,5,0,0:0:0:0:
256,176,156652,1,0,0:0:0:0:
160,176,156965,1,0,0:0:0:0:
64,176,157277,5,0,0:0:0:0:
112,80,157590,2,0,B|208:32|208:32|272:64|272:64|288:128,2,225
76,240,158840,2,0,B|156:176|156:176|204:224|204:224|268:224,1,225
268,224,159386,1,0,0:0:0:0:
284,224,159465,1,0,0:0:0:0:
384,256,159777,1,0,0:0:0:0:
384,256,159933,1,0,0:0:0:0:
384,176,160090,2,0,P|352:160|304:160,1,75
280,220,160324,1,0,0:0:0:0:
208,240,160402,2,0,P|176:256|128:256,1,75
84,212,160636,1,0,0:0:0:0:
64,144,160715,2,0,P|73:109|105:73,1,75
168,92,160949,1,0,0:0:0:0:
224,48,161027,2,0,P|256:64|304:64,1,75
352,96,161261,1,0,0:0:0:0:
400,128,161340,5,0,0:0:0:0:
400,128,161418,1,0,0:0:0:0:
400,128,161496,1,0,0:0:0:0:
400,128,161574,1,0,0:0:0:0:
400,128,161652,1,0,0:0:0:0:
400,128,161730,1,0,0:0:0:0:
400,128,161808,1,0,0:0:0:0:
64,192,162121,2,0,B|112:192|112:192|112:192|112:192|112:192|112:192|96:192|96:192|112:192|112:192|80:192|80:192|96:192|96:192|96:192|96:192|96:192|96:192|64:192|64:192|112:192,1,187.5
112,192,162590,6,0,P|176:128|240:112,1,150
192,192,162980,1,0,0:0:0:0:
272,176,163058,6,0,P|208:240|144:256,1,150
192,192,163449,1,0,0:0:0:0:
112,192,163527,2,0,P|160:256|192:240,1,112.5
240,224,163840,6,0,P|272:160|208:128,1,150
272,96,164230,1,0,0:0:0:0:
352,112,164308,2,0,P|320:48|388:52,1,150
375,38,164699,1,0,0:0:0:0:
375,38,164777,1,0,0:0:0:0:
256,192,165090,12,0,166340,0:0:0:0:
256,197,167277,6,0,B|256:101|256:101|256:181|256:181|256:45|256:45|256:21,1,300
256,197,167746,1,0,0:0:0:0:
256,197,167902,2,0,L|256:32,1,150
256,47,168371,5,0,0:0:0:0:
256,47,168527,2,0,B|256:208|256:208|256:56,1,300
256,47,168996,1,0,0:0:0:0:
256,47,169152,2,0,L|256:208,1,150
256,47,169777,1,0,0:0:0:0:
136,288,169933,1,0,0:0:0:0:
344,120,170090,1,0,0:0:0:0:
344,120,170402,2,0,B|208:112|352:288|160:280,1,225,0|2,0:0|0:0,0:0:0:0:
168,272,170715,6,0,B|104:216|104:216|144:128|144:128|104:88,1,225,0|2,0:0|0:0,0:0:0:0:
96,48,171027,6,0,P|176:112|176:88,1,225,0|2,0:0|0:0,0:0:0:0:
232,112,171340,6,0,B|264:88|328:48|312:160,1,150
312,160,171808,1,0,0:0:0:0:
312,168,171965,1,0,0:0:0:0:
312,336,172277,2,0,L|312:256,1,75
312,48,172590,2,0,L|232:96,1,75
64,192,172902,1,0,0:0:0:0:
240,304,173058,1,0,0:0:0:0:
296,104,173215,1,0,0:0:0:0:
88,120,173371,5,0,0:0:0:0:
264,232,173527,1,0,0:0:0:0:
320,32,173684,1,0,0:0:0:0:
64,192,173840,1,0,0:0:0:0:
296,104,173996,1,0,0:0:0:0:
64,192,174152,1,0,0:0:0:0:
296,104,174308,1,0,0:0:0:0:
64,192,174465,2,0,L|144:136,1,75
64,192,175090,1,0,0:0:0:0:
240,80,175246,1,0,0:0:0:0:
296,280,175403,1,0,0:0:0:0:
88,264,175559,5,0,0:0:0:0:
264,152,175715,1,0,0:0:0:0:
320,352,175872,1,0,0:0:0:0:
184,192,176027,1,0,0:0:0:0:
320,352,176183,1,0,0:0:0:0:
320,352,176340,2,0,P|336:240|352:352,1,300
112,264,176652,2,0,P|96:152|80:264,1,300
288,112,176965,5,0,0:0:0:0:
288,112,177121,1,0,0:0:0:0:
320,176,177199,1,0,0:0:0:0:
312,248,177277,1,0,0:0:0:0:
280,312,177355,1,0,0:0:0:0:
216,344,177433,1,0,0:0:0:0:
72,72,177590,2,0,B|24:144|24:144|120:224|120:224|64:304,1,300
24,144,178058,6,0,B|107:168|107:168|84:291|84:291|179:316,1,300
440,312,178527,6,0,B|488:240|488:240|392:160|392:160|448:80,1,300
368,184,178996,6,0,L|248:288,1,150
254,282,179152,2,0,L|134:178,1,150
140,183,179308,2,0,L|260:79,1,150
253,84,179465,2,0,L|366:182,1,150
64,168,179777,6,0,P|80:112|112:104,1,75
208,168,180090,2,0,P|192:112|160:104,1,75
192,256,180402,2,0,P|208:312|240:320,1,75
272,112,180715,2,0,L|224:16,1,75
224,192,181027,2,0,L|272:288,1,75
128,176,181340,2,0,L|80:80,1,75
234,229,181965,5,0,0:0:0:0:
234,154,182121,1,0,0:0:0:0:
299,192,182277,1,0,0:0:0:0:
299,267,182433,5,0,0:0:0:0:
299,192,182589,1,0,0:0:0:0:
363,229,182745,1,0,0:0:0:0:
299,192,182902,5,0,0:0:0:0:
299,267,183058,1,0,0:0:0:0:
234,229,183214,1,0,0:0:0:0:
234,154,183370,5,0,0:0:0:0:
234,229,183526,1,0,0:0:0:0:
170,192,183682,1,0,0:0:0:0:
234,154,183840,2,0,B|314:154|314:154|242:154|242:154|410:154,1,300
84,308,185090,5,0,0:0:0:0:
96,300,185246,1,0,0:0:0:0:
108,292,185402,1,0,0:0:0:0:
140,272,185558,1,0,0:0:0:0:
172,252,185715,2,0,L|436:100,1,300
304,176,186027,1,0,0:0:0:0:
431,102,186340,1,0,0:0:0:0:
160,104,186965,1,0,0:0:0:0:
160,240,187121,1,0,0:0:0:0:
296,240,187277,1,0,0:0:0:0:
296,104,187433,1,0,0:0:0:0:
160,104,187590,2,0,B|116:116|104:168|120:224|168:236,1,150
364,226,188215,2,0,B|392:224|408:168|396:116|352:104,1,150
301,316,188840,5,0,0:0:0:0:
440,52,188996,1,0,0:0:0:0:
100,288,189152,1,0,0:0:0:0:
272,44,189308,1,0,0:0:0:0:
224,340,189465,5,0,0:0:0:0:
152,48,189777,2,0,B|16:104|244:224|112:312,1,300
208,296,190011,1,0,0:0:0:0:
280,296,190090,2,0,P|344:196|312:304,1,300
420,236,190324,1,0,0:0:0:0:
464,176,190402,6,0,P|404:80|436:188,1,300
256,68,190715,1,0,0:0:0:0:
256,100,191027,1,0,0:0:0:0:
256,132,191340,2,0,B|256:176|256:176|256:160|256:160|256:196,1,75
144,244,191965,5,0,0:0:0:0:
308,116,192121,1,0,0:0:0:0:
144,244,192277,1,0,0:0:0:0:
72,44,192433,1,0,0:0:0:0:
251,62,192590,6,0,P|276:100|252:140,1,75
251,62,192902,1,0,0:0:0:0:
364,240,193058,1,0,0:0:0:0:
156,340,193215,6,0,P|128:308|136:264,1,75
388,308,193527,1,0,0:0:0:0:
264,140,193683,1,0,0:0:0:0:
212,192,193761,1,0,0:0:0:0:
156,244,193840,1,0,0:0:0:0:
260,344,193996,1,0,0:0:0:0:
212,88,194152,1,0,0:0:0:0:
264,140,194230,1,0,0:0:0:0:
320,192,194309,1,0,0:0:0:0:
320,40,194465,6,0,B|452:144|260:208|432:360,2,300
120,284,195090,2,0,B|84:320|84:320|116:288,1,75
392,100,195402,2,0,B|428:64|428:64|396:96,1,75
120,100,195715,2,0,B|84:64|84:64|101:81,1,75
392,284,196027,2,0,B|428:320|428:320|410:302,1,75
76,244,196340,1,0,0:0:0:0:
76,276,196418,1,0,0:0:0:0:
76,244,196496,1,0,0:0:0:0:
388,56,196965,5,0,0:0:0:0:
388,92,197121,1,0,0:0:0:0:
388,128,197277,2,0,L|388:212,1,75
152,68,197590,2,0,B|84:144|84:144|176:220|176:220|128:288,1,300
152,68,197902,1,0,0:0:0:0:
277,124,198215,2,0,B|176:143|176:143|204:259|204:259|125:285,1,300
277,124,198527,1,0,0:0:0:0:
96,252,198840,6,0,L|100:88,1,150
96,252,198996,2,0,L|145:95,1,150
96,252,199152,2,0,L|186:115,1,150
96,252,199308,2,0,L|220:145,1,150
96,252,199465,2,0,L|245:183,1,150
372,304,199777,6,0,P|400:276|396:228,1,75
180,40,200090,2,0,B|24:52|24:52|-4:212,1,300
372,80,200402,6,0,P|400:108|396:156,1,75
180,344,200715,2,0,B|24:332|24:332|-4:172,1,300
400,44,201027,6,0,B|252:116|476:208|252:332,1,300
48,160,201340,6,0,L|172:72,1,150
171,73,201496,2,0,L|188:239,1,150
186,222,201652,2,0,L|310:134,1,150
309,135,201808,2,0,L|326:301,1,150
324,284,201965,2,0,L|448:196,1,150
56,192,202277,2,0,P|80:160|120:160,1,75
172,192,202511,1,0,0:0:0:0:
236,220,202590,2,0,P|265:193|304:200,1,75
360,224,202824,1,0,0:0:0:0:
368,292,202902,2,0,P|338:318|299:311,1,75
244,284,203136,1,0,0:0:0:0:
176,272,203215,2,0,B|136:324|112:288|176:272,1,75
176,272,203449,1,0,0:0:0:0:
176,272,203527,2,0,B|328:268|172:56|336:68,1,300
256,192,204777,5,0,0:0:0:0:
256,192,204933,1,0,0:0:0:0:
428,32,205090,2,0,B|361:168|361:168|389:111|389:111|378:132|378:132|370:150|370:150|396:96|396:96|382:125|382:125|375:139|375:139|366:157|366:157|406:75|406:75|347:197,1,600
148,308,205558,1,0,0:0:0:0:
96,275,205636,1,0,0:0:0:0:
49,239,205715,1,0,0:0:0:0:
340,196,205871,5,0,0:0:0:0:
488,92,206027,1,0,0:0:0:0:
312,132,206183,5,0,0:0:0:0:
156,36,206340,1,0,0:0:0:0:
200,232,206496,1,0,0:0:0:0:
247,268,206575,1,0,0:0:0:0:
299,301,206653,1,0,0:0:0:0:
200,132,206808,5,0,0:0:0:0:
356,36,206965,1,0,0:0:0:0:
312,232,207121,1,0,0:0:0:0:
265,268,207200,1,0,0:0:0:0:
213,301,207278,1,0,0:0:0:0:
436,352,207590,6,0,B|366:217|366:217|395:273|395:273|384:252|384:252|375:235|375:235|402:288|402:288|388:259|388:259|381:245|381:245|371:228|371:228|413:309|413:309|358:200,1,600
308,120,208058,1,0,0:0:0:0:
280,68,208136,1,0,0:0:0:0:
252,16,208215,1,0,0:0:0:0:
108,168,208371,1,0,0:0:0:0:
252,16,208527,1,0,0:0:0:0:
108,168,208683,1,0,0:0:0:0:
252,16,208840,1,0,0:0:0:0:
356,196,208996,1,0,0:0:0:0:
384,248,209075,1,0,0:0:0:0:
412,300,209153,1,0,0:0:0:0:
216,228,209308,5,0,0:0:0:0:
252,16,209465,1,0,0:0:0:0:
156,196,209621,1,0,0:0:0:0:
128,248,209700,1,0,0:0:0:0:
100,300,209778,1,0,0:0:0:0:
296,228,209933,5,0,0:0:0:0:
420,312,210090,2,0,L|312:192,1,150
152,72,210558,1,0,0:0:0:0:
130,128,210636,1,0,0:0:0:0:
108,184,210715,1,0,0:0:0:0:
316,68,210871,1,0,0:0:0:0:
108,184,211027,1,0,0:0:0:0:
380,312,211183,2,0,L|342:306,1,37.5
312,284,211340,5,0,0:0:0:0:
312,284,211418,1,0,0:0:0:0:
312,284,211496,1,0,0:0:0:0:
312,284,211574,1,0,0:0:0:0:
312,284,211652,5,0,0:0:0:0:
284,308,211730,1,0,0:0:0:0:
246,312,211808,1,0,0:0:0:0:
209,317,211886,1,0,0:0:0:0:
188,288,211965,1,0,0:0:0:0:
151,278,212043,1,0,0:0:0:0:
120,300,212121,2,0,P|72:296|64:256,1,75,0|4,0:0|0:0,0:0:0:0:
116,104,212433,2,0,P|280:92|384:224,1,300
324,296,212902,2,0,B|188:232|188:232|196:68,2,300
120,280,213527,2,0,P|176:232|148:272,1,300
192,72,213840,2,0,L|352:128,1,150
334,122,213996,2,0,L|174:178,1,150
192,171,214152,2,0,L|352:227,1,150
333,220,214308,2,0,L|173:276,1,150
191,269,214465,2,0,L|351:325,1,150
256,192,215090,2,0,B|256:152|256:152|256:196,1,75
256,192,215402,2,0,B|256:232|256:232|256:188,1,75
256,192,215715,1,0,0:0:0:0:
256,192,216027,12,0,219777,0:0:0:0:
