osu file format v14

[General]
AudioFilename: audio.mp3
AudioLeadIn: 0
PreviewTime: 93715
Countdown: 0
SampleSet: Soft
StackLeniency: 0.5
Mode: 0
LetterboxInBreaks: 0
WidescreenStoryboard: 1

[Editor]
Bookmarks: 3056,18880,34704,50528,70308,86132,94045,109869,125693,145473,161297,167231,187012,194924,206792,222616,224594,240418
DistanceSpacing: 1
BeatDivisor: 4
GridSize: 32
TimelineZoom: 2

[Metadata]
Title:Ryokugan no Kemono
TitleUnicode:緑眼の獣
Artist:Liz Triangle
ArtistUnicode:Liz Triangle
Creator:Mirash
Version:Trynna's Insane
Source:東方地霊殿 ~ Subterranean Animism.
Tags:pandahero trynna lily-an parsee mizuhashi 水橋 パルスィ kaztora eba azuki 緑眼のジェラシー 神風 Divine Wind c77 77 doujin Misaki Nakajima Green Eyed Beast touhou zun
BeatmapID:1507908
BeatmapSetID:661455

[Difficulty]
HPDrainRate:6
CircleSize:4
OverallDifficulty:7.5
ApproachRate:8.5
SliderMultiplier:1.45
SliderTickRate:1

[Events]
//Background and Video events
0,0,"bg.jpg",0,0
//Break Periods
2,187012,192930
//Storyboard Layer 0 (Background)
//Storyboard Layer 1 (Fail)
//Storyboard Layer 2 (Pass)
//Storyboard Layer 3 (Foreground)
//Storyboard Sound Samples

[TimingPoints]
3056,329.67032967033,3,2,3,70,1,0
18880,-125,3,2,3,40,0,0
25803,-125,3,2,3,30,0,0
26462,-125,3,2,3,40,0,0
26792,-125,3,2,3,40,0,0
34045,-125,3,2,3,50,0,0
34704,-111.111111111111,3,2,3,50,0,0
38001,-111.111111111111,3,2,3,40,0,0
38083,-111.111111111111,3,2,3,50,0,0
46572,-111.111111111111,3,2,3,50,0,0
47561,-111.111111111111,3,2,3,50,0,0
49539,-111.111111111111,3,2,3,50,0,0
50528,-100,3,2,3,50,0,0
51517,-100,3,2,3,50,0,0
54484,-100,3,2,3,50,0,0
55473,-100,3,2,3,50,0,0
58440,-100,3,2,3,50,0,0
59429,-100,3,2,3,50,0,0
61077,-100,3,2,3,55,0,0
61407,-100,3,2,3,60,0,0
62396,-100,3,2,3,60,0,0
69979,-100,3,2,3,60,0,0
70308,-83.3333333333333,3,2,4,70,0,1
86132,-100,3,2,3,60,0,0
87121,-133.333333333333,3,2,3,60,0,0
89759,-100,3,2,3,60,0,0
91737,-100,3,2,3,60,0,0
94045,-125,3,2,3,40,0,0
100968,-125,3,2,3,20,0,0
101627,-125,3,2,3,40,0,0
101957,-125,3,2,3,40,0,0
109209,-125,3,2,3,50,0,0
109869,-111.111111111111,3,2,3,50,0,0
113165,-111.111111111111,3,2,3,40,0,0
113248,-111.111111111111,3,2,3,50,0,0
121737,-111.111111111111,3,2,3,50,0,0
122726,-111.111111111111,3,2,3,50,0,0
125034,-111.111111111111,3,2,3,50,0,0
125693,-100,3,2,3,50,0,0
126682,-100,3,2,3,50,0,0
129649,-100,3,2,3,50,0,0
130638,-100,3,2,3,50,0,0
133605,-100,3,2,3,50,0,0
134594,-100,3,2,3,50,0,0
136242,-100,3,2,3,55,0,0
136572,-100,3,2,3,60,0,0
137561,-100,3,2,3,60,0,0
145473,-83.3333333333333,3,2,4,70,0,1
161297,-100,3,2,3,60,0,0
167891,-100,3,2,3,70,0,0
175143,-100,3,2,3,70,0,0
185034,-100,3,2,3,70,0,0
186023,-100,3,2,3,70,0,0
187012,-125,3,2,3,70,0,0
193605,-125,3,2,3,50,0,0
194594,-125,3,2,3,50,0,0
194924,-105.263157894737,3,2,3,50,0,0
206792,-83.3333333333333,3,2,4,70,0,1
221957,-83.3333333333333,3,2,3,70,0,1
222286,-83.3333333333333,3,2,3,70,0,0
222616,-83.3333333333333,3,2,3,70,0,1
222781,-83.3333333333333,3,2,3,70,0,0
222946,-83.3333333333333,3,2,3,70,0,1
223110,-83.3333333333333,3,2,3,70,0,0
223605,-83.3333333333333,3,2,4,70,0,0
224594,-83.3333333333333,3,2,4,70,0,1
240418,-200,3,2,3,70,0,0
241077,-200,3,2,3,70,0,0
241407,331.491712707182,3,2,5,30,1,0
241407,-200,3,2,5,30,0,0
242401,340.909090909091,4,2,5,30,1,0
242401,-200,4,2,5,30,0,0
243594,352.941176470588,4,2,5,30,1,0
243594,-200,4,2,5,30,0,0
243770,348.837209302326,4,2,5,30,1,0
243944,-200,4,2,5,30,0,0
244118,361.44578313253,4,2,5,30,1,0
244479,372.670807453416,4,2,5,30,1,0
244479,-200,4,2,5,30,0,0
245597,365.853658536585,4,2,5,30,1,0
245597,-200,4,2,5,30,0,0
245779,-200,4,2,5,30,0,0
246145,389.61038961039,4,2,5,30,1,0
246145,-200,4,2,5,30,0,0
246339,405.405405405405,4,2,5,30,1,0
246541,387.096774193548,4,2,5,30,1,0
246928,400,4,2,5,30,1,0
246928,-200,4,2,5,30,0,0
247128,394.736842105263,4,2,5,30,1,0
247325,425.531914893617,4,2,5,30,1,0
247325,-200,4,2,5,30,0,0
247537,365.853658536585,4,2,5,30,1,0
247719,431.654676258993,4,2,5,30,1,0
247934,447.761194029851,4,2,5,25,1,0
247934,-200,4,2,5,25,0,0
248829,512.820512820513,4,2,5,20,1,0
249341,500,4,2,5,20,1,0
249341,-200,4,2,5,20,0,0
249591,379.746835443038,4,2,5,20,1,0
249970,394.736842105263,4,2,5,20,1,0
250167,-200,4,2,5,20,0,0
250956,402.684563758389,4,2,5,20,1,0
251761,434.782608695652,4,2,5,20,1,0
251761,-200,4,2,5,20,0,0
251978,397.350993377483,4,2,5,20,1,0
252176,392.156862745098,4,2,5,20,1,0
252372,410.958904109589,4,2,5,20,1,0
252577,-200,4,2,5,20,0,0
252988,425.531914893617,4,2,5,20,1,0
252988,-200,4,2,5,20,0,0
253413,416.666666666667,4,2,5,20,1,0
253829,379.746835443038,4,2,5,20,1,0
254208,431.654676258993,4,2,5,15,1,0
254315,588.235294117647,4,2,5,15,1,0
254903,441.176470588235,4,2,5,15,1,0
255344,352.941176470588,4,2,5,15,1,0
255520,370.37037037037,4,2,5,15,1,0
255766,454.545454545455,4,2,5,15,1,0
256220,504.201680672269,4,2,5,15,1,0
256220,-200,4,2,5,15,0,0
256724,361.44578313253,4,2,5,15,1,0
257085,372.670807453416,4,2,5,15,1,0
257395,521.739130434783,4,2,5,15,1,0
258438,666.666666666667,4,2,5,10,1,0
258438,-200,4,2,5,10,0,0

[Colours]
Combo1 : 16,205,101
Combo2 : 100,148,48
Combo3 : 62,130,99
Combo4 : 0,130,130

[HitObjects]
68,187,3056,6,0,P|128:167|204:191,1,145,4|0,1:0|0:0,0:0:0:0:
208,195,3550,1,0,0:0:0:0:
204,288,3715,1,2,0:3:0:0:
297,292,3880,1,0,0:0:0:0:
376,184,4045,6,0,P|383:148|375:112,1,72.5,2|0,0:0|0:0,0:0:0:0:
367,28,4374,2,0,P|331:39|304:63,1,72.5,2|0,0:0|0:0,0:0:0:0:
235,112,4704,2,0,P|262:136|297:147,1,72.5,0|0,1:0|0:0,0:0:0:0:
224,24,5034,2,0,L|152:32,1,72.5,2|0,0:0|0:0,0:0:0:0:
84,104,5363,2,0,L|91:212,1,108.75,2|0,0:0|0:0,0:0:0:0:
84,236,5693,6,0,L|156:228,1,72.5,2|0,0:3|0:0,0:0:0:0:
280,336,6023,6,0,P|221:297|156:322,2,145,4|4|2,3:0|0:0|1:0,0:0:0:0:
356,296,6847,1,0,0:0:0:0:
476,352,7012,6,2,L|476:208,1,145,6|2,1:0|0:0,1:0:0:0:
473,204,7506,1,0,0:0:0:0:
413,129,7671,1,2,0:3:0:0:
377,217,7836,1,0,0:0:0:0:
456,64,8001,6,0,P|424:52|384:56,1,72.5,4|0,0:3|0:0,0:0:0:0:
324,108,8330,2,0,P|290:120|254:116,1,72.5,0|0,0:0|0:0,0:0:0:0:
172,80,8660,2,0,L|176:8,1,72.5,0|0,1:0|0:0,0:0:0:0:
104,136,8990,2,0,L|111:280,1,145,4|2,0:3|0:0,0:0:0:0:
60,344,9484,1,0,0:0:0:0:
188,320,9649,6,0,P|223:315|259:323,1,72.5,0|0,1:0|0:0,0:0:0:0:
348,352,9979,1,4,0:3:0:0:
448,284,10143,1,0,0:0:0:0:
344,240,10308,1,4,0:3:0:0:
432,372,10473,1,0,1:0:0:0:
428,204,10638,1,4,0:3:0:0:
288,296,10803,1,2,0:0:0:0:
231,207,10968,6,0,P|234:169|231:135,1,72.5,4|0,1:0|0:0,0:0:0:0:
304,60,11297,1,0,0:0:0:0:
216,20,11462,1,2,0:1:0:0:
119,32,11627,2,0,P|85:41|54:61,1,72.5,2|0,0:3|0:0,0:0:0:0:
120,192,11957,6,0,L|120:120,1,72.5,4|0,0:3|0:0,0:0:0:0:
32,152,12286,2,0,L|32:224,1,72.5,2|0,0:0|0:0,0:0:0:0:
108,288,12616,2,0,L|180:284,1,72.5,0|0,1:1|0:0,0:0:0:0:
268,328,12946,2,0,P|277:292|272:256,1,72.5,4|0,0:3|0:0,0:0:0:0:
344,192,13275,2,0,L|344:83,1,108.75,2|0,0:0|0:0,0:0:0:0:
360,64,13605,6,0,P|397:53|444:56,1,72.5,2|0,0:3|0:0,0:0:0:0:
256,28,13935,2,0,L|108:40,2,145,4|4|0,0:3|0:2|1:0,0:0:0:0:
268,120,14759,1,0,0:0:0:0:
191,192,14924,6,0,P|129:223|63:199,1,145,4|0,1:0|0:0,0:0:0:0:
124,136,15418,1,2,0:0:0:0:
208,208,15583,2,0,L|208:280,1,72.5,2|0,0:3|0:0,0:0:0:0:
360,360,15913,1,4,0:0:0:0:
296,280,16077,1,0,0:0:0:0:
236,364,16242,5,4,1:0:0:0:
380,280,16407,1,8,0:0:0:0:
292,192,16572,2,0,P|289:153|292:120,1,72.5,4|8,1:0|0:0,0:0:0:0:
392,44,16902,1,8,1:0:0:0:
400,64,17066,1,0,1:0:0:0:
278,14,17231,1,8,1:0:0:0:
271,26,17314,1,8,1:0:0:0:
264,39,17396,1,8,1:0:0:0:
140,28,17561,5,0,1:0:0:0:
156,112,17726,1,8,0:0:0:0:
75,80,17891,2,0,P|62:113|60:149,1,72.5,2|0,1:0|0:0,0:0:0:0:
135,222,18220,2,2,B|96:164|24:204|24:204|52:248|29:289,1,217.5,0|0,1:0|0:0,1:0:0:0:
84,360,18880,6,0,L|208:352,1,116,4|2,0:3|0:0,0:0:0:0:
256,296,19374,1,0,0:0:0:0:
368,360,19539,2,0,L|304:356,1,58,2|0,0:0|0:0,0:0:0:0:
403,279,19869,2,0,P|362:241|350:185,2,116,0|2|0,0:0|0:0|0:0,0:0:0:0:
468,228,20693,1,0,1:0:0:0:
492,144,20858,6,0,L|491:83,1,58,8|0,1:0|0:0,0:0:0:0:
414,53,21187,2,0,L|414:113,1,58,2|0,0:0|0:0,0:0:0:0:
336,36,21517,2,0,P|307:31|278:31,1,58,2|0,0:0|0:0,0:0:0:0:
204,76,21847,1,4,0:0:0:0:
152,132,22012,1,0,0:0:0:0:
176,204,22176,1,0,0:0:0:0:
232,152,22341,1,0,0:0:0:0:
132,124,22506,1,2,0:0:0:0:
256,156,22671,1,0,1:0:0:0:
164,224,22836,6,0,L|176:344,1,116,8|2,1:0|0:0,0:0:0:0:
248,372,23330,1,0,0:0:0:0:
320,336,23495,2,0,P|349:330|378:336,1,58,2|0,0:0|0:0,0:0:0:0:
424,216,23825,2,0,P|419:244|424:272,1,58,0|0,0:0|0:0,0:0:0:0:
500,244,24154,1,2,0:0:0:0:
500,160,24319,1,0,0:0:0:0:
420,124,24484,1,2,0:0:0:0:
344,164,24649,1,0,1:0:0:0:
252,104,24814,6,0,P|200:80|142:96,1,116,8|0,1:0|1:0,0:0:0:0:
192,160,25308,1,0,0:0:0:0:
76,212,25473,2,0,P|108:208|136:212,1,58,2|0,0:0|0:0,0:0:0:0:
256,244,25803,1,4,1:2:0:0:
256,244,26462,1,2,0:0:0:0:
316,296,26627,1,0,0:0:0:0:
400,248,26792,6,0,L|396:132,1,116,4|0,1:2|0:0,0:0:0:0:
436,60,27286,1,0,0:0:0:0:
344,20,27451,2,0,P|315:19|286:25,1,58,2|2,0:0|0:0,0:0:0:0:
200,76,27781,2,0,P|146:54|91:68,2,116,2|2|2,0:0|0:0|0:0,0:0:0:0:
288,240,28770,6,0,B|300:184|300:184|288:124,1,116,8|0,0:1|0:0,0:0:0:0:
212,156,29264,1,0,0:0:0:0:
136,188,29429,2,0,L|140:248,1,58,2|2,0:0|0:0,0:0:0:0:
204,344,29759,2,0,L|84:332,2,116,2|2|2,0:0|0:0|0:0,0:0:0:0:
272,288,30583,1,0,1:0:0:0:
360,360,30748,6,0,P|356:301|360:244,1,116,8|2,0:1|0:0,0:0:0:0:
420,188,31242,1,0,0:0:0:0:
492,228,31407,1,2,0:0:0:0:
492,144,31572,1,0,0:0:0:0:
412,96,31737,2,0,B|367:82|367:82|296:96,1,116,2|2,0:0|0:0,0:0:0:0:
195,16,32396,2,0,P|190:44|195:72,1,58,2|0,0:0|1:0,0:0:0:0:
196,152,32726,5,8,0:1:0:0:
111,293,33056,1,0,0:0:0:0:
30,149,33385,1,2,0:0:0:0:
112,200,33550,1,2,0:0:0:0:
111,293,33715,1,2,0:0:0:0:
204,248,33880,5,0,0:0:0:0:
276,296,34045,1,0,0:0:0:0:
292,296,34127,1,0,1:0:0:0:
308,296,34209,1,8,1:0:0:0:
356,224,34374,1,4,0:3:0:0:
392,340,34539,1,4,0:3:0:0:
440,236,34704,6,0,P|425:174|372:140,1,130.499996017456,4|4,1:0|0:3,0:0:0:0:
300,96,35198,1,0,0:0:0:0:
268,12,35363,2,0,P|300:16|333:12,1,65.2499980087281,0|0,0:0|0:0,0:0:0:0:
204,84,35693,2,0,L|72:76,2,130.499996017456,0|4|8,1:0|0:0|1:0,0:0:0:0:
236,172,36517,1,0,0:0:0:0:
152,216,36682,6,0,P|120:206|87:208,1,65.2499980087281,0|0,1:0|0:0,0:0:0:0:
72,336,37012,2,0,P|96:313|110:283,1,65.2499980087281,4|2,0:3|0:0,0:0:0:0:
8,206,37341,2,0,P|15:238|34:265,1,65.2499980087281,2|0,0:0|0:0,0:0:0:0:
188,304,37671,2,0,L|332:300,1,130.499996017456,0|6,1:0|0:0,0:0:0:0:
448,328,38248,1,0,0:0:0:0:
448,328,38330,2,0,P|442:295|444:252,1,65.2499980087281,8|0,1:0|0:0,0:0:0:0:
448,168,38660,5,0,1:0:0:0:
352,192,38825,1,0,0:0:0:0:
376,96,38990,1,4,0:3:0:0:
472,72,39154,1,2,0:0:0:0:
320,28,39319,2,0,P|288:22|255:26,1,65.2499980087281,2|0,0:0|0:0,0:0:0:0:
180,84,39649,1,0,1:0:0:0:
264,180,39814,2,0,B|272:148|272:148|264:112,1,65.2499980087281,2|4,0:3|0:0,0:0:0:0:
180,84,40143,1,0,0:0:0:0:
112,180,40308,2,0,P|76:186|44:180,1,65.2499980087281,8|0,1:0|0:0,0:0:0:0:
188,240,40638,6,0,P|212:296|188:364,1,130.499996017456,4|0,0:3|1:0,0:0:0:0:
288,336,41132,1,8,1:0:0:0:
372,360,41297,1,8,1:0:0:0:
464,236,41627,1,4,1:2:0:0:
464,236,42286,2,0,L|464:170,1,65.2499980087281,12|0,1:0|0:0,0:0:0:0:
388,108,42616,6,0,P|328:132|268:108,1,130.499996017456,4|8,1:3|1:0,0:0:0:0:
328,44,43110,1,2,0:0:0:0:
228,32,43275,2,0,L|160:40,1,65.2499980087281,2|0,0:0|0:0,0:0:0:0:
60,12,43605,2,0,P|65:78|74:141,1,130.499996017456,4|4,0:3|0:3,0:0:0:0:
74,141,44264,2,0,P|68:171|64:208,1,65.2499980087281,12|0,1:0|0:0,0:0:0:0:
136,272,44594,6,0,P|194:247|254:270,1,130.499996017456,4|8,1:3|1:0,0:0:0:0:
324,224,45088,1,2,0:0:0:0:
408,284,45253,2,0,L|400:364,1,65.2499980087281,2|0,0:0|0:0,0:0:0:0:
488,252,45583,2,0,P|472:216|464:116,1,130.499996017456,4|4,0:3|0:3,0:0:0:0:
392,24,46160,1,0,1:0:0:0:
392,24,46242,2,0,P|356:28|324:24,1,65.2499980087281,12|0,1:0|0:0,0:0:0:0:
228,56,46572,6,0,B|164:44|164:44|97:56,2,130.499996017456,4|0|0,1:3|1:0|0:0,0:0:0:0:
168,256,47561,2,0,P|144:196|164:132,1,130.499996017456,4|2,0:3|0:0,0:0:0:0:
232,192,48056,1,0,0:0:0:0:
312,148,48220,2,0,L|384:148,1,65.2499980087281,8|0,1:0|0:0,0:0:0:0:
484,248,48550,5,4,0:3:0:0:
484,248,49045,1,8,1:0:0:0:
412,292,49209,1,4,0:3:0:0:
412,376,49374,1,0,0:0:0:0:
332,332,49539,1,4,0:0:0:0:
312,332,49704,1,2,1:2:0:0:
240,380,49869,5,8,1:0:0:0:
240,284,50034,1,8,1:0:0:0:
292,204,50198,1,4,1:3:0:0:
184,184,50363,1,4,1:3:0:0:
296,112,50528,6,0,L|376:124,1,72.5,4|0,1:0|0:0,0:0:0:0:
416,48,50858,2,0,L|336:36,1,72.5,4|0,1:0|0:0,0:0:0:0:
164,20,51352,1,0,1:0:0:0:
152,32,51435,1,8,1:0:0:0:
140,44,51517,2,0,L|143:116,1,72.5,6|0,0:0|0:0,0:0:0:0:
44,88,51847,2,0,L|40:160,1,72.5,2|0,0:0|0:0,0:0:0:0:
120,216,52176,1,8,1:0:0:0:
120,304,52341,1,0,1:0:0:0:
208,260,52506,6,0,P|244:252|280:260,1,72.5,4|0,0:3|0:0,0:0:0:0:
336,344,52836,2,0,P|311:316|299:281,1,72.5,2|0,0:0|0:0,0:0:0:0:
344,191,53165,2,0,P|332:226|307:253,1,72.5,8|4,1:0|0:3,0:0:0:0:
196,172,53495,1,8,1:0:0:0:
196,172,53825,5,8,1:0:0:0:
196,76,53990,1,2,1:2:0:0:
284,116,54154,1,8,1:0:0:0:
340,40,54319,1,8,1:0:0:0:
452,76,54484,6,0,P|456:111|450:147,1,72.5,12|0,1:0|0:0,0:0:0:0:
368,183,54814,2,0,P|363:147|369:111,1,72.5,8|0,1:0|0:0,0:0:0:0:
476,256,55308,1,0,1:0:0:0:
472,272,55391,1,8,1:0:0:0:
468,288,55473,2,0,L|395:288,1,72.5,0|0,1:0|0:0,0:0:0:0:
360,368,55803,2,0,L|432:368,1,72.5,4|0,0:3|0:0,0:0:0:0:
304,292,56132,1,8,1:0:0:0:
256,368,56297,1,0,0:0:0:0:
196,280,56462,6,0,L|196:208,1,72.5,4|2,1:3|0:0,0:0:0:0:
108,208,56792,2,0,L|108:280,1,72.5,4|0,0:3|0:0,0:0:0:0:
212,184,57121,2,0,P|216:148|212:112,1,72.5,8|0,1:0|1:0,0:0:0:0:
76,112,57451,1,4,1:0:0:0:
76,112,57781,5,8,1:0:0:0:
76,28,57946,1,8,1:0:0:0:
172,84,58110,1,8,1:0:0:0:
196,84,58193,1,0,0:0:0:0:
220,84,58275,1,0,1:0:0:0:
244,84,58358,1,8,1:0:0:0:
267,64,58440,6,0,P|304:61|339:69,1,72.5,12|0,1:0|0:0,0:0:0:0:
432,48,58770,2,0,P|424:83|426:119,1,72.5,8|0,1:0|0:0,0:0:0:0:
300,192,59264,1,0,1:0:0:0:
304,208,59347,1,0,1:0:0:0:
308,224,59429,2,0,L|304:312,1,72.5,4|0,1:2|0:0,0:0:0:0:
228,356,59759,2,0,L|140:352,1,72.5,4|0,0:3|0:0,0:0:0:0:
96,272,60088,1,8,1:0:0:0:
188,276,60253,1,2,0:0:0:0:
156,132,60418,6,0,P|147:168|146:203,1,72.5,4|0,0:3|0:0,0:0:0:0:
52,92,60748,2,0,P|60:128|61:163,1,72.5,0|0,1:0|0:0,0:0:0:0:
128,48,61077,2,0,L|204:52,1,72.5,8|0,1:0|0:0,0:0:0:0:
296,12,61407,1,8,1:0:0:0:
296,12,61737,5,8,1:0:0:0:
378,98,61902,1,0,1:0:0:0:
378,7,62066,1,8,1:0:0:0:
296,94,62231,1,8,1:0:0:0:
360,184,62396,6,0,P|394:173|431:172,1,72.5,4|0,1:0|0:0,0:0:0:0:
476,268,62726,2,0,P|441:256|405:255,1,72.5,2|0,0:2|0:0,0:0:0:0:
320,300,63056,1,2,0:3:0:0:
256,256,63220,1,0,1:0:0:0:
192,300,63385,1,4,0:3:0:0:
256,344,63550,1,2,0:0:0:0:
324,224,63715,2,0,L|324:151,1,72.5,2|0,1:2|0:0,0:0:0:0:
187,151,64045,2,0,L|188:224,1,72.5,8|0,1:0|0:0,0:0:0:0:
256,96,64374,5,4,1:0:0:0:
256,96,64704,1,2,0:0:0:0:
120,96,64869,1,0,0:0:0:0:
184,36,65034,1,8,1:0:0:0:
187,151,65198,1,0,0:0:0:0:
44,132,65363,2,0,P|36:96|44:60,1,72.5,4|0,0:3|0:0,0:0:0:0:
108,188,65693,1,2,0:0:0:0:
32,280,65940,1,0,1:0:0:0:
32,280,66023,1,12,1:0:0:0:
101,340,66187,1,0,0:0:0:0:
168,276,66352,6,0,B|203:256|240:264|240:288|273:297|312:276,1,145,4|0,1:0|0:0,0:0:0:0:
384,240,66847,1,8,1:0:0:0:
464,276,67012,2,0,P|472:240|464:203,1,72.5,2|0,0:3|0:0,0:0:0:0:
480,108,67341,1,4,0:3:0:0:
396,136,67506,1,0,1:0:0:0:
332,76,67671,1,2,0:0:0:0:
268,136,67836,1,8,1:0:0:0:
183,107,68001,2,0,P|148:102|112:107,1,72.5,4|0,1:2|1:0,0:0:0:0:
32,160,68330,5,8,1:0:0:0:
48,288,68495,1,0,1:0:0:0:
48,168,68660,1,8,1:0:0:0:
64,296,68825,1,8,1:0:0:0:
64,176,68990,1,8,1:0:0:0:
80,304,69154,1,8,1:0:0:0:
184,228,69319,6,0,L|332:228,1,145,12|0,1:0|0:0,0:0:0:0:
344,248,69979,1,2,0:0:0:0:
344,248,70143,1,2,0:0:0:0:
407,168,70308,6,0,P|405:85|332:44,1,173.999994689942,4|0,1:3|0:0,0:0:0:0:
328,132,70803,1,0,1:0:0:0:
252,88,70968,2,0,L|164:88,1,86.9999973449708,8|0,1:3|0:0,0:0:0:0:
8,28,71297,2,0,P|48:37|82:66,1,86.9999973449708,0|0,1:0|0:0,0:0:0:0:
48,140,71627,2,0,P|60:180|52:224,1,86.9999973449708,0|0,1:0|0:0,0:0:0:0:
96,320,71957,5,8,1:3:0:0:
0,304,72121,1,0,0:0:0:0:
136,244,72286,2,0,L|224:252,1,86.9999973449708,0|0,1:0|0:0,0:0:0:0:
328,316,72616,2,0,B|304:256|304:256|326:149,1,173.999994689942,0|8,1:0|1:3,0:0:0:0:
388,88,73110,1,0,0:0:0:0:
292,52,73275,2,0,L|200:60,1,86.9999973449708,4|0,0:0|0:0,0:0:0:0:
108,24,73605,1,0,1:0:0:0:
140,144,73852,1,0,1:0:0:0:
140,144,73935,1,8,1:0:0:0:
38,178,74099,1,0,0:0:0:0:
98,269,74264,6,0,P|89:312|98:357,1,86.9999973449708,4|0,1:0|0:0,0:0:0:0:
170,313,74594,2,0,L|300:313,1,130.499996017456,0|0,1:0|0:0,0:0:0:0:
322,313,74924,1,8,1:3:0:0:
402,373,75088,1,0,0:0:0:0:
438,261,75253,2,0,P|446:217|438:174,1,86.9999973449708,0|0,1:0|0:0,0:0:0:0:
459,80,75583,1,0,1:0:0:0:
355,32,75748,1,4,1:2:0:0:
267,56,75913,1,8,1:3:0:0:
331,120,76077,1,4,1:2:0:0:
208,172,76242,6,0,P|164:180|121:172,1,86.9999973449708,0|0,1:0|0:0,0:0:0:0:
20,156,76572,1,0,1:0:0:0:
20,170,76654,1,0,0:0:0:0:
20,184,76737,1,0,1:2:0:0:
76,256,76902,1,8,1:0:0:0:
0,304,77066,1,0,0:0:0:0:
100,360,77231,2,0,L|200:356,1,86.9999973449708,0|0,1:0|1:0,0:0:0:0:
208,356,77479,1,0,0:0:0:0:
228,356,77561,1,12,1:0:0:0:
368,308,77891,1,8,1:0:0:0:
336,236,78056,1,0,1:0:0:0:
400,168,78220,6,0,P|408:124|400:81,1,86.9999973449708,4|0,1:0|0:0,0:0:0:0:
256,80,78550,2,0,P|289:109|331:123,1,86.9999973449708,0|0,0:0|1:0,0:0:0:0:
324,20,78880,1,8,1:3:0:0:
240,0,79045,1,0,0:0:0:0:
172,56,79209,2,0,L|172:144,1,86.9999973449708,0|0,1:0|0:0,0:0:0:0:
84,184,79539,2,0,L|84:96,1,86.9999973449708,4|0,0:0|0:0,0:0:0:0:
192,160,79869,2,0,L|192:248,1,86.9999973449708,8|0,1:3|0:0,0:0:0:0:
118,320,80198,6,0,P|194:283|268:324,1,173.999994689942,0|0,1:3|1:0,0:0:0:0:
432,352,80858,1,8,1:3:0:0:
476,276,81023,1,0,0:0:0:0:
392,276,81187,1,0,1:0:0:0:
428,200,81352,2,0,P|434:157|428:112,1,86.9999973449708,0|4,0:0|0:0,0:0:0:0:
328,44,81764,1,0,0:0:0:0:
328,44,81847,1,4,1:0:0:0:
347,153,82012,1,0,0:0:0:0:
240,128,82176,6,0,P|197:131|153:124,1,86.9999973449708,8|0,1:0|0:0,0:0:0:0:
72,56,82506,2,0,L|72:188,1,130.499996017456,0|0,1:0|0:0,0:0:0:0:
72,208,82836,1,8,1:3:0:0:
32,296,83001,1,0,0:0:0:0:
152,332,83165,2,0,P|194:325|240:328,1,86.9999973449708,0|0,1:0|0:0,0:0:0:0:
316,360,83495,1,0,1:0:0:0:
436,192,83825,5,8,1:0:0:0:
422,280,83990,1,0,1:0:0:0:
503,244,84154,2,0,P|512:160|447:108,1,173.999994689942,8|4,1:3|0:0,0:0:0:0:
360,160,84649,1,8,1:0:0:0:
264,104,84814,2,0,L|264:12,1,86.9999973449708,0|4,1:0|1:2,0:0:0:0:
192,152,85143,2,0,B|156:165|124:160|123:142|96:136|61:152,1,130.499996017456,8|0,1:0|0:0,0:0:0:0:
48,164,85473,2,0,P|41:205|48:252,1,86.9999973449708,8|4,1:0|1:2,0:0:0:0:
256,336,86132,5,4,1:0:0:0:
432,280,86462,1,2,0:0:0:0:
360,224,86627,1,0,1:0:0:0:
273,253,86792,1,0,0:0:0:0:
344,308,86957,1,0,1:0:0:0:
288,168,87121,2,0,B|276:112|304:112|289:61,2,108.750004148483,4|4|8,0:3|0:0|1:0,0:0:0:0:
212,84,88110,6,0,P|172:73|104:84,1,108.750004148483,4|2,0:3|1:3,0:0:0:0:
106,83,88605,1,0,0:0:0:0:
106,83,88770,1,2,0:0:0:0:
68,164,89099,2,0,L|71:218,1,54.3750020742417,4|0,0:3|0:0,0:0:0:0:
156,188,89429,2,0,L|152:242,1,54.3750020742417,2|0,0:0|0:0,0:0:0:0:
116,312,89759,5,8,1:0:0:0:
212,300,89924,1,0,1:0:0:0:
288,356,90088,2,0,P|324:363|360:356,1,72.5,4|0,1:0|0:0,0:0:0:0:
456,376,90418,2,0,P|471:303|456:231,1,145,0|0,1:0|0:0,0:0:0:0:
492,152,90913,1,0,1:0:0:0:
378,192,91077,1,8,1:0:0:0:
378,192,91407,1,8,1:0:0:0:
378,192,91737,1,2,0:0:0:0:
316,136,91902,1,2,0:0:0:0:
256,192,92066,5,2,0:0:0:0:
256,192,92149,12,4,93056,0:0:0:0:
84,55,94045,6,0,P|68:111|81:166,1,116,0|0,1:0|0:0,0:0:0:0:
132,224,94539,1,0,0:0:0:0:
80,336,94704,2,0,P|76:304|80:278,1,58,0|0,0:0|0:0,0:0:0:0:
164,307,95034,2,0,P|217:287|272:312,2,116,2|2|2,0:0|0:0|0:0,0:0:0:0:
216,376,95858,1,0,1:0:0:0:
316,376,96023,6,0,L|432:376,1,116,4|0,0:2|0:0,0:0:0:0:
480,308,96517,1,2,0:0:0:0:
408,260,96682,2,0,P|376:263|348:272,1,58,0|0,0:0|0:0,0:0:0:0:
280,220,97012,1,2,0:0:0:0:
232,160,97176,1,0,0:0:0:0:
280,100,97341,1,0,0:0:0:0:
328,160,97506,1,0,0:0:0:0:
212,160,97671,1,2,0:0:0:0:
348,160,97836,1,0,1:0:0:0:
280,80,98001,6,0,P|228:68|168:80,1,116,4|0,0:0|0:0,0:0:0:0:
92,48,98495,1,0,0:0:0:0:
64,128,98660,2,0,L|64:192,1,58,0|0,0:0|0:0,0:0:0:0:
160,272,98990,2,0,B|112:256|112:256|49:275,1,116,2|0,0:0|0:0,0:0:0:0:
112,340,99484,1,0,0:0:0:0:
200,348,99649,2,0,L|268:344,1,58,2|0,0:0|1:0,0:0:0:0:
344,260,99979,6,0,P|313:255|288:260,1,58,4|0,0:0|0:0,0:0:0:0:
404,316,100308,1,2,0:0:0:0:
500,328,100473,1,0,0:0:0:0:
512,232,100638,1,2,0:0:0:0:
416,220,100803,1,0,0:0:0:0:
472,152,100968,1,0,1:0:0:0:
472,152,101627,2,0,P|464:104|468:80,1,58,2|2,0:0|0:0,0:0:0:0:
387,31,101957,6,0,P|331:22|281:49,1,116,4|0,0:0|0:0,0:0:0:0:
344,104,102451,1,0,0:0:0:0:
264,152,102616,2,0,L|204:148,1,58,2|2,0:0|0:0,0:0:0:0:
108,184,102946,2,0,B|92:128|92:128|106:72,2,116,2|2|2,0:0|0:0|0:0,0:0:0:0:
212,296,103935,6,0,P|162:267|107:281,1,116,8|0,0:1|0:0,0:0:0:0:
48,336,104429,1,0,0:0:0:0:
120,376,104594,2,0,L|184:372,1,58,2|2,0:0|0:0,0:0:0:0:
264,360,104924,2,0,P|323:363|379:357,2,116,2|0|0,0:0|0:0|0:0,0:0:0:0:
212,296,105748,1,0,1:0:0:0:
276,220,105913,6,0,L|276:100,1,116,8|0,0:1|0:0,0:0:0:0:
328,40,106407,1,0,0:0:0:0:
248,24,106572,2,0,P|220:28|184:24,1,58,0|0,0:0|0:0,0:0:0:0:
100,76,106902,2,0,B|88:124|88:124|100:192,1,116,2|2,0:0|0:0,0:0:0:0:
48,296,107561,2,0,L|112:292,1,58,2|0,0:0|1:0,0:0:0:0:
180,332,107891,1,8,0:1:0:0:
347,327,108220,1,0,0:0:0:0:
259,184,108550,1,2,0:0:0:0:
261,281,108715,1,2,0:0:0:0:
344,232,108880,1,2,0:0:0:0:
344,136,109045,5,0,0:0:0:0:
272,80,109209,1,0,0:0:0:0:
255,79,109292,1,0,1:0:0:0:
239,79,109374,1,8,1:0:0:0:
160,144,109539,1,4,0:3:0:0:
108,44,109704,1,4,0:3:0:0:
75,171,109869,6,0,P|114:222|180:232,1,130.499996017456,4|4,1:0|0:3,0:0:0:0:
261,281,110363,1,0,0:0:0:0:
196,344,110528,2,0,L|128:340,1,65.2499980087281,0|0,0:0|0:0,0:0:0:0:
295,367,110858,2,0,P|360:367|415:333,1,130.499996017456,0|4,1:0|0:0,0:0:0:0:
380,256,111352,1,0,0:0:0:0:
456,192,111517,2,0,P|453:157|456:124,1,65.2499980087281,8|0,1:0|0:0,0:0:0:0:
348,60,111847,5,4,0:3:0:0:
348,156,112012,1,0,0:0:0:0:
256,204,112176,1,0,1:0:0:0:
256,108,112341,1,2,0:0:0:0:
348,156,112506,1,0,0:0:0:0:
256,204,112671,1,2,0:0:0:0:
164,156,112836,2,0,P|129:152|96:156,1,65.2499980087281,4|0,0:3|0:0,0:0:0:0:
36,208,113165,1,4,0:0:0:0:
64,324,113413,1,0,0:0:0:0:
64,324,113495,2,0,L|136:320,1,65.2499980087281,8|0,1:0|0:0,0:0:0:0:
228,356,113825,6,0,P|231:323|228:291,1,65.2499980087281,4|0,0:3|0:0,0:0:0:0:
308,320,114154,2,0,P|340:322|372:319,1,65.2499980087281,0|2,1:0|0:0,0:0:0:0:
440,236,114484,1,0,0:0:0:0:
340,236,114649,1,2,0:0:0:0:
388,96,114814,2,0,P|392:132|388:161,1,65.2499980087281,4|2,0:3|0:3,0:0:0:0:
300,132,115143,1,0,0:0:0:0:
300,132,115473,2,0,L|234:132,1,65.2499980087281,8|0,1:0|0:0,0:0:0:0:
156,20,115803,6,0,P|168:56|168:84,1,65.2499980087281,4|0,0:3|0:0,0:0:0:0:
112,204,116132,2,0,P|137:175|161:161,1,65.2499980087281,0|0,1:0|0:0,0:0:0:0:
268,212,116462,1,8,1:0:0:0:
136,332,116792,1,4,1:2:0:0:
136,332,117369,1,0,1:0:0:0:
136,332,117451,2,0,L|220:328,1,65.2499980087281,12|0,1:0|0:0,0:0:0:0:
284,368,117781,6,0,P|343:344|404:362,1,130.499996017456,4|8,1:3|1:0,0:0:0:0:
468,304,118275,1,2,0:0:0:0:
388,236,118440,2,0,L|388:170,1,65.2499980087281,2|0,0:0|0:0,0:0:0:0:
452,76,118770,2,0,B|388:92|388:92|324:76,1,130.499996017456,4|4,0:3|0:3,0:0:0:0:
325,76,119429,2,0,P|288:77|256:88,1,65.2499980087281,8|0,1:0|0:0,0:0:0:0:
180,48,119759,6,0,P|146:103|147:167,1,130.499996017456,4|8,1:3|1:0,0:0:0:0:
200,236,120253,1,2,0:0:0:0:
104,236,120418,2,0,L|36:236,1,65.2499980087281,2|0,0:0|0:0,0:0:0:0:
8,328,120748,2,0,P|70:343|136:328,1,130.499996017456,4|4,0:3|0:3,0:0:0:0:
256,348,121325,1,0,1:0:0:0:
255,348,121407,2,0,P|288:343|320:342,1,65.2499980087281,8|0,1:0|0:0,0:0:0:0:
404,292,121737,6,0,P|428:236|408:168,1,130.499996017456,4|0,1:3|1:0,0:0:0:0:
328,192,122231,1,0,1:0:0:0:
348,100,122396,2,0,L|276:96,1,65.2499980087281,0|2,1:0|0:0,0:0:0:0:
124,88,122726,2,0,P|174:86|229:28,1,130.499996017456,4|2,0:3|0:0,0:0:0:0:
148,4,123220,1,0,0:0:0:0:
100,80,123385,2,0,L|100:152,1,65.2499980087281,8|0,1:0|0:0,0:0:0:0:
64,224,123715,5,4,1:3:0:0:
64,224,124209,1,0,1:0:0:0:
64,320,124374,1,8,1:0:0:0:
148,272,124539,1,4,0:3:0:0:
224,320,124704,1,4,0:3:0:0:
216,340,124869,1,4,1:2:0:0:
300,356,125034,5,8,1:0:0:0:
300,252,125198,1,8,1:0:0:0:
404,252,125363,1,8,1:0:0:0:
404,356,125528,1,8,1:0:0:0:
316,268,125693,6,0,B|300:212|300:212|314:126,1,145,4|0,1:0|1:0,0:0:0:0:
380,68,126105,1,8,1:0:0:0:
379,68,126187,2,0,P|310:88|241:69,1,145,0|0,1:0|1:0,0:0:0:0:
152,36,126599,1,0,0:0:0:0:
152,36,126682,2,0,P|157:71|155:108,1,72.5,0|2,1:0|0:0,0:0:0:0:
40,108,127012,2,0,P|37:71|43:36,1,72.5,4|2,0:0|0:0,0:0:0:0:
100,164,127341,1,8,1:0:0:0:
44,224,127506,1,0,1:0:0:0:
128,296,127671,6,0,P|163:304|197:295,1,72.5,0|2,1:0|0:0,0:0:0:0:
244,360,128001,2,0,P|268:333|278:299,1,72.5,4|2,0:0|0:0,0:0:0:0:
357,291,128330,2,0,P|346:256|321:230,1,72.5,8|2,1:0|0:0,0:0:0:0:
283,158,128660,1,8,1:0:0:0:
283,158,128990,5,4,0:0:0:0:
332,64,129154,1,0,1:0:0:0:
224,64,129319,1,8,1:0:0:0:
176,159,129484,1,8,1:0:0:0:
92,88,129649,6,0,L|92:16,1,72.5,12|0,1:0|0:0,0:0:0:0:
12,120,129979,2,0,L|12:48,1,72.5,8|0,1:0|0:0,0:0:0:0:
80,208,130473,1,0,1:0:0:0:
80,224,130556,1,8,1:0:0:0:
80,240,130638,2,0,P|77:276|64:312,1,72.5,0|0,3:0|0:0,0:0:0:0:
128,372,130968,2,0,P|161:355|198:349,1,72.5,4|0,0:3|0:0,0:0:0:0:
218,264,131297,2,0,P|187:243|163:214,1,72.5,8|0,1:0|0:0,0:0:0:0:
212,136,131627,6,0,L|356:136,2,145,4|4|8,0:3|0:0|1:0,0:0:0:0:
92,88,132616,1,4,0:3:0:0:
228,20,132946,5,8,1:0:0:0:
284,96,133110,1,8,1:0:0:0:
356,40,133275,1,8,1:0:0:0:
376,40,133358,1,0,0:0:0:0:
396,40,133440,1,0,1:0:0:0:
416,40,133523,1,8,1:0:0:0:
436,56,133605,6,0,P|444:92|436:128,1,72.5,12|0,1:0|0:0,0:0:0:0:
384,216,133935,2,0,P|372:181|348:155,1,72.5,8|0,1:0|0:0,0:0:0:0:
460,308,134429,1,0,1:0:0:0:
444,308,134512,1,0,1:0:0:0:
428,308,134594,2,0,L|355:308,1,72.5,4|0,1:2|0:0,0:0:0:0:
296,376,134924,2,0,L|259:313,1,72.5,4|0,0:3|0:0,0:0:0:0:
171,295,135253,1,8,1:0:0:0:
216,216,135418,1,2,0:0:0:0:
120,180,135583,6,0,P|84:188|48:180,1,72.5,4|0,0:3|0:0,0:0:0:0:
200,120,135913,2,0,P|236:112|272:120,1,72.5,0|0,1:0|0:0,0:0:0:0:
84,96,136242,2,0,P|76:59|84:24,1,72.5,8|0,1:0|0:0,0:0:0:0:
200,24,136572,1,8,1:0:0:0:
200,24,136902,5,8,1:0:0:0:
270,96,137066,1,0,1:0:0:0:
344,24,137231,1,8,1:0:0:0:
270,119,137396,1,8,1:0:0:0:
348,176,137561,6,0,L|432:168,1,72.5,4|0,1:0|0:0,0:0:0:0:
488,100,137891,1,2,0:0:0:0:
488,100,138220,2,0,P|508:128|516:176,1,72.5,2|0,0:3|1:0,0:0:0:0:
472,240,138550,2,0,L|472:312,1,72.5,4|2,0:3|0:0,0:0:0:0:
388,352,138880,2,0,L|388:280,1,72.5,2|0,1:2|0:0,0:0:0:0:
304,316,139209,2,0,P|268:308|233:315,1,72.5,8|0,1:0|0:0,0:0:0:0:
140,276,139539,5,4,1:0:0:0:
140,276,139869,1,2,0:0:0:0:
140,168,140034,1,0,0:0:0:0:
72,220,140198,1,8,1:0:0:0:
208,220,140363,1,0,0:0:0:0:
120,88,140528,2,0,P|86:103|63:131,1,72.5,4|0,0:3|0:0,0:0:0:0:
224,136,140858,1,2,0:0:0:0:
188,9,141105,1,0,1:0:0:0:
188,9,141187,1,12,1:0:0:0:
281,8,141352,1,0,0:0:0:0:
336,84,141517,6,0,B|356:124|344:156|332:156|321:187|334:225,1,145,4|0,1:0|0:0,0:0:0:0:
416,264,142012,1,8,1:0:0:0:
496,224,142176,2,0,P|501:190|496:152,1,72.5,2|0,0:3|0:0,0:0:0:0:
496,312,142506,1,4,0:3:0:0:
416,356,142671,1,0,1:0:0:0:
336,312,142836,1,2,0:0:0:0:
256,356,143001,1,8,1:0:0:0:
176,312,143165,2,0,P|172:276|176:240,1,72.5,4|0,1:2|1:0,0:0:0:0:
248,168,143495,5,8,1:0:0:0:
120,156,143660,1,0,1:0:0:0:
260,152,143825,1,8,1:0:0:0:
132,140,143990,1,8,1:0:0:0:
272,136,144154,1,8,1:0:0:0:
144,124,144319,1,8,1:0:0:0:
268,56,144484,6,0,P|316:68|348:168,1,145,12|0,1:0|0:0,0:0:0:0:
349,153,144979,1,8,1:0:0:0:
352,240,145143,1,8,1:0:0:0:
440,240,145308,1,8,1:0:0:0:
352,332,145473,6,0,B|268:364|268:304|178:332,1,173.999994689942,4|0,1:3|0:0,0:0:0:0:
96,356,145968,1,0,1:0:0:0:
48,284,146132,2,0,P|39:239|48:196,1,86.9999973449708,8|0,1:3|0:0,0:0:0:0:
192,196,146462,2,0,P|157:225|115:239,1,86.9999973449708,0|0,1:0|0:0,0:0:0:0:
43,115,146792,2,0,P|85:130|119:158,1,86.9999973449708,0|0,1:0|0:0,0:0:0:0:
256,136,147121,5,8,1:3:0:0:
328,192,147286,1,0,0:0:0:0:
400,136,147451,2,0,P|409:93|401:51,1,86.9999973449708,0|0,1:0|0:0,0:0:0:0:
496,128,147781,2,0,B|476:196|476:196|496:302,1,173.999994689942,0|0,1:0|1:0,0:0:0:0:
495,297,148275,1,0,1:0:0:0:
424,352,148440,2,0,L|336:348,1,86.9999973449708,4|0,0:0|0:0,0:0:0:0:
248,376,148770,1,0,1:0:0:0:
304,264,149017,1,0,1:0:0:0:
304,264,149099,1,8,1:0:0:0:
212,244,149264,1,0,0:0:0:0:
136,303,149429,6,0,P|94:315|52:306,1,86.9999973449708,4|0,1:0|0:0,0:0:0:0:
92,232,149759,2,0,L|92:100,1,130.499996017456,0|0,1:0|0:0,0:0:0:0:
92,76,150088,1,8,1:3:0:0:
188,120,150253,1,0,1:0:0:0:
244,32,150418,2,0,P|288:24|336:32,1,86.9999973449708,0|0,1:0|0:0,0:0:0:0:
408,52,150748,1,0,1:0:0:0:
460,148,150913,1,4,1:2:0:0:
412,224,151077,1,8,1:3:0:0:
364,148,151242,1,4,1:2:0:0:
264,192,151407,6,0,P|220:184|177:192,1,86.9999973449708,0|0,1:0|0:0,0:0:0:0:
96,248,151737,1,0,1:0:0:0:
96,248,151819,1,0,0:0:0:0:
96,248,151902,1,0,1:0:0:0:
136,352,152066,1,8,1:0:0:0:
52,324,152231,1,0,0:0:0:0:
180,276,152396,2,0,L|268:276,1,86.9999973449708,0|0,1:0|1:0,0:0:0:0:
288,276,152643,1,0,0:0:0:0:
308,276,152726,1,12,1:0:0:0:
464,340,153056,1,8,1:0:0:0:
476,248,153220,1,0,1:0:0:0:
408,168,153385,6,0,P|364:166|320:176,1,86.9999973449708,4|0,1:0|0:0,0:0:0:0:
416,72,153715,2,0,P|458:81|501:79,1,86.9999973449708,0|0,0:0|1:0,0:0:0:0:
340,20,154045,1,8,1:3:0:0:
280,88,154209,1,0,0:0:0:0:
204,36,154374,2,0,L|116:36,1,86.9999973449708,0|0,1:0|0:0,0:0:0:0:
144,132,154704,2,0,L|56:132,1,86.9999973449708,0|0,1:0|0:0,0:0:0:0:
216,52,155034,2,0,L|128:52,1,86.9999973449708,8|0,1:3|0:0,0:0:0:0:
203,191,155363,6,0,P|188:272|208:364,1,173.999994689942,0|0,1:0|1:0,0:0:0:0:
372,308,156023,1,8,1:3:0:0:
416,236,156187,1,0,1:0:0:0:
328,236,156352,1,4,1:2:0:0:
372,160,156517,2,0,P|378:117|372:72,1,86.9999973449708,0|0,0:0|1:0,0:0:0:0:
260,12,156929,1,0,1:0:0:0:
260,12,157012,1,8,1:0:0:0:
252,100,157176,1,0,0:0:0:0:
172,144,157341,6,0,P|124:152|80:144,1,86.9999973449708,4|0,1:0|0:0,0:0:0:0:
260,192,157671,2,0,P|276:252|260:320,1,130.499996017456,0|0,1:0|0:0,0:0:0:0:
252,340,158001,1,8,1:3:0:0:
192,272,158165,1,0,1:0:0:0:
348,308,158330,2,0,L|440:300,1,86.9999973449708,0|0,1:0|0:0,0:0:0:0:
484,236,158660,1,4,0:0:0:0:
376,96,158990,1,8,1:0:0:0:
380,184,159154,1,4,0:0:0:0:
456,112,159319,6,0,P|448:60|340:24,1,173.999994689942,8|4,1:3|0:2,0:0:0:0:
268,72,159814,1,0,0:0:0:0:
184,28,159979,2,0,L|96:28,1,86.9999973449708,0|4,1:0|1:2,0:0:0:0:
140,112,160308,2,0,P|120:176|140:244,1,130.499996017456,8|0,1:0|0:0,0:0:0:0:
148,260,160638,2,0,P|156:304|148:348,1,86.9999973449708,8|4,1:0|1:2,0:0:0:0:
336,312,161297,5,4,1:0:0:0:
487,223,161627,1,2,0:0:0:0:
423,159,161792,1,0,0:0:0:0:
359,223,161957,1,0,0:0:0:0:
423,287,162121,1,0,1:0:0:0:
336,312,162286,2,0,P|266:293|194:301,2,145,4|4|8,0:3|0:0|1:0,0:0:0:0:
256,192,163275,5,4,0:3:0:0:
256,192,163605,1,2,0:3:0:0:
192,148,163770,1,0,0:0:0:0:
128,192,163935,1,2,0:0:0:0:
128,192,164264,2,0,L|56:192,1,72.5,4|0,1:3|1:0,0:0:0:0:
8,112,164594,2,0,P|28:62|76:38,1,108.75,0|0,0:0|0:0,0:0:0:0:
100,40,164924,1,8,1:0:0:0:
192,72,165088,1,0,1:0:0:0:
292,24,165253,6,0,L|436:24,1,145,4|0,1:0|1:0,0:0:0:0:
488,88,165748,1,0,0:0:0:0:
432,148,165913,2,0,L|432:224,1,72.5,0|0,0:0|1:0,0:0:0:0:
500,296,166242,2,0,P|428:268|372:300,1,145,12|8,1:0|1:0,0:0:0:0:
373,298,166737,5,0,1:0:0:0:
281,306,166902,1,8,1:0:0:0:
189,309,167066,1,8,1:0:0:0:
88,240,167231,6,0,P|73:170|87:100,1,145,4|0,1:0|0:0,0:0:0:0:
87,100,167726,1,0,1:0:0:0:
87,100,167891,1,8,1:0:0:0:
244,136,168220,1,0,0:0:0:0:
208,48,168385,2,0,P|243:41|280:48,1,72.5
296,52,168632,1,0,0:0:0:0:
312,60,168715,1,0,0:0:0:0:
384,12,168880,2,0,L|432:4,2,48.3333333333333,8|2|0,1:0|0:0|0:0,0:0:0:0:
400,92,169209,5,4,0:3:0:0:
472,164,169374,2,0,P|488:234|473:304,1,145,2|0,0:0|0:0,0:0:0:0:
416,352,169786,1,2,0:0:0:0:
416,352,169869,2,0,P|376:344|336:348,1,72.5,12|2,1:0|0:0,0:0:0:0:
280,288,170198,1,4,0:3:0:0:
208,356,170363,2,0,P|180:296|204:224,1,145,2|2,0:0|0:0,0:0:0:0:
207,220,170775,1,0,1:0:0:0:
211,216,170858,1,8,1:0:0:0:
136,120,171187,6,0,P|88:128|39:120,2,96.6666666666667,6|2|2,0:0|0:0|0:0,0:0:0:0:
164,92,171737,1,2,0:0:0:0:
200,76,171847,1,8,1:0:0:0:
240,76,171957,1,2,0:0:0:0:
276,92,172066,1,2,0:0:0:0:
300,120,172176,2,0,L|292:192,1,72.5,4|2,0:3|0:0,0:0:0:0:
340,264,172506,1,0,0:0:0:0:
432,132,172836,1,12,1:0:0:0:
496,208,173001,1,2,0:0:0:0:
496,224,173083,1,2,0:0:0:0:
496,240,173165,6,0,P|480:309|419:347,1,145,4|4,1:0|0:3,0:0:0:0:
408,348,173577,1,2,1:2:0:0:
392,348,173660,2,0,P|356:342|319:348,1,72.5,12|2,1:0|0:0,0:0:0:0:
232,368,173990,1,4,0:3:0:0:
172,292,174154,1,8,1:0:0:0:
172,276,174237,1,2,0:0:0:0:
172,260,174319,1,8,1:0:0:0:
172,244,174402,1,0,0:0:0:0:
172,228,174484,2,0,L|132:208,5,24.1666666666667,4|0|0|8|0|0,0:3|0:0|0:0|1:0|0:0|0:0,0:0:0:0:
192,208,174814,2,0,P|228:196|263:196,1,72.5,8|4,1:0|0:3,0:0:0:0:
372,232,175143,6,0,P|364:164|372:88,1,145,6|0,1:0|0:0,0:0:0:0:
208,32,175803,1,10,1:0:0:0:
156,100,175968,1,0,0:0:0:0:
104,32,176132,2,0,P|68:27|32:36,1,72.5,2|0,1:0|1:0,0:0:0:0:
0,112,176462,2,0,L|0:220,1,108.75,2|0,1:0|0:0,0:0:0:0:
0,244,176792,1,8,1:0:0:0:
84,208,176957,1,2,1:0:0:0:
152,280,177121,6,0,P|219:304|287:283,1,145,6|2,1:0|0:0,0:0:0:0:
291,280,177616,1,2,0:1:0:0:
288,192,177781,1,10,1:0:0:0:
376,192,177946,1,2,0:1:0:0:
272,172,178110,2,0,L|192:176,1,72.5,2|0,1:0|0:0,0:0:0:0:
312,96,178440,2,0,L|360:100,3,36.25,4|0|0|0,0:3|0:0|0:0|0:0,0:0:0:0:
280,64,178770,2,0,L|232:68,3,36.25,10|0|10|0,1:0|0:0|1:0|0:0,0:0:0:0:
340,20,179099,5,4,0:3:0:0:
340,20,179264,1,4,0:3:0:0:
176,32,179594,1,8,1:0:0:0:
144,108,179759,1,8,0:3:0:0:
176,184,179924,1,4,0:3:0:0:
112,256,180088,5,4,0:3:0:0:
112,256,180253,1,4,0:3:0:0:
256,324,180583,1,8,1:0:0:0:
328,280,180748,1,8,1:0:0:0:
400,324,180913,1,2,0:0:0:0:
456,240,181077,6,0,B|440:200|448:168|463:167|472:136|457:98,1,145,14|0,1:1|0:1,0:0:0:0:
392,48,181572,1,10,1:0:0:0:
332,120,181737,2,0,L|260:124,1,72.5,2|2,1:0|0:1,0:0:0:0:
180,60,182066,6,0,P|116:36|35:52,1,145,14|8,1:0|1:0,0:0:0:0:
32,152,182561,2,2,P|99:176|169:163,1,145,14|8,1:0|1:0,1:0:0:0:
256,240,183056,6,0,P|320:216|400:232,1,145,14|10,1:0|1:0,0:0:0:0:
404,332,183550,2,0,P|336:356|266:343,1,145,14|2,1:0|0:1,0:0:0:0:
164,296,184045,6,0,L|56:304,1,108.75,14|10,1:0|1:0,0:0:0:0:
32,305,184374,1,4,0:3:0:0:
212,204,184539,2,0,L|104:212,1,108.75,14|10,1:0|1:0,0:0:0:0:
80,213,184869,1,4,0:3:0:0:
256,108,185034,6,0,P|316:120|360:168,1,108.75,6|10,1:0|1:0,0:0:0:0:
364,172,185363,1,8,0:3:0:0:
472,104,185528,1,8,1:0:0:0:
464,192,185693,1,8,0:3:0:0:
456,280,185858,1,12,1:0:0:0:
368,328,186023,6,0,B|300:304|300:304|229:323,1,145,4|4,1:0|1:0,0:0:0:0:
100,80,193605,5,4,0:0:0:0:
128,64,193935,1,0,1:0:0:0:
216,48,194264,1,8,1:0:0:0:
300,96,194594,1,8,1:0:0:0:
348,200,194924,6,0,L|340:304,1,103.312497241259,4|0,1:0|0:0,0:0:0:0:
339,324,195253,1,2,0:3:0:0:
264,356,195418,1,0,0:0:0:0:
188,316,195583,2,0,L|120:320,1,68.8749981608391,0|0,0:0|0:0,0:0:0:0:
144,223,195913,2,0,P|128:160|136:89,2,137.749996321678,4|2|8,0:3|0:0|1:0,0:0:0:0:
280,176,196902,6,0,L|424:180,2,137.749996321678,4|2|2,0:3|0:3|0:0,0:0:0:0:
228,112,197726,1,0,0:0:0:0:
268,40,197891,1,4,0:3:0:0:
128,12,198220,1,8,1:0:0:0:
112,16,198303,1,0,0:0:0:0:
96,20,198385,1,0,1:0:0:0:
44,92,198550,2,0,L|52:160,1,68.8749981608391,12|2,1:0|0:0,0:0:0:0:
120,232,198880,6,0,L|108:376,1,137.749996321678,12|4,1:0|1:2,0:0:0:0:
108,369,199539,1,12,1:0:0:0:
196,336,199704,1,2,0:0:0:0:
280,372,199869,2,0,L|424:364,1,137.749996321678,12|4,1:0|1:2,0:0:0:0:
416,364,200528,1,8,1:0:0:0:
408,276,200693,1,8,1:0:0:0:
448,188,200858,6,0,P|385:164|324:191,1,137.749996321678,12|0,1:0|1:0,0:0:0:0:
322,195,201352,1,8,1:0:0:0:
232,196,201517,1,8,1:0:0:0:
232,106,201682,1,8,1:0:0:0:
140,176,201847,2,0,L|160:320,1,137.749996321678,12|4,1:0|1:0,0:0:0:0:
161,317,202341,1,4,1:2:0:0:
84,364,202506,1,4,1:2:0:0:
8,316,202671,1,0,1:0:0:0:
48,216,202836,5,4,0:3:0:0:
48,120,203001,2,0,L|48:204,1,68.8749981608391,12|0,1:0|0:0,0:0:0:0:
140,176,203330,1,4,0:3:0:0:
228,180,203495,2,0,P|188:187|144:180,1,68.8749981608391,12|0,1:0|0:0,0:0:0:0:
228,84,203825,1,4,0:3:0:0:
140,80,203990,2,0,P|179:72|224:80,1,68.8749981608391,12|0,1:0|0:0,0:0:0:0:
320,44,204319,1,4,0:3:0:0:
320,140,204484,2,0,L|320:56,1,68.8749981608391,12|4,1:0|0:3,0:0:0:0:
424,68,204814,5,4,0:3:0:0:
484,136,204979,2,0,L|484:256,1,103.312497241259,12|0,1:0|0:0,0:0:0:0:
500,260,205308,2,0,L|392:256,1,103.312497241259,8|8,1:0|1:0,0:0:0:0:
380,276,205638,1,4,1:3:0:0:
284,332,205803,2,0,B|236:324|236:324|192:336|192:336|146:328,1,137.749996321678,4|4,1:2|1:2,0:0:0:0:
128,344,206462,1,2,0:0:0:0:
128,344,206627,1,2,0:0:0:0:
63,271,206792,6,0,P|32:193|59:112,1,173.999994689942,4|0,1:3|0:0,0:0:0:0:
144,144,207286,1,0,1:0:0:0:
227,108,207451,2,0,P|235:65|229:22,1,86.9999973449708,8|0,1:3|0:0,0:0:0:0:
320,88,207781,2,0,P|353:115|393:132,1,86.9999973449708,0|0,1:0|0:0,0:0:0:0:
291,177,208110,2,0,P|250:192|215:218,1,86.9999973449708,0|0,1:0|0:0,0:0:0:0:
212,336,208440,5,8,1:3:0:0:
304,364,208605,1,0,0:0:0:0:
392,296,208770,2,0,P|387:253|392:209,1,86.9999973449708,4|0,1:0|0:0,0:0:0:0:
484,168,209099,2,0,L|484:348,1,173.999994689942,0|8,1:0|1:3,0:0:0:0:
484,342,209594,1,0,1:0:0:0:
392,296,209759,2,0,L|304:292,1,86.9999973449708,0|0,1:0|1:0,0:0:0:0:
224,352,210088,1,4,0:0:0:0:
140,244,210336,1,0,1:0:0:0:
140,244,210418,1,8,1:0:0:0:
96,332,210583,1,0,0:0:0:0:
0,352,210748,6,0,P|-7:309|0:266,1,86.9999973449708,4|0,1:0|0:0,0:0:0:0:
12,176,211077,2,0,L|12:45,1,130.499996017456,0|0,0:0|0:0,0:0:0:0:
12,24,211407,1,8,1:3:0:0:
100,60,211572,1,0,0:0:0:0:
184,16,211737,2,0,L|272:20,1,86.9999973449708,0|0,1:0|0:0,0:0:0:0:
372,24,212066,1,0,1:0:0:0:
448,128,212231,1,0,1:0:0:0:
372,164,212396,1,8,1:3:0:0:
296,128,212561,1,0,1:0:0:0:
224,208,212726,6,0,L|228:296,1,86.9999973449708,0|0,1:0|0:0,0:0:0:0:
121,344,213056,2,0,B|103:301|110:259|130:258|136:216|119:170,1,173.999994689942,0|8,1:0|1:0,0:0:0:0:
48,216,213550,1,0,0:0:0:0:
72,116,213715,2,0,P|113:99|153:107,1,86.9999973449708,4|0,1:2|1:0,0:0:0:0:
256,72,214045,1,12,1:0:0:0:
256,72,214127,1,0,0:0:0:0:
256,72,214209,1,4,1:2:0:0:
320,132,214374,1,8,1:0:0:0:
392,80,214539,1,4,1:2:0:0:
256,180,214704,6,0,P|248:220|256:264,1,86.9999973449708,4|0,1:0|0:0,0:0:0:0:
216,344,215034,2,0,P|256:352|300:344,1,86.9999973449708,0|0,1:0|1:0,0:0:0:0:
372,296,215363,1,8,1:3:0:0:
444,344,215528,1,0,0:0:0:0:
476,244,215693,2,0,L|472:157,1,86.9999973449708,0|0,1:0|0:0,0:0:0:0:
375,209,216023,2,0,L|372:296,1,86.9999973449708,0|0,1:0|0:0,0:0:0:0:
500,260,216352,2,0,L|496:173,1,86.9999973449708,8|0,1:3|1:0,0:0:0:0:
492,68,216682,6,0,B|431:51|431:51|316:76,1,173.999994689942,4|0,1:0|1:0,0:0:0:0:
144,28,217341,1,8,1:3:0:0:
188,104,217506,1,0,0:0:0:0:
100,104,217671,1,0,1:0:0:0:
144,180,217836,2,0,L|144:268,1,86.9999973449708,0|4,1:0|1:0,0:0:0:0:
204,380,218248,1,0,1:0:0:0:
204,380,218330,1,8,1:0:0:0:
240,296,218495,1,0,0:0:0:0:
324,260,218660,6,0,L|416:260,1,86.9999973449708,4|0,1:0|0:0,0:0:0:0:
428,164,218990,2,0,P|365:147|303:164,1,130.499996017456,0|0,1:0|0:0,0:0:0:0:
280,176,219319,1,8,1:3:0:0:
324,260,219484,1,0,0:0:0:0:
200,212,219649,2,0,L|203:125,1,86.9999973449708,4|0,1:0|1:0,0:0:0:0:
148,60,219979,1,0,1:0:0:0:
60,168,220308,2,0,L|63:254,1,86.9999973449708,8|0,1:3|0:0,0:0:0:0:
0,344,220638,6,0,P|72:300|152:325,1,173.999994689942,4|0,1:2|1:0,0:0:0:0:
228,368,221132,1,0,0:0:0:0:
300,320,221297,1,0,1:0:0:0:
472,352,221627,1,8,1:0:0:0:
372,192,221957,1,8,1:0:0:0:
372,96,222121,1,8,1:0:0:0:
444,144,222286,1,8,1:0:0:0:
304,144,222451,1,0,1:0:0:0:
376,16,222616,6,0,P|424:32|448:64,1,86.9999973449708,6|0,1:0|0:0,0:0:0:0:
296,64,222946,2,0,L|208:60,1,86.9999973449708,6|0,1:0|0:0,0:0:0:0:
120,12,223275,1,4,0:0:0:0:
120,12,223440,1,2,0:0:0:0:
60,104,223605,1,4,0:0:0:0:
132,152,223770,1,8,1:0:0:0:
48,212,223935,2,0,P|44:252|51:298,1,86.9999973449708,12|8,1:0|1:0,0:0:0:0:
124,352,224264,2,0,P|166:344|209:348,1,86.9999973449708,4|0,1:0|0:0,0:0:0:0:
320,372,224594,6,0,L|328:284,1,86.9999973449708,0|0,1:0|0:0,0:0:0:0:
416,224,224924,2,0,L|400:48,1,173.999994689942,0|8,1:0|1:3,0:0:0:0:
397,47,225418,1,2,0:0:0:0:
308,88,225583,2,0,L|220:80,1,86.9999973449708,0|2,1:0|1:2,0:0:0:0:
136,128,225913,1,4,1:2:0:0:
72,32,226160,1,0,1:0:0:0:
72,32,226242,1,8,1:3:0:0:
0,88,226407,1,0,0:0:0:0:
24,176,226572,6,0,B|8:244|8:244|26:346,1,173.999994689942,4|0,1:0|0:0,0:0:0:0:
112,308,227066,1,0,1:0:0:0:
196,348,227231,2,0,L|284:336,1,86.9999973449708,8|0,1:3|0:0,0:0:0:0:
384,364,227561,2,0,L|372:277,1,86.9999973449708,0|0,1:0|0:0,0:0:0:0:
420,200,227891,2,0,L|367:130,1,86.9999973449708,0|0,1:0|1:0,0:0:0:0:
369,39,228220,1,8,1:3:0:0:
192,140,228550,6,0,L|92:132,1,86.9999973449708,4|0,1:0|0:0,0:0:0:0:
248,64,228880,2,0,P|284:124|248:216,1,173.999994689942,0|8,1:0|1:0,0:0:0:0:
200,292,229374,1,0,1:0:0:0:
256,364,229539,2,0,L|348:356,1,86.9999973449708,12|0,1:0|0:0,0:0:0:0:
468,232,230034,1,8,1:0:0:0:
400,276,230198,2,0,P|388:232|400:188,1,86.9999973449708,2|2,1:2|1:2,0:0:0:0:
464,116,230528,6,0,B|400:92|400:92|297:118,1,173.999994689942,4|0,1:0|0:0,0:0:0:0:
216,76,231023,1,0,1:0:0:0:
136,120,231187,2,0,P|123:78|133:36,1,86.9999973449708,8|0,1:3|0:0,0:0:0:0:
216,168,231517,2,0,P|228:209|218:251,1,86.9999973449708,0|0,1:0|0:0,0:0:0:0:
224,336,231847,2,0,P|182:325|150:296,1,86.9999973449708,0|0,1:0|0:0,0:0:0:0:
74,258,232176,2,0,P|103:226|144:214,1,86.9999973449708,8|0,1:3|0:0,0:0:0:0:
292,288,232506,6,0,L|472:276,1,173.999994689942,0|0,1:0|1:0,0:0:0:0:
464,276,233165,1,8,1:3:0:0:
456,188,233330,1,4,1:2:0:0:
444,96,233495,2,0,L|348:80,1,86.9999973449708,0|0,1:0|0:0,0:0:0:0:
488,24,233825,1,4,0:0:0:0:
344,4,234072,1,0,1:0:0:0:
344,4,234154,1,8,1:0:0:0:
252,32,234319,1,0,0:0:0:0:
244,128,234484,6,0,L|244:215,1,86.9999973449708,4|0,1:0|0:0,0:0:0:0:
152,260,234814,2,0,L|152:173,1,86.9999973449708,0|0,1:0|0:0,0:0:0:0:
60,128,235143,1,8,1:3:0:0:
76,312,235473,2,0,P|140:348|232:308,1,173.999994689942,0|0,1:0|0:0,0:0:0:0:
227,313,235968,1,0,1:0:0:0:
227,313,236132,1,8,1:3:0:0:
368,352,236462,6,0,P|412:360|456:348,1,86.9999973449708,4|0,1:0|0:0,0:0:0:0:
492,256,236792,2,0,P|448:248|404:260,1,86.9999973449708,0|0,1:0|1:0,0:0:0:0:
312,220,237121,1,8,1:3:0:0:
392,80,237451,2,0,P|304:100|218:80,1,173.999994689942,0|8,1:0|1:0,0:0:0:0:
208,72,237863,1,0,0:0:0:0:
196,60,237946,1,4,0:0:0:0:
116,104,238110,1,8,1:0:0:0:
40,56,238275,1,4,0:0:0:0:
116,132,238440,6,0,L|116:262,1,130.499996017456,12|0,1:0|1:0,0:0:0:0:
116,284,238770,1,4,0:0:0:0:
220,192,238935,2,0,L|220:322,1,130.499996017456,8|0,1:0|0:0,0:0:0:0:
220,344,239264,1,4,0:0:0:0:
319,287,239429,2,0,P|398:320|478:289,2,173.999994689942,8|8|8,1:0|1:0|1:0,0:0:0:0:
396,88,240418,6,0,L|396:232,1,145,4|0,1:0|0:0,0:0:0:0:
304,192,241407,2,0,P|266:197|232:192,1,72.5,2|2,0:0|0:0,0:0:0:0:
268,116,242069,1,2,0:0:0:0:
204,56,242401,2,0,P|134:62|96:121,1,145,2|0,0:0|0:0,0:0:0:0:
0,171,243423,1,2,0:0:0:0:
64,224,243770,1,0,0:0:0:0:
0,280,244118,1,2,0:0:0:0:
64,344,244479,2,0,L|208:336,1,145,2|0,0:0|0:0,0:0:0:0:
312,232,245597,6,0,L|239:228,1,72.5,2|2,0:0|0:0,0:0:0:0:
340,312,246339,1,2,0:0:0:0:
428,332,246734,1,0,0:0:0:0:
408,248,247128,1,0,0:0:0:0:
388,168,247537,1,2,0:0:0:0:
428,80,247934,5,2,0:0:0:0:
428,80,248829,1,2,0:0:0:0:
312,40,249341,6,0,L|268:44,1,36.25,2|2,0:0|0:0,0:0:0:0:
252,68,249780,1,2,0:0:0:0:
152,44,250167,1,2,0:0:0:0:
88,128,250562,2,0,P|80:164|88:200,1,72.5,2|0,0:0|0:0,0:0:0:0:
136,272,251358,1,2,0:0:0:0:
240,276,251761,6,0,L|244:224,1,36.25,2|2,0:0|0:0,0:0:0:0:
264,220,252176,1,2,0:0:0:0:
360,232,252577,1,2,0:0:0:0:
420,148,252988,2,0,P|426:109|420:76,1,72.5,2|0,0:0|0:0,0:0:0:0:
348,24,253829,1,2,0:0:0:0:
241,71,254315,5,2,0:0:0:0:
241,71,254903,1,2,0:0:0:0:
217,71,255123,1,2,0:0:0:0:
188,72,255344,1,2,0:0:0:0:
160,72,255520,2,0,L|127:73,4,24.1666666666667,2|0|0|0|0,0:0|0:0|0:0|0:0|0:0,0:0:0:0:
52,176,256220,2,0,L|52:256,1,72.5,2|2,0:0|0:0,0:0:0:0:
100,324,257085,2,0,L|95:359,5,24.1666666666667,2|0|0|0|0|0,0:0|0:0|0:0|0:0|0:0|0:0,0:0:0:0:
220,264,258438,6,0,P|256:272|292:264,1,72.5,2|2,0:0|0:0,0:0:0:0:
