osu file format v14

[General]
AudioFilename: audio.mp3
AudioLeadIn: 0
PreviewTime: 93715
Countdown: 0
SampleSet: Soft
StackLeniency: 0.7
Mode: 0
LetterboxInBreaks: 0
WidescreenStoryboard: 0

[Editor]
DistanceSpacing: 1
BeatDivisor: 4
GridSize: 16
TimelineZoom: 1.1

[Metadata]
Title:Ryokugan no Kemono
TitleUnicode:緑眼の獣
Artist:Liz Triangle
ArtistUnicode:Liz Triangle
Creator:Mirash
Version:Normal
Source:東方地霊殿 ~ Subterranean Animism.
Tags:pandahero trynna lily-an parsee mizuhashi 水橋 パルスィ kaztora eba azuki 緑眼のジェラシー 神風 Divine Wind c77 77 doujin Misaki Nakajima Green Eyed Beast touhou zun
BeatmapID:1535949
BeatmapSetID:661455

[Difficulty]
HPDrainRate:3
CircleSize:3
OverallDifficulty:3
ApproachRate:4
SliderMultiplier:1
SliderTickRate:1

[Events]
//Background and Video events
0,0,"bg.jpg",0,0
//Break Periods
2,18880,25472
2,86132,88768
2,161297,163933
2,187012,192285
//Storyboard Layer 0 (Background)
//Storyboard Layer 1 (Fail)
//Storyboard Layer 2 (Pass)
//Storyboard Layer 3 (Foreground)
//Storyboard Sound Samples

[TimingPoints]
3056,329.67032967033,3,2,3,70,1,0
18880,-100,3,2,3,40,0,0
34045,-100,3,2,3,50,0,0
38001,-100,3,2,3,40,0,0
38083,-100,3,2,3,50,0,0
61077,-100,3,2,3,55,0,0
61407,-100,3,2,3,60,0,0
70308,-100,3,2,4,70,0,1
86132,-100,3,2,3,60,0,0
94045,-100,3,2,3,40,0,0
100968,-100,3,2,3,20,0,0
101627,-100,3,2,3,40,0,0
109209,-100,3,2,3,50,0,0
113165,-100,3,2,3,40,0,0
113248,-100,3,2,3,50,0,0
136242,-100,3,2,3,55,0,0
136572,-100,3,2,3,60,0,0
145473,-100,3,2,4,70,0,1
161297,-100,3,2,3,60,0,0
167891,-100,3,2,3,70,0,0
193605,-100,3,2,3,50,0,0
206792,-100,3,2,4,70,0,1
221957,-100,3,2,3,70,0,0
223605,-100,3,2,4,70,0,1
240418,-100,3,2,3,70,0,0
241407,331.491712707182,3,2,5,30,1,0
242401,340.909090909091,4,2,5,30,1,0
243594,352.941176470588,4,2,5,30,1,0
243770,348.837209302326,4,2,5,30,1,0
244118,361.44578313253,4,2,5,30,1,0
244479,372.670807453416,4,2,5,30,1,0
245597,365.853658536585,4,2,5,30,1,0
246145,389.61038961039,4,2,5,30,1,0
246339,405.405405405405,4,2,5,30,1,0
246541,387.096774193548,4,2,5,30,1,0
246928,400,4,2,5,30,1,0
247128,394.736842105263,4,2,5,30,1,0
247325,425.531914893617,4,2,5,30,1,0
247537,365.853658536585,4,2,5,30,1,0
247719,431.654676258993,4,2,5,30,1,0
247934,447.761194029851,4,2,5,25,1,0
248829,512.820512820513,4,2,5,20,1,0
249341,500,4,2,5,20,1,0
249591,379.746835443038,4,2,5,20,1,0
249970,394.736842105263,4,2,5,20,1,0
250956,402.684563758389,4,2,5,20,1,0
251761,434.782608695652,4,2,5,20,1,0
251978,397.350993377483,4,2,5,20,1,0
252176,392.156862745098,4,2,5,20,1,0
252372,410.958904109589,4,2,5,20,1,0
252988,425.531914893617,4,2,5,20,1,0
253413,416.666666666667,4,2,5,20,1,0
253829,379.746835443038,4,2,5,20,1,0
254208,431.654676258993,4,2,5,15,1,0
254315,588.235294117647,4,2,5,15,1,0
254903,441.176470588235,4,2,5,15,1,0
255344,352.941176470588,4,2,5,15,1,0
255520,370.37037037037,4,2,5,15,1,0
255766,454.545454545455,4,2,5,15,1,0
256220,504.201680672269,4,2,5,15,1,0
256724,361.44578313253,4,2,5,15,1,0
257085,372.670807453416,4,2,5,15,1,0
257395,521.739130434783,4,2,5,15,1,0
258438,666.666666666667,4,2,5,10,1,0

[Colours]
Combo1 : 16,205,101
Combo2 : 100,148,48
Combo3 : 62,130,99
Combo4 : 0,130,130

[HitObjects]
469,302,3056,6,0,P|478:192|321:98,1,300,4|2,1:0|0:0,0:0:0:0:
279,180,4374,2,0,P|248:193|202:267,1,100,2|0,0:0|1:0,0:0:0:0:
132,310,5034,6,0,P|80:257|51:136,1,200,2|2,0:0|0:3,0:0:0:0:
62,38,6023,2,0,L|283:54,1,200,4|0,3:0|1:0,0:0:0:0:
357,24,7012,6,0,B|319:171|497:127|439:312,1,300,4|4,1:0|0:3,0:0:0:0:
371,357,8330,2,0,P|334:343|277:292,1,100,0|0,0:0|1:0,0:0:0:0:
222,228,8990,6,0,P|160:241|112:268,1,100,4|2,0:3|0:0,0:0:0:0:
27,254,9649,1,0,1:0:0:0:
34,154,9979,2,0,P|41:106|184:79,1,200,4|4,0:3|0:3,0:0:0:0:
236,140,10968,6,0,P|301:137|441:91,1,200,4|2,1:0|0:3,0:0:0:0:
504,162,11957,2,0,P|496:217|496:282,2,100,4|2|0,0:3|0:0|1:1,0:0:0:0:
429,97,12946,5,4,0:3:0:0:
390,189,13275,2,0,P|345:225|299:237,1,100,2|2,0:0|0:3,0:0:0:0:
206,216,13935,2,0,P|164:226|42:350,1,200,4|0,0:3|1:0,0:0:0:0:
146,356,14924,6,0,L|363:331,1,200,4|2,1:0|0:3,0:0:0:0:
444,343,15913,2,0,P|434:296|291:247,1,200,4|4,0:0|1:0,0:0:0:0:
208,261,16902,6,0,P|167:250|116:112,1,200,8|0,1:0|1:0,0:0:0:0:
184,44,17891,1,2,1:0:0:0:
275,84,18220,1,0,1:0:0:0:
494,193,26792,6,0,L|279:167,1,200,4|2,1:2|0:0,0:0:0:0:
210,222,27781,2,0,P|199:282|216:337,2,100,2|2|2,0:0|0:0|0:0,0:0:0:0:
202,122,28770,2,0,P|166:103|38:170,1,200,8|2,0:1|0:0,0:0:0:0:
52,268,29759,6,0,P|25:303|-4:362,2,100,2|2|2,0:0|0:0|0:0,0:0:0:0:
139,219,30748,2,0,P|181:256|332:261,1,200,8|0,0:1|0:0,0:0:0:0:
391,197,31737,6,0,P|416:225|448:292,2,100,2|2|2,0:0|0:0|0:0,0:0:0:0:
296,165,32726,2,0,P|301:108|113:27,1,300,8|2,0:1|0:0,0:0:0:0:
61,165,34209,2,0,L|7:177,2,50,8|4|4,1:0|0:3|0:3,0:0:0:0:
110,171,34704,6,0,P|106:227|190:352,1,200,4|0,1:0|0:0,0:0:0:0:
274,317,35693,2,0,L|373:331,2,100,0|4|8,1:0|0:0|1:0,0:0:0:0:
272,216,36682,6,0,P|274:167|159:92,1,200,0|2,1:0|0:0,0:0:0:0:
60,86,37671,1,0,1:0:0:0:
248,20,38330,1,8,1:0:0:0:
248,20,38660,6,0,L|364:36,1,100,0|4,1:0|0:3,0:0:0:0:
446,19,39319,1,2,0:0:0:0:
493,107,39649,2,0,P|469:201|469:313,1,200,0|8,1:0|1:0,0:0:0:0:
372,333,40638,6,0,P|319:338|261:322,1,100,4|0,0:3|0:0,0:0:0:0:
220,242,41297,1,8,1:0:0:0:
126,277,41627,1,4,1:2:0:0:
25,104,42286,1,12,1:0:0:0:
100,38,42616,6,0,P|169:36|282:111,1,200,4|2,1:3|0:0,0:0:0:0:
340,180,43605,2,0,P|411:187|456:212,1,100,4|4,0:3|0:3,0:0:0:0:
482,287,44264,1,12,1:0:0:0:
405,351,44594,6,0,P|334:346|270:234,1,200,4|2,1:3|0:0,0:0:0:0:
198,173,45583,2,0,P|138:183|86:207,1,100,4|4,0:3|0:3,0:0:0:0:
64,290,46242,1,12,1:0:0:0:
143,357,46572,6,0,P|216:349|262:222,1,200,4|0,1:3|0:0,0:0:0:0:
320,158,47561,2,0,P|358:119|491:103,1,150,4|0,0:3|0:0,0:0:0:0:
495,76,48220,1,8,1:0:0:0:
497,176,48550,6,0,P|471:255|424:326,1,150,4|8,0:3|1:0,0:0:0:0:
388,327,49209,1,4,0:3:0:0:
289,311,49539,2,0,P|223:317|181:327,1,100,4|8,0:0|1:0,0:0:0:0:
96,358,50198,1,4,1:3:0:0:
96,358,50528,6,0,P|77:292|70:230,1,100,4|4,1:0|1:0,0:0:0:0:
154,78,51517,2,0,P|212:79|281:63,2,100,6|2|8,0:0|0:0|1:0,0:0:0:0:
83,148,52506,6,0,P|131:193|180:250,1,100,4|2,0:3|0:0,0:0:0:0:
254,218,53165,1,8,1:0:0:0:
312,299,53495,2,0,P|365:248|323:111,1,200,8|8,1:0|1:0,0:0:0:0:
296,45,54484,6,0,P|234:42|178:27,1,100,12|8,1:0|1:0,0:0:0:0:
0,65,55473,2,0,P|70:90|110:238,1,200,0|8,1:0|1:0,0:0:0:0:
95,296,56462,6,0,P|161:309|211:303,1,100,4|4,1:3|0:3,0:0:0:0:
265,237,57121,1,8,1:0:0:0:
365,234,57451,1,4,1:0:0:0:
442,296,57781,2,0,P|481:236|486:180,1,100,8|8,1:0|1:0,0:0:0:0:
462,111,58440,6,0,P|406:91|334:80,1,100,12|8,1:0|1:0,0:0:0:0:
179,155,59429,2,0,P|121:144|76:129,2,100,4|4|8,1:2|0:3|1:0,0:0:0:0:
268,110,60418,6,0,P|283:163|206:297,1,200,4|8,0:3|1:0,0:0:0:0:
175,375,61407,2,0,L|405:359,1,200,8|8,1:0|1:0,0:0:0:0:
473,377,62396,5,4,1:0:0:0:
417,184,63056,1,2,0:3:0:0:
417,184,63385,2,0,P|434:110|464:60,2,100,4|2|8,0:3|1:2|1:0,0:0:0:0:
332,237,64374,6,0,P|274:215|253:66,1,200,4|8,1:0|1:0,0:0:0:0:
169,20,65363,2,0,P|107:26|53:30,1,100,4|2,0:3|0:0,0:0:0:0:
7,108,66023,1,12,1:0:0:0:
88,164,66352,6,0,P|79:242|30:329,1,150,4|8,1:0|1:0,0:0:0:0:
17,345,67012,1,2,0:3:0:0:
114,365,67341,2,0,P|190:353|285:351,1,150,4|8,0:3|1:0,0:0:0:0:
310,367,68001,2,0,L|369:357,1,50,4|0,1:2|1:0,0:0:0:0:
408,368,68330,6,0,P|403:292|377:230,1,100,8|8,1:0|1:0,0:0:0:0:
303,230,68990,1,8,1:0:0:0:
330,134,69319,1,12,1:0:0:0:
330,134,70308,6,0,B|231:147|269:50|130:78,1,200,4|8,1:3|1:3,0:0:0:0:
56,36,71297,2,0,P|18:87|-1:146,1,100,0|0,1:0|1:0,0:0:0:0:
50,209,71957,1,8,1:3:0:0:
34,307,72286,6,0,P|87:320|236:270,1,200,0|8,1:0|1:3,0:0:0:0:
282,200,73275,2,0,P|352:212|475:299,1,200,4|8,0:0|1:0,0:0:0:0:
381,343,74264,6,0,P|330:343|268:351,2,100,4|0|8,1:0|1:0|1:3,0:0:0:0:
459,280,75253,2,0,P|481:196|459:82,1,200,0|8,1:0|1:3,0:0:0:0:
369,46,76242,6,0,L|233:65,1,100,0|0,1:0|1:0,0:0:0:0:
231,92,76737,2,0,P|238:124|244:167,2,50,0|8|0,1:2|1:0|0:0,0:0:0:0:
184,73,77231,2,0,P|121:81|62:128,1,100,0|12,1:0|1:0,0:0:0:0:
26,176,77891,1,8,1:0:0:0:
32,275,78220,6,0,P|91:268|228:326,1,200,4|8,1:0|1:3,0:0:0:0:
319,314,79209,2,0,P|379:330|441:325,2,100,0|4|8,1:0|0:0|1:3,0:0:0:0:
266,228,80198,6,0,P|264:155|228:105,1,100,0|0,1:3|1:0,0:0:0:0:
298,42,80858,1,8,1:3:0:0:
397,40,81187,2,0,P|473:57|517:173,1,200,0|4,1:0|1:0,0:0:0:0:
466,246,82176,6,0,L|261:231,1,200,8|8,1:0|1:3,0:0:0:0:
189,295,83165,2,0,P|125:262|102:130,1,200,0|8,1:0|1:0,0:0:0:0:
177,85,84154,6,0,L|286:100,2,100,8|4|0,1:3|0:0|1:0,0:0:0:0:
91,32,85143,1,8,1:0:0:0:
5,83,85473,2,0,L|9:148,1,50,8|4,1:0|1:2,0:0:0:0:
24,189,90088,6,0,L|142:171,1,100,4|0,1:0|1:0,0:0:0:0:
214,213,90748,1,0,0:0:0:0:
313,215,91077,2,0,P|365:182|376:108,1,100,8|8,1:0|1:0,0:0:0:0:
256,192,92066,12,2,93056,0:0:0:0:
449,248,94045,6,0,P|427:298|287:339,1,200,0|0,1:0|0:0,0:0:0:0:
229,269,95034,2,0,P|167:273|106:300,2,100,2|2|2,0:0|0:0|0:0,0:0:0:0:
324,237,96023,6,0,P|351:169|477:106,1,200,4|0,0:2|0:0,0:0:0:0:
403,21,97012,2,0,P|337:22|203:36,1,200,2|2,0:0|0:0,0:0:0:0:
118,89,98001,6,0,P|171:138|166:269,1,200,4|0,0:0|0:0,0:0:0:0:
85,310,98990,1,2,0:0:0:0:
275,370,99649,1,2,0:0:0:0:
364,324,99979,6,0,P|415:302|406:162,1,200,4|0,0:0|0:0,0:0:0:0:
324,203,100968,1,0,1:0:0:0:
62,56,101957,6,0,P|136:71|266:46,1,200,4|2,0:0|0:0,0:0:0:0:
349,88,102946,2,0,P|410:68|475:63,2,100,2|2|2,0:0|0:0|0:0,0:0:0:0:
272,152,103935,6,0,P|294:237|425:242,1,200,8|2,0:1|0:0,0:0:0:0:
484,218,104924,1,2,0:0:0:0:
475,317,105253,2,0,P|427:351|350:359,1,100,0|0,0:0|0:0,0:0:0:0:
287,354,105913,6,0,P|208:343|73:356,1,200,8|0,0:1|0:0,0:0:0:0:
20,279,106902,2,0,P|8:203|-2:153,2,100,2|2|2,0:0|0:0|0:0,0:0:0:0:
118,262,107891,6,0,P|149:220|67:103,1,200,8|2,0:1|0:0,0:0:0:0:
25,26,108880,2,0,P|100:25|194:37,1,150,2|8,0:0|1:0,0:0:0:0:
206,71,109539,2,0,P|237:70|270:70,1,50,4|4,0:3|0:3,0:0:0:0:
297,41,109869,6,0,P|336:101|325:244,1,200,4|0,1:0|0:0,0:0:0:0:
333,325,110858,2,0,P|396:351|428:374,2,100,0|4|8,1:0|0:0|1:0,0:0:0:0:
241,283,111847,6,0,P|162:284|111:305,1,100,4|0,0:3|1:0,0:0:0:0:
45,264,112506,1,0,0:0:0:0:
106,184,112836,2,0,P|94:126|97:60,2,100,4|4|8,0:3|0:0|1:0,0:0:0:0:
206,181,113825,6,0,P|275:153|286:11,1,200,4|0,0:3|0:0,0:0:0:0:
401,35,114814,2,0,P|465:52|510:65,1,100,4|0,0:3|0:0,0:0:0:0:
456,152,115473,1,8,1:0:0:0:
378,215,115803,6,0,P|374:286|478:360,1,200,4|8,0:3|1:0,0:0:0:0:
496,264,116792,1,4,1:2:0:0:
303,316,117451,1,12,1:0:0:0:
224,377,117781,6,0,P|144:352|130:214,1,200,4|2,1:3|0:0,0:0:0:0:
211,230,118770,2,0,L|318:239,1,100,4|4,0:3|0:3,0:0:0:0:
399,191,119429,1,8,1:0:0:0:
480,132,119759,6,0,P|452:77|299:105,1,200,4|2,1:3|0:0,0:0:0:0:
252,137,120748,2,0,L|152:128,1,100,4|4,0:3|0:3,0:0:0:0:
75,64,121407,1,8,1:0:0:0:
54,161,121737,6,0,B|86:266|-10:244|38:369,1,200,4|0,1:3|0:0,0:0:0:0:
130,367,122726,2,0,P|209:350|331:354,1,200,4|8,0:3|1:0,0:0:0:0:
427,358,123715,6,0,P|449:296|418:193,1,150,4|0,1:3|1:0,0:0:0:0:
387,193,124374,1,8,1:0:0:0:
296,234,124704,2,0,P|274:172|276:107,1,100,4|8,0:3|1:0,0:0:0:0:
339,64,125363,1,8,1:0:0:0:
438,51,125693,6,0,P|491:109|481:196,1,150,4|0,1:0|1:0,0:0:0:0:
386,285,126682,2,0,P|316:296|266:286,2,100,0|4|8,1:0|0:0|1:0,0:0:0:0:
376,185,127671,6,0,P|343:126|325:57,2,100,0|4|8,1:0|0:0|1:0,0:0:0:0:
466,228,128660,1,8,1:0:0:0:
386,285,128990,2,0,P|298:254|279:240,1,100,4|8,0:0|1:0,0:0:0:0:
254,158,129649,6,0,P|188:131|141:128,1,100,12|8,1:0|1:0,0:0:0:0:
15,266,130638,2,0,P|6:322|1:373,2,100,4|0|8,3:0|3:3|1:0,0:0:0:0:
61,177,131627,6,0,P|42:112|33:50,1,100,4|4,0:3|0:0,0:0:0:0:
114,18,132286,1,8,1:0:0:0:
196,75,132616,2,0,P|249:82|308:76,1,100,4|8,0:3|1:0,0:0:0:0:
378,23,133275,1,8,1:0:0:0:
460,80,133605,6,0,P|475:166|481:212,1,100,12|8,1:0|1:0,0:0:0:0:
345,329,134594,2,0,P|270:361|246:381,2,100,4|4|8,1:2|0:3|1:0,0:0:0:0:
445,326,135583,6,0,P|423:264|385:200,1,100,4|0,0:3|1:0,0:0:0:0:
312,201,136242,1,8,1:0:0:0:
283,104,136572,2,0,P|230:108|141:243,1,200,8|8,1:0|1:0,0:0:0:0:
201,294,137561,5,4,1:0:0:0:
23,202,138220,2,0,P|31:137|29:97,1,100,2|4,0:3|0:3,0:0:0:0:
106,37,138880,1,2,1:2:0:0:
188,93,139209,2,0,P|252:89|301:82,1,100,8|4,1:0|1:0,0:0:0:0:
483,125,140198,5,8,1:0:0:0:
483,125,140528,2,0,P|480:181|482:240,1,100,4|2,0:3|0:0,0:0:0:0:
416,301,141187,1,12,1:0:0:0:
324,261,141517,6,0,P|254:264|140:315,1,150,4|8,1:0|1:0,0:0:0:0:
152,332,142176,1,2,0:3:0:0:
62,286,142506,2,0,P|67:217|60:131,1,150,4|8,0:3|1:0,0:0:0:0:
24,102,143165,1,4,1:2:0:0:
112,55,143495,6,0,L|222:69,1,100,8|8,1:0|1:0,0:0:0:0:
306,37,144154,1,8,1:0:0:0:
309,137,144484,1,12,1:0:0:0:
396,258,144979,2,0,L|445:250,2,50,8|8|8,1:0|1:0|1:0,0:0:0:0:
369,300,145473,6,0,P|293:302|196:396,1,200,4|8,1:3|1:3,0:0:0:0:
102,372,146462,2,0,P|60:304|52:242,1,100,0|0,1:0|1:0,0:0:0:0:
102,197,147121,1,8,1:3:0:0:
91,97,147451,6,0,P|148:32|182:22,2,100,0|0|8,1:0|1:0|1:0,0:0:0:0:
183,134,148440,2,0,L|298:137,1,100,4|0,0:0|1:0,0:0:0:0:
365,79,149099,1,8,1:0:0:0:
436,149,149429,6,0,P|456:234|491:268,2,100,4|0|8,1:0|1:0|1:3,0:0:0:0:
365,79,150418,2,0,P|300:114|297:249,1,200,0|8,1:0|1:3,0:0:0:0:
347,308,151407,6,0,P|297:341|211:348,1,100,0|0,1:0|1:0,0:0:0:0:
161,327,152066,1,8,1:0:0:0:
67,363,152396,2,0,B|43:253|125:275|99:151,1,200,0|8,1:0|1:0,0:0:0:0:
61,80,153385,6,0,P|127:66|278:77,1,200,4|8,1:0|1:3,0:0:0:0:
346,120,154374,2,0,P|412:105|446:85,2,100,0|0|8,1:0|1:0|1:3,0:0:0:0:
272,188,155363,6,0,P|334:259|338:295,1,100,0|0,1:0|1:0,0:0:0:0:
426,301,156023,1,8,1:3:0:0:
347,362,156352,2,0,P|258:356|141:313,1,200,4|8,1:2|1:0,0:0:0:0:
53,319,157341,5,4,1:0:0:0:
5,231,157671,2,0,P|28:171|29:106,1,100,0|8,1:0|1:3,0:0:0:0:
69,43,158330,2,0,P|132:65|219:190,1,200,0|8,1:0|1:0,0:0:0:0:
285,235,159319,6,0,P|364:214|397:199,2,100,8|4|0,1:3|0:2|1:0,0:0:0:0:
191,269,160308,1,8,1:0:0:0:
275,323,160638,2,0,L|360:334,1,50,8|4,1:0|1:2,0:0:0:0:
505,204,165253,6,0,P|448:196|388:158,1,100,4|0,1:0|1:0,0:0:0:0:
246,62,166242,1,12,1:0:0:0:
246,62,166572,2,0,P|170:92|137:130,1,100,8|8,1:0|1:0,0:0:0:0:
57,108,167231,6,0,B|91:202|26:200|64:342,1,200,4|8,1:0|1:0,0:0:0:0:
137,362,168220,2,0,P|186:333|265:322,1,100,2|2,0:0|0:0,0:0:0:0:
317,366,168880,1,8,1:0:0:0:
410,330,169209,6,0,P|360:269|229:245,1,200,4|12,0:3|1:0,0:0:0:0:
145,242,170198,2,0,P|120:178|149:109,1,100,4|2,0:3|0:0,0:0:0:0:
199,81,170858,1,8,1:0:0:0:
276,144,171187,6,0,P|366:172|448:12,1,300,6|4,0:0|0:3,0:0:0:0:
251,19,172836,1,12,1:0:0:0:
251,19,173165,6,0,P|174:32|124:55,1,100,4|4,1:0|0:3,0:0:0:0:
56,64,173825,1,2,0:0:0:0:
21,157,174154,2,0,P|29:235|24:303,1,100,8|4,1:0|0:3,0:0:0:0:
73,280,174649,2,0,P|103:278|160:277,2,50,12|8|4,1:0|1:0|0:3,0:0:0:0:
59,328,175143,6,0,P|121:362|247:331,1,200,4|8,1:0|1:0,0:0:0:0:
265,237,176132,2,0,P|337:239|374:247,1,100,0|2,1:0|1:0,0:0:0:0:
463,224,176792,1,8,1:0:0:0:
476,125,177121,6,0,P|403:103|278:158,1,200,6|10,1:0|1:0,0:0:0:0:
207,200,178110,1,0,1:0:0:0:
141,275,178440,2,0,P|92:200|96:163,1,100,4|10,0:3|1:0,0:0:0:0:
44,105,179099,6,0,L|110:97,1,50,4|4,0:3|0:3,0:0:0:0:
192,119,179594,2,0,L|200:185,2,50,8|8|4,1:0|0:3|0:3,0:0:0:0:
225,81,180088,2,0,L|291:73,1,50,4|4,0:3|0:3,0:0:0:0:
369,106,180583,2,0,L|377:172,2,50,8|8|2,1:0|1:0|0:0,0:0:0:0:
402,69,181077,6,0,P|467:69|494:178,1,150,14|10,1:1|1:0,0:0:0:0:
476,175,181737,1,2,1:0:0:0:
473,275,182066,2,0,B|411:314|410:238|292:295,2,150,14|14|14,1:0|1:0|1:0,0:0:0:0:
359,372,183550,5,14,1:0:0:0:
217,322,184045,2,0,P|151:328|94:335,1,100,14|4,1:0|0:3,0:0:0:0:
74,306,184539,1,14,1:0:0:0:
51,177,185034,6,0,P|92:150|116:89,1,100,6|8,1:0|0:3,0:0:0:0:
87,63,185528,1,10,1:0:0:0:
235,42,186023,2,0,L|351:55,1,100,4|4,1:0|1:0,0:0:0:0:
447,83,193605,6,0,P|419:130|403:190,2,100,4|0|8,0:0|1:0|1:0,0:0:0:0:
380,8,194594,1,8,1:0:0:0:
280,21,194924,6,0,P|212:35|149:169,1,200,4|0,1:0|0:0,0:0:0:0:
221,206,195913,2,0,P|254:275|266:313,2,100,4|2|8,0:3|0:0|1:0,0:0:0:0:
122,225,196902,6,0,P|57:237|8:268,1,100,4|2,0:3|0:3,0:0:0:0:
37,352,197561,2,0,P|74:361|150:357,1,100,2|4,0:0|0:3,0:0:0:0:
209,292,198220,1,8,1:0:0:0:
291,350,198550,1,12,1:0:0:0:
380,304,198880,6,0,P|401:237|441:201,1,100,12|4,1:0|1:2,0:0:0:0:
426,115,199539,1,12,1:0:0:0:
327,109,199869,2,0,P|319:53|255:-4,1,100,12|4,1:0|1:2,0:0:0:0:
195,32,200528,1,8,1:0:0:0:
94,30,200858,6,0,P|70:86|79:159,2,100,12|0|8,1:0|1:0|1:0,0:0:0:0:
193,43,201847,2,0,P|243:35|303:29,1,100,12|4,1:0|1:0,0:0:0:0:
382,72,202506,1,4,1:2:0:0:
481,63,202836,5,4,0:3:0:0:
503,107,203001,2,0,P|492:166|466:218,1,100,12|4,1:0|0:3,0:0:0:0:
427,215,203495,2,0,P|371:208|299:207,1,100,12|4,1:0|0:3,0:0:0:0:
286,235,203990,2,0,P|239:239|161:238,1,100,12|4,1:0|0:3,0:0:0:0:
140,218,204484,2,0,L|141:165,2,50,12|4|4,1:0|0:3|0:3,0:0:0:0:
91,232,204979,6,0,P|56:282|196:343,1,250,12|4,1:0|1:2,0:0:0:0:
258,302,206132,1,4,1:2:0:0:
430,199,206792,6,0,P|422:133|291:58,1,200,4|8,1:3|1:3,0:0:0:0:
224,84,207781,2,0,P|150:83|99:69,1,100,0|0,1:0|1:0,0:0:0:0:
24,73,208440,1,8,1:3:0:0:
22,173,208770,6,0,P|20:243|2:293,2,100,4|0|8,1:0|1:0|1:3,0:0:0:0:
121,183,209759,2,0,P|168:238|183:281,1,100,0|4,1:0|0:0,0:0:0:0:
276,280,210418,1,8,1:0:0:0:
324,367,210748,6,0,P|392:334|399:195,1,200,4|8,1:0|1:3,0:0:0:0:
321,179,211737,2,0,P|291:125|294:24,1,150,0|0,1:0|1:0,0:0:0:0:
337,25,212396,2,0,L|443:45,2,100,8|0|0,1:3|1:0|1:0,0:0:0:0:
234,17,213385,6,0,P|149:43|104:69,1,100,8|4,1:0|1:2,0:0:0:0:
48,91,214045,2,0,P|64:173|65:205,1,100,12|8,1:0|1:0,0:0:0:0:
161,216,214704,6,0,P|166:289|50:342,1,200,4|8,1:0|1:3,0:0:0:0:
30,253,215693,2,0,L|47:134,1,100,0|0,1:0|1:0,0:0:0:0:
116,84,216352,1,8,1:3:0:0:
199,138,216682,6,0,P|279:126|326:96,1,100,4|0,1:0|1:0,0:0:0:0:
330,24,217341,1,8,1:3:0:0:
421,63,217671,2,0,P|471:107|476:240,1,200,0|8,1:0|1:0,0:0:0:0:
379,244,218660,6,0,P|304:240|245:210,2,100,4|0|8,1:0|0:0|1:3,0:0:0:0:
442,321,219649,2,0,P|385:341|218:337,1,200,4|8,1:0|1:3,0:0:0:0:
170,279,220638,6,0,P|114:286|21:157,1,200,4|0,1:2|1:0,0:0:0:0:
66,102,221627,1,8,1:0:0:0:
150,155,221957,2,0,L|216:147,1,50,8|8,1:0|1:0,0:0:0:0:
238,117,222286,2,0,L|287:110,2,50,8|0|6,1:0|1:0|1:0,0:0:0:0:
156,57,222946,5,6,1:0:0:0:
66,102,223275,2,0,L|62:170,1,50,4|2,0:0|0:0,0:0:0:0:
40,196,223605,2,0,P|81:223|110:292,1,100,4|12,0:0|1:0,0:0:0:0:
90,365,224264,1,4,1:0:0:0:
188,348,224594,6,0,P|254:333|334:333,1,100,0|0,1:0|1:0,0:0:0:0:
382,357,225253,1,8,1:3:0:0:
477,325,225583,2,0,P|470:254|359:173,1,200,0|8,1:0|1:3,0:0:0:0:
289,225,226572,6,0,P|205:220|188:115,1,200,4|8,1:0|1:3,0:0:0:0:
278,87,227561,2,0,L|384:83,2,100,0|0|8,1:0|1:0|1:3,0:0:0:0:
193,32,228550,5,4,1:0:0:0:
93,41,228880,2,0,P|49:108|39:164,1,100,0|8,1:0|1:0,0:0:0:0:
70,223,229539,2,0,P|67:299|174:338,1,200,12|2,1:0|1:2,0:0:0:0:
248,278,230528,6,0,P|316:293|446:331,1,200,4|8,1:0|1:3,0:0:0:0:
498,247,231517,1,0,1:0:0:0:
491,147,231847,2,0,P|446:178|400:208,1,100,0|8,1:0|1:3,0:0:0:0:
308,190,232506,6,0,P|301:126|270:55,1,100,0|0,1:0|1:0,0:0:0:0:
197,53,233165,2,0,L|139:68,1,50,8|4,1:3|1:2,0:0:0:0:
98,60,233495,2,0,P|70:127|102:257,1,200,0|8,1:0|1:0,0:0:0:0:
74,345,234484,6,0,L|181:328,1,100,4|0,1:0|1:0,0:0:0:0:
259,279,235143,1,8,1:3:0:0:
355,304,235473,2,0,L|462:287,2,100,0|0|8,1:0|0:0|1:3,0:0:0:0:
259,279,236462,6,0,L|216:62,1,200,4|8,1:0|1:3,0:0:0:0:
283,5,237451,1,0,1:0:0:0:
379,31,237781,2,0,L|486:14,1,100,8|8,1:0|1:0,0:0:0:0:
483,115,238440,5,12,1:0:0:0:
407,180,238770,2,0,P|420:209|434:267,1,50,4|8,0:0|1:0,0:0:0:0:
399,322,239264,1,4,0:0:0:0:
378,367,239429,2,0,P|307:362|252:364,1,100,8|8,1:0|1:0,0:0:0:0:
190,313,240088,1,8,1:0:0:0:
97,352,240418,5,4,1:0:0:0:
51,57,241407,2,0,P|106:71|173:67,1,100,2|2,0:0|0:0,0:0:0:0:
240,30,242069,1,2,0:0:0:0:
328,71,242401,6,0,P|365:137|347:278,1,200,4|0,0:0|0:0,0:0:0:0:
266,299,243423,1,2,0:0:0:0:
95,210,244118,1,0,0:0:0:0:
160,138,244479,6,0,P|232:131|339:33,1,200,4|0,0:0|0:0,0:0:0:0:
429,35,245597,1,2,0:0:0:0:
412,217,246339,1,2,0:0:0:0:
402,318,246734,1,2,0:0:0:0:
134,338,247934,1,0,0:0:0:0:
308,338,248829,5,2,0:0:0:0:
294,236,249341,2,0,L|233:239,1,50,2|2,0:0|0:0,0:0:0:0:
208,273,249780,1,0,0:0:0:0:
134,338,250167,1,2,0:0:0:0:
57,273,250562,6,0,P|55:197|40:155,1,100,2|2,0:0|0:0,0:0:0:0:
89,83,251358,1,2,0:0:0:0:
179,103,251761,2,0,L|244:105,1,50,2|0,0:0|0:0,0:0:0:0:
273,80,252176,1,0,0:0:0:0:
367,102,252577,1,2,0:0:0:0:
420,182,252988,6,0,P|447:242|456:282,1,100,2|2,0:0|0:0,0:0:0:0:
374,351,253829,2,0,P|313:326|280:305,1,100,2|2,0:0|0:0,0:0:0:0:
144,232,254903,2,0,P|108:242|84:257,2,50,2|2|2,0:0|0:0|0:0,0:0:0:0:
313,194,256220,6,0,P|400:188|428:174,1,100,2|2,0:0|0:0,0:0:0:0:
256,192,257395,12,0,261104,0:0:0:0:
