osu file format v14

[General]
AudioFilename: audio.mp3
AudioLeadIn: 0
PreviewTime: 93715
Countdown: 0
SampleSet: Soft
StackLeniency: 0.7
Mode: 0
LetterboxInBreaks: 0
WidescreenStoryboard: 0

[Editor]
DistanceSpacing: 1
BeatDivisor: 4
GridSize: 16
TimelineZoom: 2.5

[Metadata]
Title:Ryokugan no Kemono
TitleUnicode:緑眼の獣
Artist:Liz Triangle
ArtistUnicode:Liz Triangle
Creator:Mirash
Version:Lunatic
Source:東方地霊殿 ~ Subterranean Animism.
Tags:pandahero trynna lily-an parsee mizuhashi 水橋 パルスィ kaztora eba azuki 緑眼のジェラシー 神風 Divine Wind c77 77 doujin Misaki Nakajima Green Eyed Beast touhou zun
BeatmapID:1400359
BeatmapSetID:661455

[Difficulty]
HPDrainRate:7
CircleSize:4
OverallDifficulty:8
ApproachRate:9
SliderMultiplier:1.6
SliderTickRate:1

[Events]
//Background and Video events
0,0,"bg.jpg",0,0
//Break Periods
2,19079,25803
2,187012,192946
//Storyboard Layer 0 (Background)
//Storyboard Layer 1 (Fail)
//Storyboard Layer 2 (Pass)
//Storyboard Layer 3 (Foreground)
//Storyboard Sound Samples

[TimingPoints]
3056,329.67032967033,3,2,3,70,1,0
6682,-71.4285714285714,3,2,3,70,0,0
7012,-133.333333333333,3,2,3,70,0,0
7506,-100,3,2,3,70,0,0
16242,-83.3333333333333,3,2,3,70,0,0
18220,-333.333333333333,3,2,3,70,0,0
18880,-333.333333333333,3,2,3,40,0,0
34045,-200,3,2,3,50,0,0
38001,-200,3,2,3,40,0,0
38083,-200,3,2,3,50,0,0
51517,-111.111111111111,3,2,3,50,0,0
61077,-90.9090909090909,3,2,3,55,0,0
61407,-66.6666666666667,3,2,3,60,0,0
62396,-83.3333333333333,3,2,3,60,0,0
70308,-76.9230769230769,3,2,4,70,0,1
86132,-100,3,2,3,60,0,0
94045,-333.333333333333,3,2,3,40,0,0
100968,-333.333333333333,3,2,3,20,0,0
101627,-333.333333333333,3,2,3,40,0,0
109209,-200,3,2,3,50,0,0
113165,-200,3,2,3,40,0,0
113248,-200,3,2,3,50,0,0
125693,-111.111111111111,3,2,3,50,0,0
136242,-90.9090909090908,3,2,3,55,0,0
136572,-66.6666666666667,3,2,3,60,0,0
137561,-83.3333333333333,3,2,3,60,0,0
145473,-76.9230769230769,3,2,4,70,0,1
161297,-100,3,2,3,60,0,0
167891,-90.9090909090909,3,2,3,70,0,0
193605,-90.9090909090909,3,2,3,50,0,0
194924,-200,3,2,3,50,0,0
198550,-142.857142857143,3,2,3,50,0,0
200858,-100,3,2,3,50,0,0
206792,-76.9230769230769,3,2,4,70,0,1
221957,-76.9230769230769,3,2,3,70,0,0
222616,-76.9230769230769,3,2,3,70,0,1
222781,-76.9230769230769,3,2,3,70,0,0
222946,-76.9230769230769,3,2,3,70,0,1
223110,-76.9230769230769,3,2,3,70,0,0
223605,-76.9230769230769,3,2,4,70,0,1
240418,-100,3,2,3,70,0,0
241407,331.491712707182,3,2,5,30,1,0
241407,-200,3,2,5,30,0,0
242401,340.909090909091,4,2,5,30,1,0
242401,-200,4,2,5,30,0,0
243594,352.941176470588,4,2,5,30,1,0
243594,-200,4,2,5,30,0,0
243770,348.837209302326,4,2,5,30,1,0
243944,-200,4,2,5,30,0,0
244118,361.44578313253,4,2,5,30,1,0
244479,372.670807453416,4,2,5,30,1,0
244479,-200,4,2,5,30,0,0
245597,365.853658536585,4,2,5,30,1,0
245779,-200,4,2,5,30,0,0
246145,389.61038961039,4,2,5,30,1,0
246145,-200,4,2,5,30,0,0
246339,405.405405405405,4,2,5,30,1,0
246541,387.096774193548,4,2,5,30,1,0
246928,400,4,2,5,30,1,0
246928,-200,4,2,5,30,0,0
247128,394.736842105263,4,2,5,30,1,0
247325,425.531914893617,4,2,5,30,1,0
247325,-200,4,2,5,30,0,0
247537,365.853658536585,4,2,5,30,1,0
247719,431.654676258993,4,2,5,30,1,0
247934,447.761194029851,4,2,5,25,1,0
247934,-200,4,2,5,25,0,0
248829,512.820512820513,4,2,5,20,1,0
249341,500,4,2,5,20,1,0
249591,379.746835443038,4,2,5,20,1,0
249970,394.736842105263,4,2,5,20,1,0
250167,-200,4,2,5,20,0,0
250956,402.684563758389,4,2,5,20,1,0
251761,434.782608695652,4,2,5,20,1,0
251978,397.350993377483,4,2,5,20,1,0
252176,392.156862745098,4,2,5,20,1,0
252372,410.958904109589,4,2,5,20,1,0
252577,-200,4,2,5,20,0,0
252988,425.531914893617,4,2,5,20,1,0
253413,416.666666666667,4,2,5,20,1,0
253829,379.746835443038,4,2,5,20,1,0
254208,431.654676258993,4,2,5,15,1,0
254315,588.235294117647,4,2,5,15,1,0
254903,441.176470588235,4,2,5,15,1,0
255344,352.941176470588,4,2,5,15,1,0
255520,370.37037037037,4,2,5,15,1,0
255766,454.545454545455,4,2,5,15,1,0
256220,504.201680672269,4,2,5,15,1,0
256724,361.44578313253,4,2,5,15,1,0
257085,372.670807453416,4,2,5,15,1,0
257395,521.739130434783,4,2,5,15,1,0
258438,666.666666666667,4,2,5,10,1,0

[Colours]
Combo1 : 16,205,101
Combo2 : 100,148,48
Combo3 : 62,130,99
Combo4 : 0,130,130

[HitObjects]
71,370,3056,6,2,P|48:280|66:208,1,160,4|0,1:0|0:0,0:1:0:0:
154,243,3550,1,0,0:0:0:0:
243,277,3715,2,0,B|336:270|302:333|420:318,1,160,2|2,0:3|0:0,0:0:0:0:
482,287,4209,1,0,0:0:0:0:
404,230,4374,2,0,P|417:170|410:139,1,80,2|0,0:0|0:0,0:0:0:0:
264,24,4704,6,2,P|253:80|272:194,1,160,0|2,1:0|0:0,0:0:0:0:
346,97,5198,1,0,0:0:0:0:
461,76,5363,2,0,P|407:70|367:54,1,80,2|0,0:0|0:0,0:0:0:0:
471,191,5693,2,0,P|477:137|493:97,1,80,2|0,0:3|0:0,0:0:0:0:
363,210,6023,2,0,P|417:216|457:232,1,80,4|0,3:0|0:0,0:0:0:0:
313,298,6352,6,2,P|245:295|176:271,1,120,4|0,0:0|0:0,0:0:0:0:
171,260,6682,6,2,P|251:286|338:288,1,167.999994873047,0|0,1:0|0:0,0:1:0:0:
319,279,7012,6,2,P|251:276|182:251,1,120.000004577637,4|2,1:0|0:0,0:1:0:0:
140,186,7506,1,0,0:0:0:0:
47,212,7671,1,2,0:3:0:0:
52,307,7836,1,0,0:0:0:0:
144,333,8001,2,0,P|180:344|236:379,1,80,4|0,0:3|0:0,0:0:0:0:
446,341,8330,6,0,P|387:347|308:316,1,120,0|0,0:0|0:1,0:0:0:0:
321,312,8660,2,0,B|338:242|292:214|310:142,1,160,0|4,1:0|0:3,0:0:0:0:
383,117,9154,1,2,0:1:0:0:
315,74,9319,2,0,P|254:73|157:106,1,160,2|0,0:0|1:0,0:0:0:0:
51,225,9814,5,0,0:0:0:0:
126,198,9979,1,4,0:3:0:0:
46,196,10143,1,0,0:0:0:0:
124,282,10308,1,4,0:3:0:0:
124,282,10391,1,0,1:0:0:0:
124,282,10473,1,0,1:0:0:0:
217,327,10638,5,4,0:3:0:0:
345,327,10803,5,2,0:0:0:0:
466,234,10968,6,0,B|398:231|398:231|369:252|369:252|307:251,1,160,4|0,1:0|0:0,0:0:0:0:
250,201,11462,1,2,0:1:0:0:
315,154,11627,2,2,L|416:158,1,80,2|0,0:3|0:0,0:1:0:0:
307,55,11957,2,2,L|303:156,1,80,4|0,0:3|0:0,0:1:0:0:
404,50,12286,2,2,L|303:46,1,80,2|0,0:0|0:0,0:1:0:0:
221,126,12616,6,0,L|39:121,2,160,0|4|2,1:1|0:3|0:0,0:0:0:0:
258,196,13440,1,0,0:0:0:0:
206,256,13605,2,2,L|210:367,1,80,2|0,0:3|0:0,0:1:0:0:
55,348,13935,1,4,0:3:0:0:
57,268,14099,1,0,0:0:0:0:
126,308,14264,1,4,0:2:0:0:
293,371,14512,5,4,0:3:0:0:
293,371,14594,2,0,L|298:265,1,80,0|0,1:0|0:0,0:0:0:0:
471,213,14924,2,0,B|429:242|429:242|306:205,1,160,4|0,1:0|0:0,0:0:0:0:
322,130,15418,1,2,0:0:0:0:
251,92,15583,2,0,P|217:141|250:234,1,160,2|4,0:3|0:0,0:0:0:0:
399,170,16077,1,0,0:0:0:0:
91,67,16242,6,2,P|39:123|27:184,1,95.9999970703126,4|8,1:0|0:0,0:0:0:0:
421,317,16572,6,2,P|473:261|485:200,1,95.9999970703126,4|8,1:0|0:0,0:0:0:0:
322,130,16902,5,8,1:0:0:0:
179,275,17066,1,0,1:0:0:0:
183,277,17149,1,8,1:0:0:0:
187,279,17231,1,0,1:0:0:0:
191,281,17314,1,8,1:0:0:0:
195,283,17396,1,8,1:0:0:0:
95,235,17561,5,0,1:0:0:0:
98,337,17726,1,8,0:0:0:0:
282,236,17891,2,0,L|435:260,1,143.999995605469,2|0,1:0|0:0,0:1:0:0:
396,267,18220,6,2,L|301:252,1,95.9999970703126,0|4,1:0|0:3,0:1:0:0:
430,323,26792,6,0,P|381:312|336:313,1,95.9999970703126,4|2,1:2|0:0,0:0:0:0:
238,364,27616,1,2,0:0:0:0:
238,364,27781,2,0,P|241:346|242:331,1,23.9999992675781,2|0,0:0|0:0,0:0:0:0:
187,285,28110,2,0,P|184:258|183:252,1,23.9999992675781,2|0,0:0|0:0,0:0:0:0:
259,238,28440,2,0,P|261:217|263:205,1,23.9999992675781,2|0,0:0|1:0,0:0:0:0:
244,91,28770,6,0,P|291:82|345:90,1,95.9999970703126,8|2,0:1|0:0,0:0:0:0:
426,144,29594,1,2,0:0:0:0:
426,144,29759,2,0,P|424:168|423:176,1,23.9999992675781,2|0,0:0|0:0,0:0:0:0:
350,214,30088,2,0,P|352:238|353:246,1,23.9999992675781,2|0,0:0|0:0,0:0:0:0:
436,349,30418,2,0,P|435:331|436:320,1,23.9999992675781,2|0,0:0|1:0,0:0:0:0:
300,322,30748,6,0,P|254:328|206:319,1,95.9999970703126,8|0,0:1|0:0,0:0:0:0:
52,88,31737,6,0,P|78:84|105:89,1,47.9999985351563,2|2,0:0|0:0,0:0:0:0:
407,215,32396,6,0,P|393:216|380:214,1,23.9999992675781,2|0,0:0|1:0,0:0:0:0:
274,80,32726,6,0,P|257:102|239:177,1,95.9999970703126,8|2,0:1|0:0,0:0:0:0:
289,247,33550,1,2,0:0:0:0:
289,247,33715,1,2,0:0:0:0:
335,363,34127,5,0,1:0:0:0:
335,363,34209,1,8,1:0:0:0:
253,318,34374,5,4,0:3:0:0:
157,331,34539,5,4,0:3:0:0:
63,268,34704,6,0,P|57:226|67:178,1,80,4|4,1:0|0:3,0:0:0:0:
167,99,35198,2,0,P|168:130|164:151,1,40
141,215,35528,1,0,0:0:0:0:
252,166,35693,6,0,P|250:185|255:233,1,60,0|0,1:0|0:0,0:0:0:0:
272,246,36023,2,0,L|322:241,1,40,4|0,0:0|0:0,0:0:0:0:
385,273,36352,2,0,L|428:273,1,40,8|0,1:0|0:0,0:0:0:0:
405,194,36682,6,0,P|408:164|399:110,1,80,0|4,1:0|0:3,0:0:0:0:
341,61,37176,1,2,0:0:0:0:
260,64,37341,1,2,0:0:0:0:
179,67,37506,1,0,0:0:0:0:
127,128,37671,2,0,P|125:171|136:218,1,80,0|6,1:0|0:0,0:0:0:0:
120,332,38165,5,0,0:0:0:0:
179,278,38330,2,0,P|200:276|232:275,1,40,8|0,1:0|0:0,0:0:0:0:
384,322,38660,2,0,P|387:281|379:232,1,80,0|4,1:0|0:3,0:0:0:0:
301,242,39154,1,2,0:0:0:0:
304,162,39319,1,2,0:0:0:0:
308,82,39484,1,0,0:0:0:0:
421,130,39649,6,0,P|459:133|475:137,1,40,0|2,1:0|0:3,0:0:0:0:
228,41,39979,2,0,P|201:42|167:48,1,60,4|0,0:0|0:0,0:0:0:0:
138,73,40308,2,0,P|138:104|147:126,1,40,8|0,1:0|0:0,0:0:0:0:
188,185,40638,2,0,P|191:229|185:271,1,80,4|0,0:3|0:0,0:0:0:0:
40,364,41215,5,0,1:0:0:0:
40,364,41297,1,8,1:0:0:0:
109,322,41462,1,4,0:3:0:0:
260,330,41627,1,4,1:2:0:0:
260,330,42286,6,0,P|265:282|263:254,1,60,12|0,1:0|0:0,0:0:0:0:
348,311,42616,6,0,P|345:260|329:219,1,80,4|8,1:3|1:0,0:0:0:0:
268,189,43110,1,2,0:0:0:0:
264,73,43275,1,2,0:0:0:0:
209,131,43440,1,0,0:0:0:0:
330,133,43605,1,4,0:3:0:0:
330,133,43935,1,4,0:3:0:0:
330,133,44264,6,0,P|335:181|333:209,1,60,12|0,1:0|0:0,0:0:0:0:
418,152,44594,6,0,P|415:203|399:244,1,80,4|8,1:3|1:0,0:0:0:0:
338,272,45088,1,2,0:0:0:0:
255,346,45253,1,2,0:0:0:0:
334,353,45418,1,0,0:0:0:0:
262,272,45583,1,4,0:3:0:0:
262,272,45913,1,4,0:3:0:0:
262,272,46242,6,0,P|206:268|187:269,1,60,12|0,1:0|0:0,0:0:0:0:
171,294,46572,1,4,1:3:0:0:
92,278,46737,1,2,0:0:0:0:
62,166,46902,1,0,1:0:0:0:
140,178,47066,2,0,P|187:175|224:168,1,80,0|2,1:0|0:0,0:0:0:0:
358,61,47561,2,0,P|389:64|436:73,1,80,4|2,0:3|0:0,0:0:0:0:
472,145,48056,1,0,0:0:0:0:
303,352,48220,6,0,P|305:312|303:272,1,80,8|4,1:0|0:3,0:0:0:0:
303,272,48962,1,0,1:0:0:0:
303,272,49045,1,8,1:0:0:0:
381,232,49209,1,4,0:3:0:0:
381,232,49539,5,4,0:0:0:0:
306,201,49704,1,2,1:2:0:0:
114,306,49869,5,8,1:0:0:0:
189,275,50034,1,8,1:0:0:0:
197,28,50198,5,4,1:3:0:0:
192,143,50363,1,4,1:3:0:0:
498,197,50528,5,4,1:0:0:0:
498,197,50858,1,4,1:0:0:0:
498,197,51352,5,0,1:0:0:0:
498,197,51435,1,8,1:0:0:0:
498,197,51517,2,0,P|501:247|494:283,1,71.9999978027344,6|0,0:0|0:0,0:0:0:0:
317,331,51847,2,0,P|314:281|321:245,1,71.9999978027344,2|0,0:0|0:0,0:0:0:0:
435,99,52176,5,8,1:0:0:0:
366,159,52341,1,0,1:0:0:0:
275,145,52506,2,0,P|251:81|246:61,1,71.9999978027344,4|0,0:3|0:0,0:0:0:0:
216,225,52836,2,0,P|210:265|196:305,1,71.9999978027344,2|0,0:0|0:0,0:0:0:0:
16,180,53165,5,8,1:0:0:0:
79,114,53330,1,4,0:3:0:0:
146,175,53495,1,8,1:0:0:0:
86,243,53660,1,2,0:0:0:0:
161,88,53825,5,8,1:0:0:0:
333,76,53990,1,2,1:2:0:0:
345,248,54154,1,8,1:0:0:0:
173,260,54319,1,8,1:0:0:0:
441,154,54484,6,0,P|459:223|458:279,1,107.999996704102,12|0,1:0|0:0,0:0:0:0:
409,340,54814,2,0,B|331:328|338:368|242:340,1,143.999995605469,8|0,1:0|0:0,0:0:0:0:
165,367,55308,1,0,1:0:0:0:
170,357,55391,1,8,1:0:0:0:
175,347,55473,2,0,P|184:270|215:187,2,143.999995605469,0|4|8,1:0|0:3|1:0,0:0:0:0:
398,202,56462,5,4,1:3:0:0:
321,152,56627,1,2,0:0:0:0:
318,243,56792,1,4,0:3:0:0:
318,243,56957,1,0,0:0:0:0:
400,114,57121,5,8,1:0:0:0:
394,288,57286,1,0,1:0:0:0:
407,197,57451,1,4,1:0:0:0:
391,208,57616,1,2,0:0:0:0:
256,195,57781,5,8,1:0:0:0:
92,183,57946,1,8,1:0:0:0:
8,175,58110,1,8,1:0:0:0:
49,256,58275,5,0,1:0:0:0:
49,256,58358,1,8,1:0:0:0:
49,256,58440,2,0,B|100:273|100:273|134:329,1,107.999996704102,12|0,1:0|0:0,0:0:0:0:
210,293,58770,2,0,B|293:273|274:323|371:295,1,143.999995605469,8|0,1:0|0:0,0:0:0:0:
441,337,59264,5,0,1:0:0:0:
447,327,59347,1,0,1:0:0:0:
453,317,59429,2,0,P|451:216|425:166,2,143.999995605469,4|4|8,1:2|0:3|1:0,0:0:0:0:
363,333,60253,1,2,0:0:0:0:
273,349,60418,2,0,P|257:303|256:272,1,71.9999978027344,4|0,0:3|0:0,0:0:0:0:
321,109,60748,2,0,P|337:155|338:186,1,71.9999978027344,0|0,1:0|0:0,0:0:0:0:
468,323,61077,6,0,P|426:283|378:262,1,88.000002685547,8|0,1:0|0:0,0:0:0:0:
61,310,61407,6,0,P|103:270|165:245,1,120.000004577637,8|0,1:0|0:0,0:0:0:0:
284,179,61737,5,8,1:0:0:0:
400,270,61902,1,0,1:0:0:0:
272,346,62066,1,8,1:0:0:0:
160,247,62231,1,8,1:0:0:0:
482,194,62396,6,0,P|494:276|488:313,1,95.9999970703126,4|0,1:0|0:0,0:0:0:0:
272,346,62726,2,0,P|260:264|262:221,1,95.9999970703126,2|0,0:2|0:0,0:0:0:0:
358,116,63056,5,2,0:3:0:0:
288,147,63220,1,0,1:0:0:0:
333,210,63385,1,4,0:3:0:0:
403,177,63550,1,2,0:0:0:0:
430,50,63715,6,0,P|351:36|317:34,1,95.9999970703126,2|0,1:2|0:0,0:0:0:0:
206,141,64045,2,0,P|157:148|78:145,1,95.9999970703126,8|0,1:0|0:0,0:0:0:0:
77,328,64374,2,0,P|149:312|296:300,1,191.999994140625,4|2,1:0|0:0,0:0:0:0:
335,335,64869,1,0,0:0:0:0:
447,248,65034,1,8,1:0:0:0:
416,318,65198,1,0,0:0:0:0:
356,232,65363,6,0,P|294:221|246:201,1,95.9999970703126,4|0,0:3|0:0,0:0:0:0:
16,220,65693,2,0,P|78:231|126:251,1,95.9999970703126,2|0,0:0|0:0,0:0:0:0:
330,108,66023,2,0,P|395:105|496:82,1,143.999995605469,12|0,1:0|0:0,0:0:0:0:
472,89,66352,6,0,P|475:142|474:211,2,95.9999970703126,4|0|0,1:0|0:0|0:0,0:0:0:0:
108,242,66847,6,0,P|108:290|111:338,2,95.9999970703126,8|2|0,1:0|0:3|0:0,0:0:0:0:
245,183,67341,1,4,0:3:0:0:
321,191,67506,1,0,1:0:0:0:
397,199,67671,1,2,0:0:0:0:
444,259,67836,5,8,1:0:0:0:
189,237,68001,1,4,1:2:0:0:
329,81,68165,1,0,1:0:0:0:
225,27,68330,5,8,1:0:0:0:
251,99,68495,1,0,1:0:0:0:
109,231,68660,5,8,1:0:0:0:
181,205,68825,1,8,1:0:0:0:
313,347,68990,5,8,1:0:0:0:
287,275,69154,1,8,1:0:0:0:
429,143,69319,5,12,1:0:0:0:
71,333,69979,5,2,0:0:0:0:
80,335,70143,1,2,0:0:0:0:
88,338,70308,2,0,P|149:325|308:322,1,207.999990478516,4|0,1:3|0:0,0:0:0:0:
387,368,70803,1,0,1:0:0:0:
474,251,70968,2,0,P|406:278|367:284,1,103.999995239258,8|0,1:3|0:0,0:0:0:0:
202,197,71297,2,0,P|257:182|331:181,1,103.999995239258,0|0,1:0|0:0,0:0:0:0:
487,47,71627,6,0,P|426:60|267:63,1,207.999990478516,0|8,1:0|1:3,0:0:0:0:
208,23,72121,1,0,0:0:0:0:
31,117,72286,2,0,P|106:95|152:102,1,103.999995239258,0|0,1:0|0:0,0:0:0:0:
147,240,72616,2,0,P|95:247|44:237,1,103.999995239258,0|0,1:0|1:0,0:0:0:0:
294,163,72946,6,0,B|415:153|373:219|498:200,2,207.999990478516,8|4|0,1:3|0:0|1:0,0:0:0:0:
196,125,73770,1,0,1:2:0:0:
196,125,73852,1,0,1:0:0:0:
196,125,73935,1,8,1:0:0:0:
280,64,74099,1,8,1:0:0:0:
493,98,74264,6,0,P|500:161|486:220,1,103.999995239258,4|0,1:0|0:0,0:0:0:0:
347,275,74594,2,0,P|339:223|346:172,1,103.999995239258,0|0,1:0|1:0,0:0:0:0:
462,46,74924,2,0,P|479:132|470:231,1,155.999992858887,8|0,1:3|0:0,0:0:0:0:
442,239,75253,2,0,P|439:304|452:359,1,103.999995239258,0|0,1:0|0:0,0:0:0:0:
345,172,75583,1,0,1:0:0:0:
229,36,75748,5,4,1:2:0:0:
329,62,75913,1,8,1:3:0:0:
274,149,76077,1,4,1:2:0:0:
173,121,76242,2,0,P|96:123|38:139,1,103.999995239258,0|0,1:0|0:0,0:0:0:0:
93,320,76572,2,0,P|170:318|228:302,1,103.999995239258,0|0,1:0|1:2,0:0:0:0:
204,299,76819,1,0,1:0:0:0:
211,285,76902,2,0,P|297:275|339:277,1,103.999995239258,8|0,1:0|1:0,0:0:0:0:
498,308,77231,5,0,1:0:0:0:
424,347,77396,1,0,1:0:0:0:
424,347,77479,1,0,1:0:0:0:
424,347,77561,2,0,B|406:299|428:215,1,103.999995239258,12|0,1:0|0:0,0:0:0:0:
486,61,77891,5,8,1:0:0:0:
342,95,78056,1,0,1:0:0:0:
425,11,78220,2,0,B|385:97|385:97|431:217,1,207.999990478516,4|0,1:0|0:0,0:0:0:0:
498,185,78715,1,0,1:0:0:0:
342,206,78880,2,0,L|209:220,1,103.999995239258,8|0,1:3|0:0,0:0:0:0:
148,279,79209,2,0,L|27:279,1,103.999995239258,0|0,1:0|0:0,0:0:0:0:
246,328,79539,6,0,B|372:306|315:377|466:346,2,207.999990478516,4|8|0,0:0|1:3|1:3,0:0:0:0:
152,373,80363,1,0,1:3:0:0:
148,279,80528,2,0,P|158:201|149:140,1,103.999995239258,0|0,1:0|0:0,0:0:0:0:
292,71,80858,2,0,P|370:81|431:72,1,103.999995239258,8|0,1:3|0:0,0:0:0:0:
199,53,81187,2,0,B|204:154|278:142|267:254,1,207.999990478516,0|4,1:0|0:0,0:0:0:0:
267,244,81847,6,0,L|435:237,1,155.999992858887,4|0,1:0|0:0,0:0:0:0:
379,315,82176,2,0,L|238:321,1,103.999995239258,8|0,1:0|0:0,0:0:0:0:
87,288,82506,1,0,1:0:0:0:
57,199,82671,1,0,1:0:0:0:
79,127,82836,2,0,L|246:128,1,155.999992858887,8|0,1:3|0:0,0:0:0:0:
300,171,83165,2,0,L|403:166,1,103.999995239258,0|0,1:0|0:0,0:0:0:0:
260,0,83495,2,0,L|264:103,1,103.999995239258,0|4,1:0|0:0,0:0:0:0:
234,210,83825,5,8,1:0:0:0:
238,313,83990,1,0,1:0:0:0:
146,223,84154,2,0,B|126:133|197:117|175:18,2,207.999990478516,8|4|0,1:3|0:0|1:0,0:0:0:0:
124,346,84979,1,4,1:2:0:0:
203,303,85143,2,0,L|391:314,1,155.999992858887,8|0,1:0|0:0,0:0:0:0:
446,352,85473,2,0,L|457:265,1,51.999997619629,8|0,1:0|0:0,0:0:0:0:
440,278,85638,1,4,1:2:0:0:
440,278,86132,6,0,L|254:269,2,160,4|2|0,1:0|0:0|0:0,0:0:0:0:
506,209,86957,1,0,1:0:0:0:
506,209,87121,2,0,P|462:196|408:195,1,80,4|0,0:3|0:0,0:0:0:0:
501,347,87451,2,0,P|462:358|423:362,1,80,4|0,0:0|0:0,0:0:0:0:
211,329,87781,2,0,P|195:269|227:188,1,120,8|0,1:0|0:0,0:0:0:0:
208,214,88110,2,0,L|293:227,1,80,4|0,0:3|0:0,0:0:0:0:
203,128,88440,5,2,1:3:0:0:
199,48,88605,1,0,0:0:0:0:
278,44,88770,1,2,0:0:0:0:
285,123,88935,1,0,0:0:0:0:
209,105,89099,5,4,0:3:0:0:
220,54,89264,1,0,0:0:0:0:
271,65,89429,1,2,0:0:0:0:
262,116,89594,1,0,0:0:0:0:
124,88,89759,5,8,1:0:0:0:
357,76,89924,1,0,1:0:0:0:
418,125,90088,2,0,P|412:181|399:231,1,80,4|0,1:0|0:0,0:0:0:0:
219,211,90418,2,0,P|228:274|274:381,1,160,0|0,1:0|0:0,0:0:0:0:
343,367,90913,1,0,1:0:0:0:
8,191,91077,5,8,1:0:0:0:
8,191,91407,1,8,1:0:0:0:
258,8,91737,5,2,0:0:0:0:
258,8,91902,1,2,0:0:0:0:
258,8,92066,1,2,0:0:0:0:
256,192,92149,12,4,93056,0:0:0:0:
501,191,94045,6,0,P|454:186|406:189,1,95.9999970703126,0|0,1:0|0:0,0:0:0:0:
106,293,95034,6,0,P|119:293|137:291,1,23.9999992675781,2|0,0:0|0:0,0:0:0:0:
234,199,95363,2,0,P|217:199|200:201,1,23.9999992675781,2|0,0:0|0:0,0:0:0:0:
243,312,95693,1,2,0:0:0:0:
254,320,95858,1,0,1:0:0:0:
265,328,96023,2,0,P|310:321|362:323,1,95.9999970703126,4|0,0:2|0:0,0:0:0:0:
474,278,97012,6,0,P|475:239|459:177,1,95.9999970703126,2|2,0:0|0:0,0:0:0:0:
204,48,97836,1,0,1:0:0:0:
196,60,98001,2,0,P|196:92|215:158,1,95.9999970703126,4|0,0:0|0:0,0:0:0:0:
212,153,98990,6,0,P|262:147|314:148,1,95.9999970703126,2|2,0:0|0:0,0:0:0:0:
413,333,99814,1,0,1:0:0:0:
421,344,99979,2,0,P|371:338|319:339,1,95.9999970703126,4|0,0:0|0:0,0:0:0:0:
325,338,100968,1,0,1:0:0:0:
111,305,101627,5,2,0:0:0:0:
103,292,101792,1,2,0:0:0:0:
96,279,101957,2,0,P|86:191|88:179,1,95.9999970703126,4|2,0:0|0:0,0:0:0:0:
154,138,102781,1,2,0:0:0:0:
358,159,102946,6,0,P|353:178|352:188,1,23.9999992675781,2|0,0:0|0:0,0:0:0:0:
424,229,103275,2,0,P|429:248|430:258,1,23.9999992675781,2|0,0:0|0:0,0:0:0:0:
346,274,103605,2,0,P|341:293|340:303,1,23.9999992675781,2|0,0:0|1:0,0:0:0:0:
233,254,103935,2,0,P|243:342|241:354,1,95.9999970703126,8|2,0:1|0:0,0:0:0:0:
167,371,104759,1,2,0:0:0:0:
316,237,104924,6,0,P|311:218|310:208,1,23.9999992675781,2|0,0:0|0:0,0:0:0:0:
382,167,105253,2,0,P|387:148|388:138,1,23.9999992675781
304,122,105583,2,0,P|299:103|298:93,1,23.9999992675781,0|0,0:0|1:0,0:0:0:0:
453,40,105913,2,0,P|455:65|479:139,1,95.9999970703126,8|0,0:1|0:0,0:0:0:0:
124,108,106902,5,2,0:0:0:0:
124,108,107231,1,2,0:0:0:0:
124,108,107561,5,2,0:0:0:0:
115,119,107726,1,0,1:0:0:0:
107,131,107891,2,0,P|108:173|94:228,1,95.9999970703126,8|2,0:1|0:0,0:0:0:0:
22,263,108715,1,2,0:0:0:0:
22,263,108880,1,2,0:0:0:0:
249,356,109292,5,0,1:0:0:0:
249,356,109374,1,8,1:0:0:0:
196,277,109539,5,4,0:3:0:0:
243,189,109704,5,4,0:3:0:0:
353,217,109869,6,0,P|384:216|450:218,1,80,4|4,1:0|0:3,0:0:0:0:
478,109,110363,2,0,P|479:131|483:154,1,40
402,81,110693,1,0,0:0:0:0:
483,281,110858,2,0,P|468:330|453:363,2,80,0|4|8,1:0|0:0|1:0,0:0:0:0:
336,330,111847,6,0,P|296:328|239:328,1,80,4|0,0:3|1:0,0:0:0:0:
189,372,112341,1,2,0:0:0:0:
117,241,112506,1,0,0:0:0:0:
180,290,112671,1,2,0:0:0:0:
248,247,112836,2,0,P|286:241|305:239,1,40,4|0,0:3|0:0,0:0:0:0:
185,195,113165,2,0,P|184:157|180:130,1,60,4|0,0:0|0:0,0:0:0:0:
151,107,113495,2,0,P|112:115|97:118,1,40,8|0,1:0|0:0,0:0:0:0:
251,44,113825,6,0,P|281:44|315:48,1,60,4|0,0:3|0:0,0:0:0:0:
341,72,114154,1,0,1:0:0:0:
322,149,114319,1,2,0:0:0:0:
373,210,114484,2,0,P|365:249|363:262,1,40,0|2,0:0|0:0,0:0:0:0:
460,333,114814,1,4,0:3:0:0:
453,247,114979,1,2,0:3:0:0:
369,335,115143,6,0,P|321:336|307:337,1,60,0|0,0:0|1:0,0:0:0:0:
276,359,115473,2,0,P|244:360|221:360,1,40,8|0,1:0|0:0,0:0:0:0:
72,307,115803,1,4,0:3:0:0:
38,234,115968,1,0,0:0:0:0:
116,243,116132,1,0,1:0:0:0:
250,93,116380,5,0,1:0:0:0:
250,93,116462,1,8,1:0:0:0:
170,81,116627,1,4,0:3:0:0:
196,156,116792,1,4,1:2:0:0:
196,156,117451,6,0,P|203:213|203:231,1,60,12|0,1:0|0:0,0:0:0:0:
289,187,117781,6,0,P|279:255|273:275,1,80,4|8,1:3|1:0,0:0:0:0:
202,298,118275,1,2,0:0:0:0:
76,356,118440,1,2,0:0:0:0:
155,366,118605,1,0,0:0:0:0:
240,383,118770,1,4,0:3:0:0:
240,383,119099,1,4,0:3:0:0:
240,383,119429,6,0,P|247:326|247:308,1,60,8|0,1:0|0:0,0:0:0:0:
333,352,119759,6,0,P|323:284|317:264,1,80,4|8,1:3|1:0,0:0:0:0:
261,218,120253,1,2,0:0:0:0:
402,171,120418,1,2,0:0:0:0:
323,153,120583,1,0,0:0:0:0:
246,137,120748,1,4,0:3:0:0:
246,137,121077,1,4,0:3:0:0:
246,137,121407,6,0,P|245:167|247:206,1,60,8|0,1:0|0:0,0:0:0:0:
222,229,121737,1,4,1:3:0:0:
300,214,121902,1,2,0:0:0:0:
190,75,122066,1,0,1:0:0:0:
163,150,122231,2,0,P|102:154|65:158,1,80,0|2,1:0|0:0,0:0:0:0:
359,268,122726,6,0,P|420:264|457:260,1,80,4|2,0:3|0:0,0:0:0:0:
494,204,123220,1,0,0:0:0:0:
317,345,123385,2,0,P|273:336|241:326,1,60,8|0,1:0|0:0,0:0:0:0:
238,296,123715,2,0,P|192:300|162:306,1,60,4|0,1:3|0:0,0:0:0:0:
158,337,124045,5,4,0:0:0:0:
42,236,124209,1,0,1:0:0:0:
184,160,124374,1,8,1:0:0:0:
310,266,124539,1,4,0:3:0:0:
369,319,124704,5,4,0:3:0:0:
383,240,124869,1,4,1:2:0:0:
250,121,125034,1,8,1:0:0:0:
106,199,125198,1,8,1:0:0:0:
226,302,125363,1,8,1:0:0:0:
133,46,125528,1,8,1:0:0:0:
227,58,125693,6,0,P|277:52|342:55,1,107.999996704102,4|2,1:0|0:0,0:0:0:0:
334,54,126023,1,0,1:0:0:0:
334,54,126105,1,8,1:0:0:0:
334,54,126187,2,0,P|342:109|334:204,1,143.999995605469,0|0,1:0|1:0,0:0:0:0:
254,316,126682,5,0,1:0:0:0:
318,284,126847,1,2,0:0:0:0:
382,315,127012,1,4,0:0:0:0:
402,383,127176,1,2,0:0:0:0:
146,361,127341,5,8,1:0:0:0:
72,277,127506,1,0,1:0:0:0:
160,211,127671,1,0,1:0:0:0:
153,286,127836,1,2,0:0:0:0:
79,202,128001,1,4,0:0:0:0:
86,127,128165,1,2,0:0:0:0:
379,197,128330,5,8,1:0:0:0:
289,116,128495,1,2,0:0:0:0:
169,131,128660,1,8,1:0:0:0:
169,131,128990,5,4,0:0:0:0:
247,233,129154,1,0,1:0:0:0:
313,98,129319,5,8,1:0:0:0:
103,260,129484,1,8,1:0:0:0:
170,212,129649,6,0,P|177:262|178:331,1,107.999996704102,12|0,1:0|0:0,0:0:0:0:
49,352,129979,2,0,B|100:340|100:340|197:366,1,143.999995605469,8|0,1:0|0:0,0:0:0:0:
280,348,130473,1,0,1:0:0:0:
289,342,130556,1,8,1:0:0:0:
298,336,130638,2,0,B|292:254|346:282|340:180,2,143.999995605469,4|0|8,3:0|3:3|1:0,0:0:0:0:
416,49,131627,5,4,0:3:0:0:
344,40,131792,1,2,0:0:0:0:
406,171,131957,5,4,0:0:0:0:
476,184,132121,1,2,0:0:0:0:
290,122,132286,5,8,1:0:0:0:
289,138,132451,1,2,0:0:0:0:
137,146,132616,5,4,0:3:0:0:
23,83,132781,1,2,0:0:0:0:
115,20,132946,5,8,1:0:0:0:
24,189,133110,1,8,1:0:0:0:
24,261,133275,1,8,1:0:0:0:
87,226,133440,5,0,1:0:0:0:
97,224,133523,1,8,1:0:0:0:
107,222,133605,2,0,B|162:225|227:269,1,107.999996704102,12|0,1:0|0:0,0:0:0:0:
261,331,133935,2,0,B|250:270|250:270|286:183,1,143.999995605469,8|0,1:0|0:0,0:0:0:0:
261,119,134429,5,0,1:0:0:0:
252,111,134512,1,0,1:0:0:0:
244,103,134594,2,0,B|156:98|190:140|101:132,2,143.999995605469,4|4|8,1:2|0:3|1:0,0:0:0:0:
330,100,135418,1,2,0:0:0:0:
416,95,135583,2,0,P|433:155|438:192,1,71.9999978027344,4|0,0:3|0:0,0:0:0:0:
215,364,135913,2,0,P|198:304|193:267,1,71.9999978027344,0|0,1:0|0:0,0:0:0:0:
490,232,136242,6,0,P|424:243|383:236,1,88.000002685547,8|0,1:0|0:0,0:0:0:0:
82,223,136572,6,0,P|148:212|227:225,1,120.000004577637,8|0,1:0|0:0,0:0:0:0:
321,277,136902,5,8,1:0:0:0:
294,252,137066,1,0,1:0:0:0:
326,182,137231,1,8,1:0:0:0:
254,89,137396,1,8,1:0:0:0:
426,119,137561,6,0,P|433:187|425:228,1,95.9999970703126,4|0,1:0|0:0,0:0:0:0:
172,129,137891,2,0,P|165:61|173:20,1,95.9999970703126,2|0,0:0|0:0,0:0:0:0:
294,252,138220,5,2,0:3:0:0:
326,182,138385,1,0,1:0:0:0:
249,184,138550,1,4,0:3:0:0:
215,253,138715,1,2,0:0:0:0:
323,347,138880,6,0,P|393:332|430:309,1,95.9999970703126,2|0,1:2|0:0,0:0:0:0:
142,193,139209,2,0,P|119:261|121:304,1,95.9999970703126,8|0,1:0|0:0,0:0:0:0:
410,194,139539,6,0,P|362:140|244:95,1,191.999994140625,4|2,1:0|0:0,0:0:0:0:
179,122,140034,1,0,0:0:0:0:
43,98,140198,1,8,1:0:0:0:
116,74,140363,1,0,0:0:0:0:
169,201,140528,6,0,L|161:313,1,95.9999970703126,4|0,0:3|0:0,0:0:0:0:
335,208,140858,2,0,L|242:145,1,95.9999970703126,2|0,0:0|0:0,0:0:0:0:
189,384,141187,2,0,L|324:317,1,143.999995605469,12|0,1:0|0:0,0:0:0:0:
287,296,141517,6,0,B|333:317|402:298,2,95.9999970703126,4|0|0,1:0|0:0|0:0,0:0:0:0:
488,139,142012,2,0,B|442:118|373:137,2,95.9999970703126,8|2|0,1:0|0:3|0:0,0:0:0:0:
219,82,142506,1,4,0:3:0:0:
179,148,142671,1,0,1:0:0:0:
255,154,142836,1,2,0:0:0:0:
115,105,143001,5,8,1:0:0:0:
249,230,143165,1,4,1:2:0:0:
288,48,143330,1,0,1:0:0:0:
76,320,143495,5,8,1:0:0:0:
150,337,143660,1,0,1:0:0:0:
362,337,143825,5,8,1:0:0:0:
436,320,143990,1,8,1:0:0:0:
76,312,144154,5,8,1:0:0:0:
256,352,144319,1,8,1:0:0:0:
436,312,144484,1,12,1:0:0:0:
254,18,144979,5,8,1:0:0:0:
277,105,145143,5,8,1:0:0:0:
248,228,145308,5,8,1:0:0:0:
376,301,145473,6,0,B|370:227|370:227|406:187|406:187|395:106,1,207.999990478516,4|0,1:3|0:0,0:0:0:0:
338,46,145968,1,0,1:0:0:0:
303,275,146132,2,0,B|251:270|251:270|197:286,1,103.999995239258,8|0,1:3|0:0,0:0:0:0:
214,373,146462,2,0,B|266:378|266:378|320:362,1,103.999995239258,0|0,1:0|0:0,0:0:0:0:
512,173,146792,6,0,B|446:156|446:156|338:193,1,155.999992858887,0|0,1:0|0:0,0:0:0:0:
362,184,147121,2,0,P|370:249|398:295,1,103.999995239258,8|0,1:3|0:0,0:0:0:0:
307,99,147451,2,0,P|232:78|154:81,1,155.999992858887,0|0,1:0|0:0,0:0:0:0:
123,110,147781,1,0,1:0:0:0:
123,193,147946,1,0,1:0:0:0:
235,182,148110,5,8,1:0:0:0:
227,282,148275,1,0,1:0:0:0:
227,282,148440,2,0,P|301:302|433:286,1,207.999990478516,4|0,0:0|1:0,0:0:0:0:
466,211,148935,1,0,1:0:0:0:
466,211,149017,1,0,1:0:0:0:
466,211,149099,1,8,1:0:0:0:
370,177,149264,1,8,1:0:0:0:
206,183,149429,6,0,B|82:172|130:232|1:221,2,207.999990478516,4|0|8,1:0|1:0|1:3,0:0:0:0:
277,140,150253,1,0,1:0:0:0:
280,223,150418,2,0,B|262:272|262:272|275:350,1,103.999995239258,0|0,1:0|0:0,0:0:0:0:
408,349,150748,2,0,B|426:300|426:300|413:222,1,103.999995239258,0|4,1:0|1:2,0:0:0:0:
398,57,151077,5,8,1:3:0:0:
356,129,151242,1,4,1:2:0:0:
432,161,151407,2,0,P|475:113|489:63,1,103.999995239258,0|0,1:0|0:0,0:0:0:0:
306,0,151737,2,0,P|263:48|249:98,1,103.999995239258,0|0,1:0|1:0,0:0:0:0:
256,99,151984,1,0,1:0:0:0:
261,113,152066,2,0,B|151:140|199:196|95:232,1,207.999990478516,8|0,1:0|1:0,0:0:0:0:
0,348,152561,1,0,1:0:0:0:
9,335,152643,1,0,1:0:0:0:
19,323,152726,2,0,B|69:307|69:307|146:313,1,103.999995239258,12|0,1:0|1:0,0:0:0:0:
267,335,153056,5,8,1:0:0:0:
368,356,153220,1,0,1:0:0:0:
436,306,153385,2,0,P|441:210|451:93,1,207.999990478516,4|0,1:0|0:0,0:0:0:0:
390,40,153880,1,0,1:0:0:0:
283,118,154045,2,0,P|277:171|273:233,1,103.999995239258,8|0,1:3|0:0,0:0:0:0:
184,41,154374,2,0,P|178:94|174:156,1,103.999995239258,0|0,1:0|0:0,0:0:0:0:
159,305,154704,6,0,B|286:300|231:372|356:364,2,207.999990478516,0|8|0,1:0|1:3|1:0,0:0:0:0:
87,348,155528,1,0,0:0:0:0:
311,245,155693,2,0,B|363:253|363:253|443:237,1,103.999995239258,0|0,1:0|0:0,0:0:0:0:
408,119,156023,2,0,B|356:111|356:111|276:127,1,103.999995239258,8|0,1:3|1:0,0:0:0:0:
168,203,156352,6,0,B|110:228|110:228|1:212,1,155.999992858887,4|0,1:2|0:0,0:0:0:0:
23,229,156682,1,0,1:0:0:0:
100,118,156847,1,0,1:0:0:0:
236,151,157012,1,8,1:0:0:0:
239,286,157176,1,8,1:0:0:0:
104,345,157341,2,0,P|163:327|216:327,1,103.999995239258,4|0,1:0|0:0,0:0:0:0:
382,331,157671,6,0,P|423:227|384:125,1,207.999990478516,0|8,1:0|1:3,0:0:0:0:
313,125,158165,1,0,1:0:0:0:
162,43,158330,2,0,B|288:23|228:95|388:64,1,207.999990478516,0|4,1:0|0:0,0:0:0:0:
446,79,158825,1,0,1:0:0:0:
244,147,158990,6,0,P|227:215|257:286,1,103.999995239258,8|4,1:0|0:0,0:0:0:0:
377,305,159319,2,0,B|299:304|299:304|252:337|252:337|162:338,2,207.999990478516,8|4|0,1:3|0:2|1:0,0:0:0:0:
444,353,160143,1,4,1:2:0:0:
447,269,160308,2,0,L|446:77,1,155.999992858887,8|0,1:0|0:0,0:0:0:0:
456,34,160638,2,0,L|368:42,1,51.999997619629,8|0,1:0|0:0,0:0:0:0:
385,56,160803,1,4,1:2:0:0:
385,56,161297,6,0,P|326:50|204:63,2,160,4|2|0,1:0|0:0|0:0,0:0:0:0:
446,113,162121,1,0,1:0:0:0:
257,161,162286,2,0,P|201:158|169:145,1,80,4|0,0:3|0:0,0:0:0:0:
60,117,162616,2,0,P|85:166|90:201,1,80,4|0,0:0|0:0,0:0:0:0:
103,347,162946,2,0,P|122:312|200:262,1,120,8|0,1:0|0:0,0:0:0:0:
226,268,163275,2,0,P|260:272|311:267,1,80,4|0,0:3|0:0,0:0:0:0:
476,186,163605,5,2,0:3:0:0:
476,186,163935,1,2,0:0:0:0:
476,186,164264,1,4,1:3:0:0:
263,130,164429,1,0,1:0:0:0:
263,130,164924,5,8,1:0:0:0:
144,163,165088,1,0,1:0:0:0:
25,196,165253,2,0,L|37:311,1,80,4|0,1:0|0:0,0:0:0:0:
119,384,165583,2,0,L|100:215,1,160,0|0,1:0|0:0,0:0:0:0:
263,130,166077,1,0,1:0:0:0:
218,196,166242,2,0,L|231:308,1,80,12|0,1:0|0:0,0:0:0:0:
428,359,166572,5,8,1:0:0:0:
361,314,166737,1,0,1:0:0:0:
431,276,166902,1,8,1:0:0:0:
290,343,167066,1,8,1:0:0:0:
361,314,167231,2,0,P|345:216|352:138,1,160,4|0,1:0|0:0,0:0:0:0:
415,110,167726,1,0,1:0:0:0:
100,130,167891,6,0,P|180:126|287:102,1,176.000005371094,8|2,1:0|0:0,0:0:0:0:
197,230,168385,2,0,P|158:251|112:287,1,88.000002685547,0|2,0:0|0:0,0:0:0:0:
123,276,168632,1,2,0:0:0:0:
123,276,168715,1,2,0:0:0:0:
334,297,168880,6,0,P|327:337|326:384,2,58.6666684570313,8|2|0,1:0|0:0|0:0,0:0:0:0:
394,249,169209,1,4,0:3:0:0:
294,159,169374,2,0,P|343:164|473:192,1,176.000005371094,2|0,0:0|0:0,0:0:0:0:
454,110,169786,1,2,0:0:0:0:
454,110,169869,2,0,P|406:119|362:123,1,88.000002685547,12|2,1:0|0:0,0:0:0:0:
154,191,170198,2,0,P|110:186|67:177,1,88.000002685547,4|2,0:3|0:0,0:0:0:0:
288,370,170528,2,0,L|283:266,1,88.000002685547,2|2,0:0|0:0,0:0:0:0:
283,282,170775,1,0,1:0:0:0:
283,282,170858,1,8,1:0:0:0:
46,41,171187,5,6,0:0:0:0:
163,106,171407,5,2,0:0:0:0:
297,52,171627,6,0,P|267:54|233:65,2,58.6666684570313,2|2|8,0:0|0:0|1:0,0:0:0:0:
363,103,171957,6,0,L|426:82,1,58.6666684570313,2|2,0:0|0:0,0:0:0:0:
447,104,172176,6,0,P|448:149|439:207,1,88.000002685547,4|2,0:3|0:0,0:0:0:0:
310,190,172506,5,0,0:0:0:0:
325,276,172671,1,0,0:0:0:0:
150,357,172836,2,0,P|221:345|266:342,1,88.000002685547,12|2,1:0|0:0,0:0:0:0:
280,352,173083,1,2,0:0:0:0:
321,364,173165,2,0,P|361:365|444:348,1,88.000002685547,4|2,1:0|0:0,0:0:0:0:
123,181,173495,1,4,0:3:0:0:
114,223,173577,1,2,1:2:0:0:
105,266,173660,1,12,1:0:0:0:
42,310,173825,1,2,0:0:0:0:
199,213,173990,6,0,L|249:227,1,44.0000013427735,4|2,0:3|0:0,0:0:0:0:
437,160,174154,2,0,L|375:163,1,44.0000013427735,8|2,1:0|0:0,0:0:0:0:
306,172,174319,1,8,1:0:0:0:
260,90,174484,5,4,0:3:0:0:
355,253,174649,1,12,1:0:0:0:
350,56,174814,6,0,L|347:118,1,44.0000013427735,8|2,1:0|0:0,0:0:0:0:
300,343,174979,2,0,L|286:293,1,44.0000013427735,4|2,0:3|0:0,0:0:0:0:
113,83,175143,2,2,B|142:178|67:166|104:281,1,176.000005371094,4|0,1:0|0:0,0:1:0:0:
158,317,175638,1,2,0:0:0:0:
41,359,175803,2,2,P|103:352|156:358,1,88.000002685547,8|0,1:0|0:0,0:1:0:0:
252,311,176132,5,0,1:0:0:0:
267,320,176215,1,2,0:1:0:0:
281,329,176297,1,0,1:0:0:0:
250,347,176462,2,2,P|240:256|248:160,1,176.000005371094,2|8,1:0|1:0,0:1:0:0:
312,113,176957,5,2,1:0:0:0:
422,59,177121,2,0,B|312:42|349:88|230:67,1,176.000005371094,6|2,1:0|0:0,0:0:0:0:
81,7,177616,1,2,0:1:0:0:
91,94,177781,1,10,1:0:0:0:
101,181,177946,1,2,0:1:0:0:
36,246,178110,2,2,P|146:230|226:241,1,176.000005371094,0|4,1:0|0:3,0:1:0:0:
245,264,178523,1,2,0:0:0:0:
288,258,178605,1,2,0:0:0:0:
331,252,178687,1,2,0:0:0:0:
365,231,178770,5,10,1:0:0:0:
376,243,178852,1,0,0:0:0:0:
387,255,178935,1,10,1:0:0:0:
398,267,179017,1,0,0:0:0:0:
409,280,179099,1,4,0:3:0:0:
405,364,179264,1,4,0:3:0:0:
458,153,179512,5,2,0:3:0:0:
458,153,179594,1,8,1:0:0:0:
370,139,179759,1,8,0:3:0:0:
282,125,179924,1,4,0:3:0:0:
95,220,180088,5,4,0:3:0:0:
184,226,180253,1,4,0:3:0:0:
458,153,180501,5,2,0:3:0:0:
458,153,180583,1,8,1:0:0:0:
446,240,180748,1,8,1:0:0:0:
433,326,180913,1,2,0:0:0:0:
366,364,181077,6,2,P|282:352|183:386,1,176.000005371094,14|0,1:1|0:1,0:1:0:0:
88,335,181572,1,10,1:0:0:0:
161,287,181737,2,0,P|215:248|241:209,1,88.000002685547,2|2,1:0|0:1,0:0:0:0:
462,36,182066,6,0,L|452:209,1,132.00000402832,14|2,1:0|0:1,0:1:0:0:
421,197,182396,1,8,1:0:0:0:
52,36,182561,6,2,L|62:209,1,132.00000402832,14|0,1:0|0:0,0:1:0:0:
91,197,182891,1,8,1:0:0:0:
291,364,183056,6,2,L|281:191,1,132.00000402832,14|0,1:0|0:1,0:1:0:0:
250,203,183385,1,10,1:0:0:0:
340,118,183550,6,0,B|236:97|269:146|163:123,1,176.000005371094,14|2,1:0|0:1,0:1:0:0:
418,355,184045,5,14,1:0:0:0:
451,236,184209,1,0,0:0:0:0:
468,276,184292,1,10,1:0:0:0:
483,317,184374,1,4,0:3:0:0:
375,236,184539,5,14,1:0:0:0:
340,118,184704,1,0,0:0:0:0:
323,158,184786,1,10,1:0:0:0:
308,199,184869,1,4,0:3:0:0:
123,333,185034,5,6,1:0:0:0:
97,297,185116,1,0,0:0:0:0:
93,253,185198,1,4,0:3:0:0:
107,211,185281,1,10,1:0:0:0:
138,180,185363,1,8,0:3:0:0:
181,172,185446,1,0,0:0:0:0:
223,180,185528,1,8,1:0:0:0:
308,199,185693,1,8,0:3:0:0:
393,218,185858,1,12,1:0:0:0:
145,105,186023,5,4,1:0:0:0:
71,89,186352,5,4,1:0:0:0:
12,191,193605,5,4,0:0:0:0:
12,191,193935,5,0,1:0:0:0:
12,191,194264,5,8,1:0:0:0:
12,191,194594,5,8,1:0:0:0:
100,275,194924,6,0,P|99:237|100:194,1,80,4|2,1:0|0:3,0:0:0:0:
235,105,195913,2,0,P|236:148|232:200,2,80,4|2|8,0:3|0:0|1:0,0:0:0:0:
299,56,196902,2,0,P|337:57|392:68,1,80,4|2,0:3|0:3,0:0:0:0:
455,45,197561,1,2,0:0:0:0:
435,122,197891,2,0,P|436:160|442:214,1,80,4|8,0:3|1:0,0:0:0:0:
440,201,198550,5,12,1:0:0:0:
357,192,198715,1,2,0:0:0:0:
282,231,198880,2,0,P|288:263|294:304,1,55.9999982910157,12|2,1:0|0:0,0:0:0:0:
215,153,199209,2,0,P|209:189|203:258,1,83.9999974365235,4|0,1:2|0:0,0:0:0:0:
172,262,199539,5,12,1:0:0:0:
44,239,199704,1,2,0:0:0:0:
124,134,199869,2,0,P|121:171|120:212,1,55.9999982910157,12|2,1:0|0:0,0:0:0:0:
44,341,200198,2,0,P|82:343|148:352,1,83.9999974365235,4|0,1:2|0:0,0:0:0:0:
161,374,200528,5,8,1:0:0:0:
273,324,200693,1,8,1:0:0:0:
406,364,200858,2,0,P|419:316|405:203,1,160,12|0,1:0|1:0,0:0:0:0:
230,40,201352,5,8,1:0:0:0:
215,159,201517,1,8,1:0:0:0:
334,174,201682,1,8,1:0:0:0:
349,55,201847,1,12,1:0:0:0:
349,55,202176,5,4,1:0:0:0:
215,159,202341,1,4,1:2:0:0:
230,40,202506,1,4,1:2:0:0:
334,174,202671,1,0,1:0:0:0:
300,251,202836,5,4,0:3:0:0:
211,278,203001,2,0,P|248:272|306:269,1,80,12|0,1:0|0:0,0:0:0:0:
385,293,203330,5,4,0:3:0:0:
474,320,203495,2,0,P|437:314|379:311,1,80,12|0,1:0|0:0,0:0:0:0:
162,342,203825,5,4,0:3:0:0:
73,369,203990,2,0,P|110:363|168:360,1,80,12|0,1:0|0:0,0:0:0:0:
373,191,204319,5,4,0:3:0:0:
462,218,204484,2,0,P|425:212|367:209,1,80,12|4,1:0|0:3,0:0:0:0:
140,124,204814,5,4,0:3:0:0:
51,151,204979,2,0,P|88:145|146:142,1,80,12|0,1:0|0:0,0:0:0:0:
256,84,205308,5,8,1:0:0:0:
258,307,205556,1,8,1:0:0:0:
258,307,205638,1,4,1:3:0:0:
257,194,205803,1,4,1:2:0:0:
257,194,206132,1,4,1:2:0:0:
428,94,206462,5,2,0:0:0:0:
436,80,206627,1,2,0:0:0:0:
444,66,206792,2,0,P|368:51|240:67,1,207.999990478516,4|0,1:3|0:0,0:0:0:0:
180,152,207286,1,0,1:0:0:0:
240,214,207451,2,0,P|225:277|198:317,1,103.999995239258,8|0,1:3|0:0,0:0:0:0:
71,208,207781,2,0,P|86:145|113:105,1,103.999995239258,0|0,1:0|0:0,0:0:0:0:
307,155,208110,2,0,P|368:168|460:199,1,155.999992858887,0|0,1:0|0:0,0:0:0:0:
387,268,208440,6,0,P|399:325|401:373,1,103.999995239258,8|0,1:3|0:0,0:0:0:0:
250,355,208770,2,0,B|130:324|176:396|41:355,2,207.999990478516,4|0|8,1:0|1:0|1:3,0:0:0:0:
316,304,209594,1,0,1:0:0:0:
198,190,209759,5,0,1:0:0:0:
241,273,209924,1,0,1:0:0:0:
306,215,210088,1,4,0:0:0:0:
262,123,210253,1,0,1:0:0:0:
322,190,210418,1,8,1:0:0:0:
259,151,210583,1,0,1:0:0:0:
423,84,210748,6,0,P|456:148|406:303,1,207.999990478516,4|0,1:0|0:0,0:0:0:0:
351,303,211242,1,0,1:0:0:0:
316,370,211407,2,0,P|263:348|210:350,1,103.999995239258,8|0,1:3|0:0,0:0:0:0:
78,231,211737,2,0,B|150:233|150:233|192:269|192:269|273:269,1,207.999990478516,0|0,1:0|0:0,0:0:0:0:
401,99,212231,5,0,1:0:0:0:
264,190,212396,1,8,1:3:0:0:
161,72,212561,1,0,1:0:0:0:
245,24,212726,2,0,P|230:100|221:150,1,103.999995239258,0|0,1:0|0:0,0:0:0:0:
333,124,213056,1,0,1:0:0:0:
349,222,213220,1,4,1:2:0:0:
364,325,213385,1,8,1:0:0:0:
364,325,213715,5,4,1:2:0:0:
196,260,213880,1,0,1:0:0:0:
286,358,214045,1,12,1:0:0:0:
273,238,214209,1,4,1:2:0:0:
264,164,214374,1,8,1:0:0:0:
251,44,214539,1,4,1:2:0:0:
196,96,214704,6,0,B|94:76|94:76|-6:121,1,207.999990478516,4|0,1:0|0:0,0:0:0:0:
178,170,215198,1,0,1:0:0:0:
13,292,215363,2,0,B|60:277|60:277|125:285,1,103.999995239258,8|0,1:3|0:0,0:0:0:0:
251,326,215693,2,0,B|304:323|304:323|354:360,1,103.999995239258,0|0,1:0|0:0,0:0:0:0:
479,195,216023,6,0,P|488:133|475:89,1,103.999995239258,0|0,1:0|0:0,0:0:0:0:
324,91,216352,2,0,P|315:157|335:211,1,103.999995239258,8|0,1:3|1:0,0:0:0:0:
392,370,216682,2,0,B|368:240|424:299|399:162,2,207.999990478516,4|0|8,1:0|1:0|1:3,0:0:0:0:
491,237,217506,1,0,0:0:0:0:
304,279,217671,2,0,P|246:291|190:286,1,103.999995239258,0|0,1:0|1:0,0:0:0:0:
14,196,218001,5,4,1:0:0:0:
14,196,218330,5,8,1:0:0:0:
14,196,218660,6,0,P|101:166|226:193,1,207.999990478516,4|0,1:0|0:0,0:0:0:0:
371,104,219154,2,0,P|322:121|271:119,1,103.999995239258,0|8,1:0|1:3,0:0:0:0:
181,87,219484,1,0,0:0:0:0:
311,347,219649,5,4,1:0:0:0:
255,284,219814,1,0,1:0:0:0:
335,262,219979,1,0,1:0:0:0:
390,322,220143,1,0,1:0:0:0:
157,315,220308,5,8,1:3:0:0:
161,330,220473,1,0,0:0:0:0:
89,353,220638,2,0,P|158:287|190:162,2,207.999990478516,4|0|0,1:2|1:0|1:0,0:0:0:0:
238,317,221462,1,0,1:0:0:0:
496,229,221627,1,8,1:0:0:0:
496,229,221957,5,8,1:0:0:0:
314,63,222121,1,8,1:0:0:0:
479,56,222286,1,8,1:0:0:0:
332,238,222451,1,0,1:0:0:0:
138,62,222616,5,6,1:0:0:0:
138,62,222946,1,6,1:0:0:0:
138,62,223275,5,4,0:0:0:0:
138,62,223440,1,2,0:0:0:0:
138,62,223605,1,4,0:0:0:0:
84,150,223770,1,8,1:0:0:0:
176,195,223935,1,12,1:0:0:0:
226,105,224099,1,8,1:0:0:0:
76,249,224264,6,0,P|117:281|191:297,1,103.999995239258,4|0,1:0|0:0,0:0:0:0:
348,243,224594,2,0,P|381:189|385:129,1,103.999995239258,0|0,1:0|0:0,0:0:0:0:
250,239,224924,1,4,1:2:0:0:
250,239,225253,5,8,1:3:0:0:
285,147,225418,1,2,0:0:0:0:
205,170,225583,1,0,1:0:0:0:
170,78,225748,1,2,1:2:0:0:
363,122,225913,1,4,1:2:0:0:
363,204,226077,1,2,1:2:0:0:
205,170,226242,1,8,1:3:0:0:
464,345,226572,6,0,B|362:358|374:293|245:310,1,207.999990478516,4|0,1:0|0:0,0:0:0:0:
423,231,227066,1,0,1:0:0:0:
356,122,227231,2,0,P|338:188|320:232,1,103.999995239258,8|0,1:3|0:0,0:0:0:0:
147,274,227561,2,0,P|190:204|215:109,1,155.999992858887,0|0,1:0|1:0,0:0:0:0:
187,99,227891,1,0,1:0:0:0:
66,148,228056,1,0,1:0:0:0:
49,283,228220,1,8,1:3:0:0:
174,360,228385,1,0,1:0:0:0:
243,304,228550,6,0,B|317:290|317:290|401:316,1,155.999992858887,4|0,1:0|0:0,0:0:0:0:
422,344,228880,2,0,P|415:282|431:126,1,207.999990478516,0|8,1:0|1:0,0:0:0:0:
498,92,229374,1,0,1:0:0:0:
281,75,229539,2,0,L|40:81,1,207.999990478516,12|8,1:0|1:0,0:0:0:0:
281,75,230034,1,8,1:0:0:0:
365,76,230198,5,2,1:2:0:0:
281,75,230363,1,2,1:2:0:0:
365,76,230528,2,0,L|368:305,1,207.999990478516,4|0,1:0|0:0,0:0:0:0:
315,349,231023,1,0,1:0:0:0:
182,169,231187,2,0,P|240:165|281:215,1,103.999995239258,8|0,1:3|0:0,0:0:0:0:
229,304,231517,2,0,P|158:297|135:253,1,103.999995239258,0|0,1:0|0:0,0:0:0:0:
317,265,231847,2,0,B|391:268|391:268|421:323|421:323|511:327,2,207.999990478516,0|8|0,1:0|1:3|1:0,0:0:0:0:
224,222,232671,2,0,L|113:223,1,103.999995239258,0|0,1:0|1:0,0:0:0:0:
57,278,233001,1,4,0:0:0:0:
203,92,233165,5,8,1:3:0:0:
280,60,233330,1,4,1:2:0:0:
317,141,233495,1,0,1:0:0:0:
317,141,233825,1,4,0:0:0:0:
489,205,234154,6,0,B|397:180|428:243|305:206,1,155.999992858887,8|0,1:0|0:0,0:0:0:0:
303,188,234484,2,0,B|320:247|320:247|308:318,1,103.999995239258,4|0,1:0|0:0,0:0:0:0:
73,217,234814,2,0,B|56:158|56:158|68:87,1,103.999995239258,0|0,1:0|0:0,0:0:0:0:
149,191,235143,1,8,1:3:0:0:
217,144,235308,1,0,1:0:0:0:
235,225,235473,1,0,1:0:0:0:
167,273,235638,1,0,1:0:0:0:
187,267,235803,5,0,0:0:0:0:
231,211,235968,1,0,1:0:0:0:
196,149,236132,1,8,1:3:0:0:
152,204,236297,1,0,1:0:0:0:
287,148,236462,6,0,P|363:130|417:144,1,103.999995239258,4|0,1:0|0:0,0:0:0:0:
319,308,236792,2,0,P|264:306|211:289,1,103.999995239258,0|0,1:0|1:0,0:0:0:0:
453,182,237121,2,0,B|480:290|378:259|401:376,1,207.999990478516,8|0,1:3|1:0,0:0:0:0:
361,229,237616,5,0,1:0:0:0:
353,222,237698,1,8,1:0:0:0:
345,215,237781,1,8,1:0:0:0:
264,192,237946,1,4,0:0:0:0:
181,194,238110,1,8,1:0:0:0:
97,197,238275,1,4,0:0:0:0:
367,74,238440,6,0,L|480:60,1,103.999995239258,12|0,1:0|0:0,0:0:0:0:
487,140,238687,1,0,1:0:0:0:
487,140,238770,2,0,L|487:209,1,51.999997619629,4|0,0:0|1:0,0:0:0:0:
432,253,238935,1,8,1:0:0:0:
91,361,239099,5,4,1:0:0:0:
59,174,239264,1,4,0:0:0:0:
109,112,239429,2,0,P|204:116|356:125,2,207.999990478516,8|8|8,1:0|1:0|1:0,0:0:0:0:
59,54,240418,5,4,1:0:0:0:
433,329,241407,6,0,L|438:283,1,40,2|0,0:0|0:0,0:0:0:0:
360,223,241738,2,0,L|353:274,1,40,2|0,0:0|0:0,0:0:0:0:
291,326,242069,1,2,0:0:0:0:
214,307,242235,1,0,0:0:0:0:
153,227,242401,6,0,P|89:245|44:371,1,200,4|0,0:0|0:0,0:0:0:0:
137,318,243423,6,0,L|140:328,1,10,2|0,0:0|0:0,0:0:0:0:
207,369,243594,2,0,L|253:369,1,40,2|0,0:0|0:0,0:0:0:0:
356,310,243944,2,0,L|316:310,1,40,2|0,0:0|0:0,0:0:0:0:
243,268,244298,1,2,0:0:0:0:
326,35,244479,6,0,P|315:132|319:248,1,200,4|0,0:0|0:0,0:0:0:0:
224,131,245597,6,0,L|196:142,1,20,2|0,0:0|0:0,0:0:0:0:
128,166,245779,2,0,P|127:140|124:108,1,40,2|0,0:0|0:0,0:0:0:0:
39,90,246145,2,0,P|40:109|41:129,1,40,0|2,0:0|0:0,0:0:0:0:
76,273,246541,5,2,0:0:0:0:
76,273,246686,2,0,L|71:294,2,20,2|0|0,0:0|0:0|0:0,0:0:0:0:
184,331,246928,6,0,L|229:336,1,40,2|0,0:0|0:0,0:0:0:0:
297,285,247325,2,0,L|341:289,1,40,2|0,0:0|0:0,0:0:0:0:
495,192,247719,1,2,0:0:0:0:
409,143,247934,6,0,P|416:227|418:304,1,160,4|2,0:0|0:0,0:0:0:0:
198,138,249342,6,0,L|220:131,1,20,2|0,0:0|0:0,0:0:0:0:
298,38,249592,2,0,P|294:77|292:132,1,80,2|0,0:0|0:0,0:0:0:0:
165,225,249970,1,2,0:0:0:0:
119,160,250167,6,0,P|123:121|125:66,2,80,2|2|2,0:0|0:0|0:0,0:0:0:0:
119,160,251358,1,2,0:0:0:0:
401,342,251761,6,0,L|380:348,1,20,2|0,0:0|0:0,0:0:0:0:
280,373,251978,2,0,P|286:318|288:284,1,80,2|0,0:0|0:0,0:0:0:0:
435,173,252372,1,2,0:0:0:0:
356,132,252577,6,0,P|350:187|348:221,1,80,2|2,0:0|0:0,0:0:0:0:
354,220,253413,1,2,0:0:0:0:
354,220,253829,1,2,0:0:0:0:
113,330,254208,6,0,L|102:263,1,40,2|0,0:0|0:0,0:0:0:0:
107,291,254903,1,2,0:0:0:0:
150,229,255123,2,0,P|159:179|164:149,1,80,2|2,0:0|0:0,0:0:0:0:
246,107,255520,6,0,L|241:154,4,26.6666666666667,2|0|0|0|0,0:0|0:0|0:0|0:0|0:0,0:0:0:0:
429,321,256220,5,2,0:0:0:0:
429,321,256724,1,2,0:0:0:0:
254,346,257085,6,0,L|261:372,5,26.6666666666667,2|0|0|0|0|0,0:0|0:0|0:0|0:0|0:0|0:0,0:0:0:0:
256,192,258438,5,2,0:0:0:0:
256,192,259104,5,2,0:0:0:0:
