osu file format v14

[General]
AudioFilename: audio.mp3
AudioLeadIn: 0
PreviewTime: 93715
Countdown: 0
SampleSet: Soft
StackLeniency: 0.7
Mode: 0
LetterboxInBreaks: 0
WidescreenStoryboard: 0

[Editor]
DistanceSpacing: 1
BeatDivisor: 4
GridSize: 16
TimelineZoom: 2.5

[Metadata]
Title:Ryokugan no Kemono
TitleUnicode:緑眼の獣
Artist:Liz Triangle
ArtistUnicode:Liz Triangle
Creator:Mirash
Version:Intermediate
Source:東方地霊殿 ~ Subterranean Animism.
Tags:pandahero trynna lily-an parsee mizuhashi 水橋 パルスィ kaztora eba azuki 緑眼のジェラシー 神風 Divine Wind c77 77 doujin Misaki Nakajima Green Eyed Beast touhou zun
BeatmapID:1535691
BeatmapSetID:661455

[Difficulty]
HPDrainRate:5
CircleSize:4
OverallDifficulty:5
ApproachRate:6
SliderMultiplier:1.2
SliderTickRate:1

[Events]
//Background and Video events
0,0,"bg.jpg",0,0
//Break Periods
2,18880,25742
2,86132,88709
2,161297,163874
2,187012,192555
//Storyboard Layer 0 (Background)
//Storyboard Layer 1 (Fail)
//Storyboard Layer 2 (Pass)
//Storyboard Layer 3 (Foreground)
//Storyboard Sound Samples

[TimingPoints]
3056,329.67032967033,3,2,3,70,1,0
18880,-100,3,2,3,40,0,0
26792,-166.666666666667,3,2,3,40,0,0
34045,-125,3,2,3,50,0,0
38001,-125,3,2,3,40,0,0
38083,-125,3,2,3,50,0,0
61077,-125,3,2,3,55,0,0
61407,-125,3,2,3,60,0,0
70308,-100,3,2,4,70,0,1
86132,-100,3,2,3,60,0,0
94045,-166.666666666667,3,2,3,40,0,0
100968,-166.666666666667,3,2,3,20,0,0
101627,-166.666666666667,3,2,3,40,0,0
109209,-125,3,2,3,50,0,0
113165,-125,3,2,3,40,0,0
113248,-125,3,2,3,50,0,0
136242,-125,3,2,3,55,0,0
136572,-125,3,2,3,60,0,0
145473,-100,3,2,4,70,0,1
161297,-100,3,2,3,60,0,0
167891,-100,3,2,3,70,0,0
193605,-166.666666666667,3,2,3,50,0,0
200858,-125,3,2,3,50,0,0
206792,-100,3,2,4,70,0,1
221957,-100,3,2,3,70,0,0
223605,-100,3,2,4,70,0,1
240418,-100,3,2,3,70,0,0
241407,331.491712707182,3,2,5,30,1,0
241407,-166.666666666667,3,2,5,30,0,0
242401,340.909090909091,4,2,5,30,1,0
242401,-166.666666666667,4,2,5,30,0,0
243594,352.941176470588,4,2,5,30,1,0
243594,-200,4,2,5,30,0,0
243770,348.837209302326,4,2,5,30,1,0
243770,-166.666666666667,4,2,5,30,0,0
243944,-200,4,2,5,30,0,0
244118,361.44578313253,4,2,5,30,1,0
244118,-166.666666666667,4,2,5,30,0,0
244479,372.670807453416,4,2,5,30,1,0
244479,-166.666666666667,4,2,5,30,0,0
245597,365.853658536585,4,2,5,30,1,0
245597,-166.666666666667,4,2,5,30,0,0
245779,-166.666666666667,4,2,5,30,0,0
246145,389.61038961039,4,2,5,30,1,0
246145,-200,4,2,5,30,0,0
246339,405.405405405405,4,2,5,30,1,0
246339,-166.666666666667,4,2,5,30,0,0
246541,387.096774193548,4,2,5,30,1,0
246928,400,4,2,5,30,1,0
246928,-200,4,2,5,30,0,0
247128,394.736842105263,4,2,5,30,1,0
247325,425.531914893617,4,2,5,30,1,0
247325,-200,4,2,5,30,0,0
247537,365.853658536585,4,2,5,30,1,0
247719,431.654676258993,4,2,5,30,1,0
247934,447.761194029851,4,2,5,25,1,0
247934,-200,4,2,5,25,0,0
248829,512.820512820513,4,2,5,20,1,0
248829,-166.666666666667,4,2,5,20,0,0
249341,500,4,2,5,20,1,0
249591,379.746835443038,4,2,5,20,1,0
249591,-166.666666666667,4,2,5,20,0,0
249970,394.736842105263,4,2,5,20,1,0
250167,-166.666666666667,4,2,5,20,0,0
250956,402.684563758389,4,2,5,20,1,0
251761,434.782608695652,4,2,5,20,1,0
251761,-166.666666666667,4,2,5,20,0,0
251978,397.350993377483,4,2,5,20,1,0
252176,392.156862745098,4,2,5,20,1,0
252176,-166.666666666667,4,2,5,20,0,0
252372,410.958904109589,4,2,5,20,1,0
252577,-200,4,2,5,20,0,0
252988,425.531914893617,4,2,5,20,1,0
252988,-166.666666666667,4,2,5,20,0,0
253413,416.666666666667,4,2,5,20,1,0
253829,379.746835443038,4,2,5,20,1,0
253829,-166.666666666667,4,2,5,20,0,0
254208,431.654676258993,4,2,5,15,1,0
254315,588.235294117647,4,2,5,15,1,0
254903,441.176470588235,4,2,5,15,1,0
255123,-166.666666666667,4,2,5,15,0,0
255344,352.941176470588,4,2,5,15,1,0
255520,370.37037037037,4,2,5,15,1,0
255766,454.545454545455,4,2,5,15,1,0
256220,504.201680672269,4,2,5,15,1,0
256220,-166.666666666667,4,2,5,15,0,0
256724,361.44578313253,4,2,5,15,1,0
257085,372.670807453416,4,2,5,15,1,0
257395,521.739130434783,4,2,5,15,1,0
258438,666.666666666667,4,2,5,10,1,0

[Colours]
Combo1 : 16,205,101
Combo2 : 100,148,48
Combo3 : 62,130,99
Combo4 : 0,130,130

[HitObjects]
441,115,3056,6,0,P|426:188|422:243,1,120,4|0,1:0|0:0,0:0:0:0:
370,283,3550,1,0,0:0:0:0:
311,324,3715,2,0,P|289:250|294:187,2,120,2|2|2,0:3|0:0|0:0,0:0:0:0:
168,342,4704,2,0,P|117:336|86:336,1,60,0|0,1:0|0:0,0:0:0:0:
35,337,5034,6,0,P|34:271|22:202,1,120,2|2,0:0|0:0,0:0:0:0:
108,99,5693,2,0,P|142:98|187:104,1,60,2|0,0:3|0:0,0:0:0:0:
219,151,6023,2,0,P|280:152|357:139,1,120,4|4,3:0|0:0,0:0:0:0:
462,69,6682,1,0,1:0:0:0:
498,208,7012,6,0,P|437:237|423:356,1,180,4|0,1:0|0:0,0:0:0:0:
483,363,7671,1,2,0:3:0:0:
338,359,8001,2,0,L|217:340,1,120,4|0,0:3|0:0,0:0:0:0:
75,349,8660,1,0,1:0:0:0:
112,209,8990,2,0,P|105:150|63:102,1,120,4|2,0:3|0:0,0:0:0:0:
185,21,9649,2,0,L|256:29,1,60,0|0,1:0|0:0,0:0:0:0:
315,10,9979,6,0,P|321:66|315:158,1,120,4|4,0:3|0:3,0:0:0:0:
287,194,10473,1,0,1:0:0:0:
287,194,10638,2,0,P|286:255|276:333,1,120,4|4,0:3|1:0,0:0:0:0:
413,365,11297,6,0,P|421:315|424:289,1,60,0|2,0:0|0:1,0:0:0:0:
474,255,11627,2,0,P|470:196|435:125,2,120,2|4|2,0:3|0:3|0:0,0:0:0:0:
336,298,12616,2,0,P|276:284|216:284,1,120,0|4,1:1|0:3,0:0:0:0:
84,339,13275,5,2,0:0:0:0:
14,212,13605,2,0,L|20:133,1,60,2|0,0:3|0:0,0:0:0:0:
75,107,13935,2,0,P|130:101|190:42,2,120,4|4|0,0:3|0:2|1:0,0:0:0:0:
185,199,14924,6,0,P|206:246|232:385,1,180,4|2,1:0|0:0,0:0:0:0:
303,365,15583,1,2,0:3:0:0:
358,231,15913,2,0,P|356:176|393:50,1,180,4|8,0:0|0:0,0:0:0:0:
460,69,16572,2,0,L|520:100,1,60,4|8,1:0|0:0,0:0:0:0:
483,162,16902,1,8,1:0:0:0:
491,233,17066,1,0,1:0:0:0:
385,331,17396,2,0,L|311:322,1,60,8|0,1:0|1:0,0:0:0:0:
274,272,17726,1,8,0:0:0:0:
202,263,17891,6,0,P|139:273|78:312,1,120,2|0,1:0|1:0,0:0:0:0:
469,140,26792,6,0,P|388:145|319:131,1,143.999995605469,4|2,1:2|0:0,0:0:0:0:
269,89,27616,1,2,0:0:0:0:
201,113,27781,2,0,P|178:168|174:188,2,71.9999978027344,2|2|2,0:0|0:0|0:0,0:0:0:0:
270,239,28770,6,0,P|248:311|184:347,1,143.999995605469,8|2,0:1|0:0,0:0:0:0:
121,329,29594,1,2,0:0:0:0:
137,258,29759,1,2,0:0:0:0:
95,120,30088,1,2,0:0:0:0:
207,30,30418,2,0,L|253:28,1,35.9999989013672,2|0,0:0|1:0,0:0:0:0:
306,63,30748,6,0,P|316:121|315:254,1,179.999994506836,8|0,0:1|0:0,0:0:0:0:
257,283,31737,2,0,P|187:293|171:297,2,71.9999978027344,2|2|2,0:0|0:0|0:0,0:0:0:0:
316,323,32561,1,0,1:0:0:0:
388,324,32726,6,0,P|394:262|393:172,1,143.999995605469,8|2,0:1|0:0,0:0:0:0:
334,139,33550,1,2,0:0:0:0:
267,166,33715,1,2,0:0:0:0:
89,314,34209,1,8,1:0:0:0:
89,314,34374,2,0,L|159:306,1,48,4|4,0:3|0:3,0:0:0:0:
209,334,34704,6,0,P|224:272|229:228,1,96,4|4,1:0|0:3,0:0:0:0:
321,118,35363,1,0,0:0:0:0:
191,35,35693,2,0,P|143:41|83:65,2,96,0|4|8,1:0|0:0|1:0,0:0:0:0:
344,28,36682,6,0,P|386:62|425:147,1,144,0|2,1:0|0:0,0:0:0:0:
427,218,37341,2,0,P|414:252|405:283,1,48,2|0,0:0|0:0,0:0:0:0:
366,326,37671,1,0,1:0:0:0:
366,326,37836,1,0,0:0:0:0:
289,321,38001,2,0,L|173:336,1,96,6|8,0:0|1:0,0:0:0:0:
42,305,38660,6,0,P|46:248|35:197,1,96,0|4,1:0|0:3,0:0:0:0:
30,133,39154,1,2,0:0:0:0:
30,133,39319,2,0,L|94:145,1,48,2|0,0:0|0:0,0:0:0:0:
149,169,39649,2,0,L|206:161,1,48,0|2,1:0|0:3,0:0:0:0:
264,125,39979,1,4,0:0:0:0:
410,79,40308,1,8,1:0:0:0:
463,223,40638,6,0,P|418:253|406:312,1,96,4|8,0:3|1:0,0:0:0:0:
345,340,41132,1,0,0:0:0:0:
273,311,41297,2,0,L|205:319,1,48,8|4,1:0|0:3,0:0:0:0:
162,362,41627,1,4,1:2:0:0:
23,88,42286,2,0,L|77:95,1,48,12|0,1:0|0:0,0:0:0:0:
129,144,42616,6,0,P|192:125|221:93,1,96,4|8,1:3|1:0,0:0:0:0:
344,25,43275,2,0,L|407:41,1,48,2|0,0:0|0:0,0:0:0:0:
456,77,43605,2,0,L|448:178,1,96,4|4,0:3|0:3,0:0:0:0:
400,318,44264,2,0,L|345:307,1,48,12|0,1:0|0:0,0:0:0:0:
282,277,44594,6,0,P|232:283|178:319,1,96,4|8,1:3|1:0,0:0:0:0:
119,329,45088,1,2,0:0:0:0:
119,329,45253,2,0,L|106:275,1,48,2|0,0:0|0:0,0:0:0:0:
105,205,45583,2,0,L|118:89,1,96,4|4,0:3|0:3,0:0:0:0:
240,19,46242,6,0,L|228:132,1,96,12|4,1:0|1:3,0:0:0:0:
265,183,46737,1,2,0:0:0:0:
265,183,46902,2,0,L|370:179,1,96,0|0,1:0|0:0,0:0:0:0:
387,330,47561,2,0,L|231:339,1,144,4|2,0:3|0:0,0:0:0:0:
173,370,48220,1,8,1:0:0:0:
174,216,48550,6,0,L|162:108,1,96,4|0,0:3|0:0,0:0:0:0:
104,70,49045,1,8,1:0:0:0:
104,70,49209,2,0,P|69:102|61:167,1,96,4|4,0:3|0:0,0:0:0:0:
78,222,49704,1,2,1:2:0:0:
31,283,49869,2,0,L|28:345,1,48,8|8,1:0|1:0,0:0:0:0:
89,378,50198,2,0,L|150:349,1,48,4|4,1:3|1:3,0:0:0:0:
146,281,50528,6,0,P|197:279|258:300,1,96,4|4,1:0|1:0,0:0:0:0:
473,90,51517,2,0,L|374:111,1,96,6|2,0:0|0:0,0:0:0:0:
238,47,52176,1,8,1:0:0:0:
130,156,52506,6,0,P|99:207|95:263,1,96,4|2,0:3|0:0,0:0:0:0:
147,297,53001,1,0,0:0:0:0:
222,284,53165,2,0,L|277:293,1,48,8|4,1:0|0:3,0:0:0:0:
345,307,53495,1,8,1:0:0:0:
493,265,53825,2,0,L|473:203,1,48,8|2,1:0|1:2,0:0:0:0:
403,201,54154,2,0,L|406:134,1,48,8|8,1:0|1:0,0:0:0:0:
445,86,54484,6,0,P|401:63|338:59,1,96,12|8,1:0|1:0,0:0:0:0:
48,80,55473,2,0,P|60:156|63:195,2,96,0|4|8,1:0|0:3|1:0,0:0:0:0:
198,110,56462,6,0,P|241:105|265:95,1,48,4|2,1:3|0:0,0:0:0:0:
318,127,56792,1,4,0:3:0:0:
394,245,57121,2,0,P|345:243|324:240,1,48,8|0,1:0|1:0,0:0:0:0:
274,271,57451,1,4,1:0:0:0:
132,322,57781,2,0,P|122:275|116:254,1,48,8|8,1:0|1:0,0:0:0:0:
137,199,58110,1,8,1:0:0:0:
137,199,58275,1,0,1:0:0:0:
213,196,58440,6,0,P|305:186|330:180,1,96,12|8,1:0|1:0,0:0:0:0:
44,24,59429,2,0,P|20:70|10:129,1,96,4|4,1:2|0:3,0:0:0:0:
51,261,60088,1,8,1:0:0:0:
203,241,60418,6,0,L|316:252,2,96,4|0|8,0:3|1:0|1:0,0:0:0:0:
158,93,61407,2,0,P|133:157|127:196,1,96,8|8,1:0|1:0,0:0:0:0:
120,260,61902,1,0,1:0:0:0:
166,320,62066,2,0,L|232:319,1,48,8|8,1:0|1:0,0:0:0:0:
285,347,62396,6,0,P|348:335|375:295,1,96,4|2,1:0|0:2,0:0:0:0:
468,196,63056,2,0,P|436:188|412:189,1,48,2|0,0:3|1:0,0:0:0:0:
345,203,63385,2,0,P|264:192|242:172,2,96,4|2|8,0:3|1:2|1:0,0:0:0:0:
320,51,64374,6,0,P|256:51|172:91,1,144,4|0,1:0|0:0,0:0:0:0:
108,103,65034,2,0,L|116:172,1,48,8|0,1:0|0:0,0:0:0:0:
152,217,65363,2,0,P|141:286|123:328,2,96,4|2|12,0:3|0:0|1:0,0:0:0:0:
275,125,66352,6,0,P|327:134|370:149,1,96,4|0,1:0|0:0,0:0:0:0:
414,209,66847,1,8,1:0:0:0:
414,209,67012,2,0,P|380:280|371:310,1,96,2|4,0:3|0:3,0:0:0:0:
325,355,67506,1,0,1:0:0:0:
251,331,67671,2,0,P|207:332|184:336,1,48,2|8,0:0|1:0,0:0:0:0:
131,361,68001,1,4,1:2:0:0:
131,361,68165,1,0,1:0:0:0:
60,329,68330,5,8,1:0:0:0:
24,179,68660,1,8,1:0:0:0:
24,179,68825,1,8,1:0:0:0:
41,104,68990,2,0,P|72:90|103:83,1,48,8|8,1:0|1:0,0:0:0:0:
152,59,69319,1,12,1:0:0:0:
152,59,70308,6,0,B|227:63|227:63|243:89|243:89|338:97,1,180,4|0,1:3|1:0,0:0:0:0:
381,128,70968,2,0,P|440:128|508:97,2,120,8|0|0,1:3|1:0|1:0,0:0:0:0:
259,204,71957,2,0,P|213:203|193:198,1,60,8|0,1:3|0:0,0:0:0:0:
140,158,72286,6,0,P|101:192|64:260,1,120,0|0,1:0|1:0,0:0:0:0:
157,363,72946,2,0,P|193:348|227:341,1,60,8|0,1:3|0:0,0:0:0:0:
283,361,73275,1,4,0:0:0:0:
425,339,73605,1,0,1:0:0:0:
408,195,73935,1,8,1:0:0:0:
265,213,74264,6,0,B|213:216|213:216|193:230|193:230|144:233,2,120,4|0|8,1:0|1:0|1:3,0:0:0:0:
331,84,75253,2,0,P|384:79|465:103,1,120,0|0,1:0|1:0,0:0:0:0:
506,147,75748,1,4,1:2:0:0:
506,147,75913,2,0,L|496:214,1,60,8|4,1:3|1:2,0:0:0:0:
437,247,76242,6,0,P|356:283|352:373,1,180,0|0,1:0|1:2,0:0:0:0:
420,371,76902,2,0,L|486:352,1,60,8|0,1:0|0:0,0:0:0:0:
505,287,77231,2,0,P|506:227|502:144,1,120,0|12,1:0|1:0,0:0:0:0:
394,72,77891,1,8,1:0:0:0:
302,182,78220,6,0,B|241:167|241:167|185:186,2,120,4|0|8,1:0|1:0|1:3,0:0:0:0:
340,243,79045,1,0,0:0:0:0:
366,309,79209,2,0,P|435:323|475:380,2,120,0|4|8,1:0|0:0|1:3,0:0:0:0:
221,307,80198,6,0,P|171:322|116:372,1,120,0|0,1:3|1:0,0:0:0:0:
40,244,80858,2,0,P|54:189|54:164,1,60,8|0,1:3|0:0,0:0:0:0:
104,134,81187,2,0,L|231:149,1,120,0|4,1:0|0:0,0:0:0:0:
354,88,81847,1,4,1:0:0:0:
443,200,82176,6,0,P|423:245|414:332,2,120,8|0|8,1:0|1:0|1:3,0:0:0:0:
405,137,83001,1,0,0:0:0:0:
338,162,83165,2,0,P|293:160|190:75,1,180,0|4,1:0|0:0,0:0:0:0:
125,49,83825,2,0,P|76:83|62:96,1,60,8|0,1:0|1:0,0:0:0:0:
54,151,84154,5,8,1:3:0:0:
141,265,84484,1,4,0:0:0:0:
141,265,84649,1,8,1:0:0:0:
266,194,84979,1,4,1:2:0:0:
266,194,85143,2,0,P|259:253|247:338,1,120,8|8,1:0|1:0,0:0:0:0:
305,360,85638,1,4,1:2:0:0:
465,320,89759,6,0,P|468:288|477:255,1,60,8|0,1:0|1:0,0:0:0:0:
505,192,90088,6,0,P|450:182|366:172,1,120,4|0,1:0|1:0,0:0:0:0:
194,274,90913,1,0,1:0:0:0:
129,305,91077,2,0,P|113:247|114:220,1,60,8|0,1:0|0:0,0:0:0:0:
154,188,91407,2,0,P|152:113|127:49,1,120,8|2,1:0|0:0,0:0:0:0:
69,47,91902,1,2,0:0:0:0:
69,47,92066,1,2,0:0:0:0:
256,192,92149,12,4,93056,0:0:0:0:
414,80,94045,6,0,P|402:152|396:264,1,179.999994506836,0|0,1:0|0:0,0:0:0:0:
334,295,95034,2,0,P|309:293|283:291,1,35.9999989013672,2|0,0:0|0:0,0:0:0:0:
226,292,95363,2,0,P|186:270|171:245,1,71.9999978027344,2|2,0:0|0:0,0:0:0:0:
168,176,95858,1,0,1:0:0:0:
185,105,96023,2,0,L|339:117,1,143.999995605469,4|0,0:2|0:0,0:0:0:0:
460,59,97012,6,0,P|424:120|414:202,1,143.999995605469,2|2,0:0|0:0,0:0:0:0:
420,267,97836,1,0,1:0:0:0:
420,267,98001,2,0,L|267:248,1,143.999995605469,4|0,0:0|0:0,0:0:0:0:
135,224,98990,6,0,P|156:173|203:150,1,107.999996704102,2|0,0:0|0:0,0:0:0:0:
270,171,99649,2,0,P|296:168|317:160,1,35.9999989013672,2|0,0:0|1:0,0:0:0:0:
377,160,99979,2,0,P|356:105|211:71,1,215.999993408203,4|0,0:0|1:0,0:0:0:0:
88,80,101957,6,0,L|74:227,1,143.999995605469,4|2,0:0|0:0,0:0:0:0:
107,287,102781,1,2,0:0:0:0:
177,273,102946,2,0,P|209:276|220:278,1,35.9999989013672,2|0,0:0|0:0,0:0:0:0:
280,301,103275,2,0,P|312:318|322:327,1,35.9999989013672,2|0,0:0|0:0,0:0:0:0:
382,346,103605,1,2,0:0:0:0:
382,346,103770,1,0,1:0:0:0:
447,316,103935,6,0,P|454:262|418:213,1,107.999996704102,8|0,0:1|0:0,0:0:0:0:
360,188,104594,2,0,P|333:192|309:197,1,35.9999989013672,2|2,0:0|0:0,0:0:0:0:
255,169,104924,2,0,P|195:194|180:208,2,71.9999978027344,2|0|0,0:0|0:0|0:0,0:0:0:0:
265,97,105748,1,0,1:0:0:0:
308,39,105913,2,0,P|363:59|417:72,1,107.999996704102,8|0,0:1|0:0,0:0:0:0:
465,117,106572,1,0,0:0:0:0:
398,244,106902,6,0,P|382:293|377:326,2,71.9999978027344,2|2|2,0:0|0:0|0:0,0:0:0:0:
368,178,107726,1,0,1:0:0:0:
298,196,107891,2,0,P|237:232|156:251,1,143.999995605469,8|2,0:1|0:0,0:0:0:0:
95,236,108715,1,2,0:0:0:0:
39,189,108880,2,0,P|40:146|36:108,1,71.9999978027344,2|0,0:0|0:0,0:0:0:0:
66,45,109374,1,8,1:0:0:0:
138,69,109539,2,0,L|199:64,1,48,4|4,0:3|0:3,0:0:0:0:
250,22,109869,5,4,1:0:0:0:
402,40,110198,2,0,P|393:87|383:193,1,144,4|0,0:3|0:0,0:0:0:0:
374,259,110858,2,0,P|345:278|322:290,1,48,0|0,1:0|0:0,0:0:0:0:
257,269,111187,2,0,P|208:273|157:301,2,96,4|8|4,0:0|1:0|0:3,0:0:0:0:
300,121,112176,6,0,P|304:88|305:55,1,48,0|2,1:0|0:0,0:0:0:0:
244,24,112506,2,0,P|212:23|188:27,1,48,0|2,0:0|0:0,0:0:0:0:
148,86,112836,2,0,P|112:128|59:147,2,96,4|4|8,0:3|0:0|1:0,0:0:0:0:
91,229,113825,6,0,P|120:278|166:297,1,96,4|0,0:3|1:0,0:0:0:0:
303,327,114484,1,0,0:0:0:0:
303,327,114649,1,2,0:0:0:0:
377,309,114814,2,0,L|384:246,1,48,4|2,0:3|0:3,0:0:0:0:
343,194,115143,2,0,P|382:147|426:136,1,96,0|8,0:0|1:0,0:0:0:0:
501,10,115803,6,0,P|440:25|399:29,1,96,4|0,0:3|1:0,0:0:0:0:
332,10,116297,1,0,0:0:0:0:
257,29,116462,2,0,P|232:54|219:82,1,48,8|4,1:0|0:3,0:0:0:0:
227,142,116792,1,4,1:2:0:0:
45,328,117451,2,0,P|56:295|59:265,1,48,12|0,1:0|0:0,0:0:0:0:
24,212,117781,6,0,P|31:148|56:106,1,96,4|8,1:3|1:0,0:0:0:0:
198,107,118440,2,0,P|244:106|260:104,1,48,2|0,0:0|0:0,0:0:0:0:
308,60,118770,2,0,P|357:68|415:93,1,96,4|4,0:3|0:3,0:0:0:0:
490,208,119429,2,0,P|464:228|449:249,1,48,8|0,1:0|0:0,0:0:0:0:
432,313,119759,6,0,P|376:317|322:295,1,96,4|8,1:3|1:0,0:0:0:0:
192,256,120418,2,0,P|208:211|210:195,1,48,2|0,0:0|0:0,0:0:0:0:
246,143,120748,2,0,P|209:94|81:98,1,192,4|8,0:3|1:0,0:0:0:0:
47,241,121737,6,0,P|34:283|27:309,1,48,4|2,1:3|0:0,0:0:0:0:
71,353,122066,2,0,P|134:338|230:338,1,144,0|2,1:0|0:0,0:0:0:0:
285,363,122726,2,0,P|331:335|354:235,1,144,4|0,0:3|0:0,0:0:0:0:
307,194,123385,2,0,P|332:150|341:140,1,48,8|0,1:0|0:0,0:0:0:0:
407,156,123715,6,0,P|391:102|348:22,1,144,4|0,1:3|1:0,0:0:0:0:
287,70,124374,1,8,1:0:0:0:
137,32,124704,2,0,L|74:36,1,48,4|4,0:3|1:2,0:0:0:0:
21,73,125034,1,8,1:0:0:0:
21,73,125198,1,8,1:0:0:0:
17,149,125363,2,0,L|22:216,1,48,8|8,1:0|1:0,0:0:0:0:
77,249,125693,6,0,P|138:236|237:234,1,144,4|0,1:0|1:0,0:0:0:0:
448,256,126682,2,0,P|437:303|429:361,2,96,0|4|8,1:0|0:0|1:0,0:0:0:0:
438,180,127506,1,0,1:0:0:0:
485,119,127671,6,0,P|481:60|487:9,2,96,0|4|8,1:0|0:0|1:0,0:0:0:0:
408,110,128495,1,2,0:0:0:0:
354,164,128660,2,0,P|314:159|245:132,1,96,8|4,1:0|0:0,0:0:0:0:
209,83,129154,1,0,1:0:0:0:
132,76,129319,1,8,1:0:0:0:
132,76,129484,1,8,1:0:0:0:
84,136,129649,6,0,P|96:206|95:248,1,96,12|8,1:0|1:0,0:0:0:0:
366,376,130638,2,0,P|350:323|341:269,1,96,4|0,3:0|3:3,0:0:0:0:
284,140,131297,2,0,P|329:94|352:54,2,96,8|4|4,1:0|0:3|0:0,0:0:0:0:
198,267,132286,6,0,P|170:314|164:322,1,48,8|2,1:0|0:0,0:0:0:0:
97,317,132616,2,0,P|53:262|41:230,1,96,4|8,0:3|1:0,0:0:0:0:
66,165,133110,1,8,1:0:0:0:
66,165,133275,2,0,L|128:162,1,48,8|0,1:0|1:0,0:0:0:0:
191,167,133605,6,0,P|214:129|228:67,1,96,12|8,1:0|1:0,0:0:0:0:
510,199,134594,2,0,P|471:227|417:243,1,96,4|4,1:2|0:3,0:0:0:0:
272,230,135253,1,8,1:0:0:0:
272,230,135418,1,2,0:0:0:0:
195,231,135583,6,0,P|153:278|139:316,1,96,4|0,0:3|1:0,0:0:0:0:
268,369,136242,2,0,P|307:352|319:342,1,48,8|0,1:0|0:0,0:0:0:0:
338,276,136572,2,0,P|339:219|353:119,1,144,8|0,1:0|1:0,0:0:0:0:
385,64,137231,2,0,P|421:73|439:83,1,48,8|8,1:0|1:0,0:0:0:0:
483,134,137561,5,4,1:0:0:0:
191,229,138220,2,0,P|142:225|122:223,1,48,2|0,0:3|1:0,0:0:0:0:
95,164,138550,2,0,P|127:119|171:110,2,96,4|2|8,0:3|1:2|1:0,0:0:0:0:
84,317,139539,6,0,P|132:336|192:333,1,96,4|2,1:0|0:0,0:0:0:0:
234,285,140034,1,0,0:0:0:0:
309,296,140198,2,0,P|360:307|416:332,1,96,8|4,1:0|0:3,0:0:0:0:
494,201,140858,1,2,0:0:0:0:
355,136,141187,1,12,1:0:0:0:
219,208,141517,6,0,P|167:209|102:201,1,96,4|0,1:0|0:0,0:0:0:0:
69,149,142012,1,8,1:0:0:0:
124,96,142176,2,0,P|136:60|140:29,1,48,2|0,0:3|0:0,0:0:0:0:
209,21,142506,2,0,P|242:30|314:39,1,96,4|2,0:3|0:0,0:0:0:0:
379,23,143001,1,8,1:0:0:0:
447,56,143165,1,4,1:2:0:0:
447,56,143330,1,0,1:0:0:0:
416,126,143495,6,0,P|405:168|405:189,1,48,8|0,1:0|1:0,0:0:0:0:
465,234,143825,1,8,1:0:0:0:
465,234,143990,1,8,1:0:0:0:
433,303,144154,2,0,P|388:317|371:319,1,48,8|8,1:0|1:0,0:0:0:0:
310,304,144484,1,12,1:0:0:0:
142,347,144979,2,0,P|165:340|188:337,2,48,8|8|8,1:0|1:0|1:0,1:0:0:0:
72,328,145473,6,0,P|75:264|63:192,1,120,4|0,1:3|0:0,0:0:0:0:
70,64,146132,2,0,P|110:55|132:54,1,60,8|0,1:3|0:0,0:0:0:0:
189,93,146462,2,0,P|243:94|306:77,1,120,0|0,1:0|1:0,0:0:0:0:
445,39,147121,2,0,P|453:79|457:106,1,60,8|0,1:3|0:0,0:0:0:0:
427,164,147451,6,0,P|421:215|430:292,2,120,0|0|8,1:0|1:0|1:0,0:0:0:0:
285,193,148440,2,0,P|214:207|161:213,1,120,4|0,0:0|1:0,0:0:0:0:
29,168,149099,2,0,P|16:228|12:246,1,60,8|8,1:0|1:0,0:0:0:0:
45,293,149429,6,0,P|100:324|179:310,1,120,4|0,1:0|1:0,0:0:0:0:
290,271,150088,2,0,P|321:275|356:283,1,60,8|0,1:3|1:0,0:0:0:0:
407,323,150418,2,0,P|428:275|377:155,1,180,0|4,1:0|1:2,0:0:0:0:
339,106,151077,2,0,P|353:61|363:36,1,60,8|4,1:3|1:2,0:0:0:0:
302,2,151407,6,0,P|264:12|156:26,1,120,0|0,1:0|1:0,0:0:0:0:
113,10,151902,1,0,1:0:0:0:
45,33,152066,2,0,P|44:71|37:115,1,60,8|0,1:0|0:0,0:0:0:0:
78,154,152396,2,0,P|84:230|95:292,1,120,0|12,1:0|1:0,0:0:0:0:
203,364,153056,2,0,P|241:350|275:344,1,60,8|0,1:0|1:0,0:0:0:0:
331,356,153385,6,0,P|336:303|302:232,1,120,4|0,1:0|0:0,0:0:0:0:
185,169,154045,2,0,P|189:124|201:86,1,60,8|0,1:3|0:0,0:0:0:0:
244,60,154374,2,0,L|383:82,1,120,0|0,1:0|1:0,0:0:0:0:
504,53,155034,1,8,1:3:0:0:
506,196,155363,6,0,P|487:247|471:324,1,120,0|0,1:0|1:0,0:0:0:0:
337,361,156023,2,0,P|291:358|266:354,1,60,8|0,1:3|1:0,0:0:0:0:
231,300,156352,2,0,P|171:295|104:317,1,120,4|0,1:2|1:0,0:0:0:0:
19,202,157012,1,8,1:0:0:0:
130,110,157341,6,0,P|176:108|248:77,1,120,4|0,1:0|1:0,0:0:0:0:
281,18,157836,1,0,0:0:0:0:
281,18,158001,2,0,L|353:31,1,60,8|0,1:3|1:0,0:0:0:0:
393,77,158330,2,0,P|441:70|498:16,1,120,0|4,1:0|0:0,0:0:0:0:
508,168,158990,2,0,P|499:227|495:246,1,60,8|4,1:0|0:0,0:0:0:0:
504,299,159319,6,0,P|460:302|389:351,1,120,8|4,1:3|0:2,0:0:0:0:
332,307,159814,1,0,0:0:0:0:
277,353,159979,2,0,P|235:349|204:343,1,60,0|4,1:0|1:2,0:0:0:0:
149,370,160308,2,0,P|132:310|138:228,1,120,8|8,1:0|1:0,0:0:0:0:
171,191,160803,1,4,1:2:0:0:
171,25,164924,6,0,P|168:68|161:93,1,60,8|0,1:0|1:0,0:0:0:0:
199,146,165253,6,0,P|221:219|251:272,1,120,4|0,1:0|1:0,0:0:0:0:
438,346,166077,1,0,1:0:0:0:
438,346,166242,2,0,P|449:293|431:203,1,120,12|8,1:0|1:0,0:0:0:0:
380,188,166737,2,0,L|385:125,2,60,0|8|8,1:0|1:0|1:0,1:0:0:0:
316,224,167231,6,0,P|305:277|323:367,1,120,4|0,1:0|0:0,0:0:0:0:
247,372,167726,1,0,1:0:0:0:
186,332,167891,2,0,P|127:334|60:358,1,120,8|2,1:0|0:0,0:0:0:0:
10,221,168550,2,0,L|2:153,1,60,2|2,0:0|0:0,0:0:0:0:
38,98,168880,2,0,L|31:33,1,60,8|0,1:0|0:0,0:0:0:0:
96,7,169209,6,0,L|231:23,1,120,4|0,0:3|0:0,0:0:0:0:
316,124,169869,2,0,L|390:113,1,60,12|2,1:0|0:0,0:0:0:0:
436,77,170198,2,0,P|473:136|472:205,2,120,4|2|8,0:3|0:0|1:0,0:0:0:0:
296,41,171187,6,0,P|222:37|154:187,1,240,6|8,0:0|1:0,0:0:0:0:
248,268,172176,2,0,P|294:254|378:248,1,120,4|0,0:3|0:0,0:0:0:0:
481,333,172836,1,12,1:0:0:0:
499,190,173165,6,0,P|475:141|456:53,1,120,4|4,1:0|0:3,0:0:0:0:
399,35,173660,2,0,P|351:38|273:57,1,120,12|4,1:0|0:3,0:0:0:0:
223,97,174154,1,8,1:0:0:0:
223,97,174319,2,0,P|183:91|155:91,1,60,8|4,1:0|0:3,0:0:0:0:
90,90,174649,1,12,1:0:0:0:
90,90,174814,2,0,P|84:130|84:158,1,60,8|4,1:0|0:3,0:0:0:0:
92,220,175143,6,0,P|145:242|156:371,1,180,4|2,1:0|0:0,0:0:0:0:
238,368,175803,2,0,P|285:348|309:343,1,60,8|0,1:0|0:0,0:0:0:0:
365,352,176132,2,0,P|376:316|388:288,1,60,0|0,1:0|1:0,0:0:0:0:
448,261,176462,2,0,P|426:215|337:206,1,120,2|8,1:0|1:0,0:0:0:0:
293,215,176957,1,2,1:0:0:0:
221,215,177121,6,0,P|211:153|316:96,1,180,6|2,1:0|0:1,0:0:0:0:
365,118,177781,2,0,P|420:117|449:114,1,60,10|2,1:0|0:1,0:0:0:0:
480,70,178110,1,0,1:0:0:0:
345,17,178440,2,0,P|301:23|258:28,1,60,4|0,0:3|0:0,0:0:0:0:
225,65,178770,1,10,1:0:0:0:
225,65,178935,1,10,1:0:0:0:
152,40,179099,6,0,P|107:39|68:43,1,60,4|4,0:3|0:3,0:0:0:0:
13,161,179594,1,8,1:0:0:0:
13,161,179759,1,8,0:3:0:0:
13,161,179924,1,4,0:3:0:0:
65,209,180088,2,0,P|110:200|134:200,1,60,4|4,0:3|0:3,0:0:0:0:
219,307,180583,1,8,1:0:0:0:
219,307,180748,1,8,1:0:0:0:
219,307,180913,1,2,0:0:0:0:
256,246,181077,6,0,P|255:190|263:44,1,180,14|10,1:1|1:0,0:0:0:0:
330,45,181737,2,0,P|371:43|396:36,1,60,2|2,1:0|0:1,0:0:0:0:
420,103,182066,2,0,P|361:140|334:206,1,120,14|8,1:0|1:0,0:0:0:0:
358,252,182561,2,0,P|353:307|292:369,1,120,14|8,1:0|1:0,0:0:0:0:
244,338,183056,2,0,L|116:336,1,120,14|10,1:0|1:0,0:0:0:0:
61,299,183550,2,0,P|66:234|39:162,1,120,14|2,1:0|0:1,0:0:0:0:
33,111,184045,5,14,1:0:0:0:
92,71,184209,2,0,L|164:87,1,60,0|4,0:0|0:3,0:0:0:0:
189,144,184539,1,14,1:0:0:0:
235,199,184704,2,0,L|321:200,1,60,0|4,0:0|0:3,0:0:0:0:
363,176,185034,2,0,P|393:137|402:119,2,60,6|4|8,1:0|0:3|0:3,0:0:0:0:
355,247,185528,2,0,P|368:297|370:330,2,60,8|8|12,1:0|0:3|1:0,0:0:0:0:
294,206,186023,5,4,1:0:0:0:
150,207,186352,1,4,1:0:0:0:
500,192,193605,5,4,0:0:0:0:
500,192,193935,1,0,1:0:0:0:
500,192,194264,1,8,1:0:0:0:
500,192,194594,1,8,1:0:0:0:
369,130,194924,6,0,P|373:166|374:212,1,71.9999978027344,4|2,1:0|0:3,0:0:0:0:
110,317,195913,2,0,P|107:269|106:237,1,71.9999978027344,4|2,0:3|0:0,0:0:0:0:
190,128,196572,1,8,1:0:0:0:
280,244,196902,6,0,P|278:295|272:328,2,71.9999978027344,4|2|2,0:3|0:3|0:0,0:0:0:0:
294,100,197891,2,0,P|247:68|223:56,1,71.9999978027344,4|8,0:3|1:0,0:0:0:0:
89,72,198550,1,12,1:0:0:0:
85,216,198880,6,0,P|82:253|81:304,1,71.9999978027344,12|4,1:0|1:2,0:0:0:0:
194,376,199539,1,12,1:0:0:0:
250,243,199869,2,0,P|292:246|337:252,1,71.9999978027344,12|4,1:0|1:2,0:0:0:0:
458,204,200528,1,8,1:0:0:0:
398,62,200858,6,0,P|353:48|300:38,1,96,12|0,1:0|1:0,0:0:0:0:
238,77,201352,1,8,1:0:0:0:
165,50,201517,2,0,P|129:43|102:32,1,48,8|8,1:0|1:0,0:0:0:0:
46,67,201847,2,0,P|51:132|57:175,1,96,12|4,1:0|1:0,0:0:0:0:
107,218,202341,1,4,1:2:0:0:
180,195,202506,2,0,B|208:186|240:182,1,48,4|0,1:2|1:0,0:0:0:0:
303,185,202836,6,0,P|313:233|314:254,1,48,4|12,0:3|1:0,0:0:0:0:
195,331,203330,1,4,0:3:0:0:
265,360,203495,2,0,P|297:346|312:334,1,48,12|0,1:0|0:0,0:0:0:0:
382,318,203825,1,4,0:3:0:0:
458,317,203990,2,0,P|474:281|466:221,1,96,12|4,1:0|0:3,0:0:0:0:
416,169,204484,2,0,P|408:123|410:103,1,48,12|4,1:0|0:3,0:0:0:0:
379,50,204814,5,4,0:3:0:0:
379,50,204979,1,12,1:0:0:0:
224,21,205308,2,0,P|171:42|132:68,1,96,8|4,1:0|1:3,0:0:0:0:
69,98,205803,2,0,P|84:186|86:211,1,96,4|4,1:2|1:2,0:0:0:0:
210,291,206462,1,2,0:0:0:0:
210,291,206627,1,2,0:0:0:0:
276,263,206792,6,0,P|270:215|272:137,1,120,4|0,1:3|0:0,0:0:0:0:
319,89,207286,1,0,1:0:0:0:
319,89,207451,2,0,P|355:95|386:98,1,60,8|0,1:3|0:0,0:0:0:0:
444,66,207781,2,0,P|466:111|476:199,1,120,0|0,1:0|1:0,0:0:0:0:
414,309,208440,2,0,P|381:326|350:339,1,60,8|0,1:3|0:0,0:0:0:0:
292,361,208770,6,0,P|228:347|171:346,1,120,4|0,1:0|1:0,0:0:0:0:
102,357,209264,1,0,0:0:0:0:
102,357,209429,2,0,P|104:312|102:283,1,60,8|0,1:3|1:0,0:0:0:0:
55,242,209759,2,0,P|36:183|39:101,2,120,0|4|8,1:0|0:0|1:0,0:0:0:0:
189,189,210748,6,0,P|197:161|212:123,1,60,4|0,1:0|0:0,0:0:0:0:
271,97,211077,2,0,P|336:117|414:134,2,120,0|8|0,0:0|1:3|1:0,0:0:0:0:
485,69,212231,1,0,1:0:0:0:
459,136,212396,2,0,P|469:181|477:219,1,60,8|0,1:3|1:0,0:0:0:0:
445,261,212726,6,0,P|411:268|316:270,1,120,0|0,1:0|1:0,0:0:0:0:
214,179,213385,1,8,1:0:0:0:
87,247,213715,2,0,P|93:187|95:127,1,120,4|12,1:2|1:0,0:0:0:0:
139,70,214209,1,4,1:2:0:0:
209,85,214374,2,0,P|259:79|296:81,1,60,8|4,1:0|1:2,0:0:0:0:
338,59,214704,6,0,P|421:76|461:170,1,180,4|0,1:0|1:0,0:0:0:0:
421,215,215363,2,0,P|414:269|412:292,1,60,8|0,1:3|0:0,0:0:0:0:
393,344,215693,2,0,P|452:349|512:342,2,120,0|0|8,1:0|1:0|1:3,0:0:0:0:
266,275,216682,6,0,P|209:282|138:325,1,120,4|0,1:0|1:0,0:0:0:0:
10,300,217341,2,0,P|23:250|25:233,1,60,8|0,1:3|0:0,0:0:0:0:
7,171,217671,2,0,P|57:167|132:188,1,120,0|4,1:0|1:0,0:0:0:0:
256,242,218330,1,8,1:0:0:0:
312,109,218660,6,0,P|363:94|451:83,1,120,4|0,1:0|0:0,0:0:0:0:
298,22,219319,2,0,P|250:25|212:26,1,60,8|0,1:3|0:0,0:0:0:0:
165,19,219649,2,0,P|177:92|181:154,1,120,4|0,1:0|1:0,0:0:0:0:
210,278,220308,2,0,P|249:269|278:265,1,60,8|0,1:3|0:0,0:0:0:0:
335,236,220638,6,0,P|311:205|229:187,2,120,4|0|0,1:2|1:0|1:0,0:0:0:0:
346,379,221627,1,8,1:0:0:0:
464,297,221957,2,0,P|465:251|470:218,1,60,8|8,1:0|1:0,0:0:0:0:
420,181,222286,1,8,1:0:0:0:
420,181,222451,1,0,1:0:0:0:
449,115,222616,5,6,1:0:0:0:
327,37,222946,1,6,1:0:0:0:
222,135,223275,2,0,P|183:136|157:132,1,60,4|2,0:0|0:0,0:0:0:0:
99,96,223605,5,4,0:0:0:0:
48,147,223770,1,8,1:0:0:0:
48,147,223935,2,0,P|54:205|56:283,1,120,12|4,1:0|1:0,0:0:0:0:
176,345,224594,2,0,P|172:298|127:228,2,120,0|0|8,1:0|1:0|1:3,0:0:0:0:
318,366,225583,6,0,P|368:358|392:357,1,60,0|2,1:0|1:2,0:0:0:0:
448,370,225913,2,0,P|450:327|420:236,1,120,4|8,1:2|1:3,0:0:0:0:
298,193,226572,6,0,P|319:128|425:91,1,180,4|0,1:0|1:0,0:0:0:0:
484,114,227231,2,0,P|476:153|472:190,1,60,8|0,1:3|0:0,0:0:0:0:
438,236,227561,2,0,P|432:313|396:362,2,120,0|0|8,1:0|1:0|1:3,0:0:0:0:
303,287,228550,6,0,P|244:287|172:274,1,120,4|0,1:0|1:0,0:0:0:0:
57,208,229209,2,0,P|46:162|35:128,1,60,8|0,1:0|1:0,0:0:0:0:
54,78,229539,2,0,P|120:81|196:89,1,120,12|8,1:0|1:0,0:0:0:0:
205,151,230034,2,0,P|270:150|352:141,1,120,8|2,1:0|1:2,0:0:0:0:
370,89,230528,6,0,P|425:103|456:213,1,180,4|0,1:0|1:0,0:0:0:0:
394,247,231187,2,0,P|360:263|330:292,1,60,8|0,1:3|0:0,0:0:0:0:
307,340,231517,2,0,P|221:354|175:342,1,120,0|0,1:0|1:0,0:0:0:0:
74,261,232176,1,8,1:3:0:0:
153,141,232506,6,0,P|218:129|279:96,1,120,0|0,1:0|1:0,0:0:0:0:
389,31,233165,2,0,P|407:75|407:90,1,60,8|4,1:3|1:2,0:0:0:0:
372,150,233495,2,0,P|379:224|454:308,1,180,0|0,1:0|0:0,0:0:0:0:
431,373,234154,1,8,1:0:0:0:
288,354,234484,6,0,L|205:347,1,60,4|0,1:0|0:0,0:0:0:0:
156,336,234814,2,0,L|77:340,1,60,0|0,1:0|0:0,0:0:0:0:
33,303,235143,1,8,1:3:0:0:
44,159,235473,2,0,P|97:171|141:243,2,120,0|0|8,1:0|0:0|1:3,0:0:0:0:
181,116,236462,6,0,P|221:109|261:96,1,60,4|0,1:0|0:0,0:0:0:0:
292,53,236792,2,0,P|329:57|361:67,1,60,0|0,1:0|1:0,0:0:0:0:
394,120,237121,1,8,1:3:0:0:
472,240,237451,2,0,P|446:288|432:354,2,120,0|8|8,1:0|1:0|1:0,0:0:0:0:
394,120,238440,6,0,P|332:126|251:126,1,120,12|4,1:0|0:0,0:0:0:0:
224,180,238935,2,0,P|144:181|83:195,1,120,8|4,1:0|0:0,0:0:0:0:
69,251,239429,2,0,P|55:309|46:374,2,120,8|8|8,1:0|1:0|1:0,0:0:0:0:
30,113,240418,5,4,1:0:0:0:
30,113,241407,2,0,L|113:108,1,71.9999978027344,2|2,0:0|0:0,0:0:0:0:
232,168,242069,1,2,0:0:0:0:
360,111,242401,6,0,P|347:161|340:264,1,143.999995605469,4|0,0:0|0:0,0:0:0:0:
239,356,243423,2,0,L|189:348,1,35.9999989013672,2|2,0:0|0:0,0:0:0:0:
154,296,243770,2,0,L|102:286,1,35.9999989013672,0|2,0:0|0:0,0:0:0:0:
78,229,244118,2,0,L|31:219,1,35.9999989013672,0|2,0:0|0:0,0:0:0:0:
16,153,244479,6,0,P|45:119|146:104,1,143.999995605469,4|0,0:0|0:0,0:0:0:0:
203,233,245597,2,0,P|225:234|247:233,1,35.9999989013672,2|2,0:0|0:0,0:0:0:0:
292,186,245962,2,0,P|309:184|327:183,1,35.9999989013672
381,137,246339,2,0,P|400:137|423:137,1,35.9999989013672,2|2,0:0|0:0,0:0:0:0:
475,184,246734,5,0,0:0:0:0:
128,350,247934,1,4,0:0:0:0:
94,100,248829,2,0,P|142:106|181:117,1,71.9999978027344,2|2,0:0|0:0,0:0:0:0:
264,205,249591,6,0,P|291:200|313:194,1,35.9999989013672,2|0,0:0|0:0,0:0:0:0:
344,145,249970,1,2,0:0:0:0:
344,145,250167,2,0,L|415:155,2,71.9999978027344,2|2|2,0:0|0:0|0:0,0:0:0:0:
265,29,251358,1,2,0:0:0:0:
151,98,251761,2,0,P|125:111|107:116,1,35.9999989013672,2|2,0:0|0:0,0:0:0:0:
63,160,252176,2,0,P|58:196|58:204,1,35.9999989013672,0|2,0:0|0:0,0:0:0:0:
84,262,252577,1,2,0:0:0:0:
199,338,252988,6,0,P|236:328|266:315,1,71.9999978027344,2|2,0:0|0:0,0:0:0:0:
369,194,253829,2,0,P|324:190|283:192,1,71.9999978027344,2|2,0:0|0:0,0:0:0:0:
109,62,254903,1,2,0:0:0:0:
151,119,255123,2,0,P|173:117|198:113,1,35.9999989013672,2|2,0:0|0:0,0:0:0:0:
421,27,256220,6,0,P|421:67|425:105,1,71.9999978027344,2|2,0:0|0:0,0:0:0:0:
256,192,257395,12,0,261104,0:0:0:0:
