osu file format v14

[General]
AudioFilename: audio.mp3
AudioLeadIn: 0
PreviewTime: 76159
Countdown: 0
SampleSet: Soft
StackLeniency: 0.7
Mode: 0
LetterboxInBreaks: 0
WidescreenStoryboard: 0

[Editor]
DistanceSpacing: 0.5
BeatDivisor: 4
GridSize: 16
TimelineZoom: 1.6

[Metadata]
Title:Myoujin Henka
TitleUnicode:明神変化
Artist:Liz Triangle
ArtistUnicode:Liz Triangle
Creator:Mirash
Version:Tanuki
Source:東方神霊廟 ~ Ten Desires.
Tags:kaztora eba reunion azuki lily-an 佐渡のニッ岩 Mamizou Futatsuiwa from Sado Extra Stage Boss Theme 東方Project touhou project c81 zun th13 doujin
BeatmapID:1183928
BeatmapSetID:559843

[Difficulty]
HPDrainRate:7
CircleSize:4
OverallDifficulty:8
ApproachRate:8
SliderMultiplier:1.4
SliderTickRate:1

[Events]
//Background and Video events
0,0,"wolf.jpg",0,0
//Break Periods
2,1691,5548
2,6778,11757
//Storyboard Layer 0 (Background)
//Storyboard Layer 1 (Fail)
//Storyboard Layer 2 (Pass)
//Storyboard Layer 3 (Foreground)
//Storyboard Sound Samples

[TimingPoints]
1385,612.244897959184,4,2,4,30,1,0
2609,645.161290322581,4,2,4,30,1,0
3576,769.230769230769,4,2,4,30,1,0
3960,635.593220338983,4,2,4,30,1,0
6502,552.995391705069,4,2,4,30,1,0
7054,600,4,2,4,30,1,0
7654,666.666666666667,4,2,4,30,1,0
8987,692.520775623269,4,2,4,30,1,0
11757,480,4,2,4,30,1,0
12717,444.444444444444,4,2,4,49,1,0
18050,-125,4,1,4,55,0,0
18494,-111.111111111111,4,1,4,63,0,0
18939,-100,4,1,4,69,0,0
34050,-100,4,3,4,49,0,0
46494,-100,4,3,4,55,0,0
46939,-100,4,3,4,63,0,0
47383,-66.6666666666667,4,1,4,69,0,0
48272,-83.3333333333333,4,1,1,69,0,0
60716,451.127819548872,4,1,1,69,1,0
61618,468.75,4,1,1,69,1,0
62555,-100,4,1,1,49,0,0
64430,451.127819548872,4,1,1,49,1,0
77061,-83.3333333333333,4,1,1,69,0,1
83151,-83.3333333333333,4,1,2,69,0,0
84279,-83.3333333333333,4,1,1,69,0,1
91046,-100,4,1,1,69,0,0
92851,451.127819548872,4,1,1,69,1,0
98264,-100,4,1,1,69,0,1
104354,-100,4,1,2,69,0,0
105482,-100,4,1,1,69,0,1
111572,-100,4,1,1,69,0,0
126234,468.75,4,1,1,69,1,0
126702,476.190476190476,4,1,1,69,1,0
128130,454.545454545455,4,1,1,69,1,0
128584,468.75,4,1,1,69,1,0
129052,461.538461538462,4,1,1,69,1,0
129513,451.127819548872,4,1,1,69,1,0
130866,451.127819548872,4,1,1,69,1,0
141693,-83.3333333333333,4,1,1,69,0,1
147783,-83.3333333333333,4,1,2,69,0,0
148911,-83.3333333333333,4,1,1,69,0,1
155678,-83.3333333333333,4,1,1,69,0,0
157482,451.127819548872,4,1,1,69,1,0
159286,-83.3333333333333,4,1,1,69,0,0
162895,-83.3333333333333,4,1,1,69,0,1
169211,-83.3333333333333,4,1,1,69,0,0
169888,-100,4,3,4,49,0,0
182745,-100,4,1,1,49,0,0
184776,-100,4,2,4,49,0,0
197181,-100,4,2,4,55,0,0
197632,-90.9090909090909,4,1,1,63,0,0
198083,-83.3333333333333,4,1,1,69,0,0
199437,-100,4,1,1,69,0,0
212069,458.015267175573,4,1,1,69,1,0
212527,476.190476190476,4,1,1,69,1,0
213003,526.315789473684,4,1,1,69,1,0
213529,468.75,4,2,4,49,1,0
219388,-100,4,2,4,39,0,0
220091,-100,4,2,4,49,0,0
220443,-100,4,2,4,39,0,0
221029,451.127819548872,4,1,1,69,1,0
222382,472.44094488189,4,1,1,69,1,0
222854,456.853951405968,4,1,1,69,1,0
224681,451.977401129944,4,1,1,69,1,0
229426,-125,4,1,1,69,0,0
230103,455.698509865873,4,1,1,69,1,0
233748,435.486329358311,4,1,1,69,1,0
235054,451.127819548872,4,1,1,69,1,1
235054,-83.3333333333333,4,1,1,69,0,1
241144,-83.3333333333333,4,1,2,69,0,0
242272,-83.3333333333333,4,1,1,69,0,1
248587,588.235294117647,4,1,1,69,1,0
248587,-100,4,1,1,69,0,0
249175,465.116279069767,4,1,1,69,1,0
249640,447.761194029851,4,1,1,69,1,0
250087,434.782608695652,4,1,1,69,1,0
250521,422.535211267606,4,1,1,69,1,0
250943,402.684563758389,4,1,1,69,1,0
251749,410.958904109589,4,1,1,69,1,0
277639,410.958904109589,4,1,1,69,1,0
279283,-133.333333333333,4,1,1,69,0,0
281748,-100,4,1,1,69,0,0
289145,-83.3333333333333,4,1,1,69,0,1
294693,-83.3333333333333,4,1,2,69,0,0
295721,403.58925376347,4,1,1,69,1,1
295721,-83.3333333333333,4,1,1,69,0,1
301169,-83.3333333333333,4,1,1,69,0,0
302178,402.010050251256,4,1,1,69,1,1
302178,-83.3333333333333,4,1,1,69,0,1
305394,398.671096345515,4,1,1,69,1,1
305394,-83.3333333333333,4,1,1,69,0,1
307586,-100,4,1,1,69,0,0
308583,396.039603960396,4,1,1,69,1,1
308583,-83.3333333333333,4,1,1,69,0,1
313929,-100,4,1,1,69,0,0
314919,705.882352941176,4,2,1,69,1,0
315095,-100,4,2,1,40,0,0
316330,705.882352941176,4,2,1,30,1,0
317035,923.076923076923,4,2,1,30,1,0
317496,1538.46153846154,4,2,1,20,1,0
318265,2068.96551724138,4,2,0,10,1,0
318265,-66.6666666666667,4,2,0,10,0,0
320333,-100,4,2,0,5,0,0

[Colours]
Combo1 : 54,95,71
Combo2 : 70,107,33
Combo3 : 126,44,37
Combo4 : 66,128,157

[HitObjects]
117,102,1231,6,0,P|133:106|148:109,2,17.5,0|0|2,0:0|0:0|0:0,0:0:0:0:
117,102,6343,6,0,P|133:106|144:112,2,17.5,2|0|0,0:0|0:0|0:0,0:0:0:0:
386,315,12717,5,8,0:0:0:0:
294,267,12939,1,2,0:0:0:0:
294,267,13050,1,0,0:0:0:0:
294,267,13161,1,2,0:0:0:0:
261,369,13383,1,0,0:0:0:0:
116,372,13605,5,2,0:0:0:0:
187,327,13828,1,0,0:0:0:0:
184,244,14050,1,2,0:0:0:0:
187,327,14272,1,0,0:0:0:0:
386,315,14494,5,8,0:0:0:0:
294,267,14716,1,2,0:0:0:0:
294,267,14828,1,0,0:0:0:0:
294,267,14939,1,2,0:0:0:0:
227,173,15161,1,0,0:0:0:0:
297,46,15383,5,2,0:0:0:0:
300,130,15605,1,2,0:0:0:0:
373,169,15828,2,4,P|393:174|416:174,2,35,0|4|4,1:0|0:3|0:3,0:3:0:0:
98,58,16272,5,8,0:0:0:0:
190,106,16494,1,2,0:0:0:0:
190,106,16605,1,0,0:0:0:0:
190,106,16716,1,2,0:0:0:0:
223,4,16939,1,0,0:0:0:0:
368,1,17161,5,2,0:0:0:0:
297,46,17383,1,0,0:0:0:0:
300,129,17605,1,0,1:0:0:0:
87,350,18050,6,0,P|86:323|86:295,1,56,0|0,1:0|2:0,0:0:0:0:
162,344,18494,2,0,P|161:312|161:281,1,62.9999980773926,0|0,1:0|0:0,0:0:0:0:
245,347,18939,2,0,P|244:310|245:270,1,70,0|0,1:0|0:0,0:0:0:0:
244,277,19272,1,2,0:0:0:0:
244,277,19383,2,0,P|281:276|321:277,1,70,2|2,1:0|1:0,0:0:0:0:
396,295,19716,5,0,1:0:0:0:
396,295,19828,2,0,P|395:256|389:199,1,70,6|0,1:0|0:0,0:0:0:0:
309,193,20161,1,0,0:0:0:0:
309,193,20272,2,0,P|327:158|350:106,1,70,0|0,1:0|0:0,0:0:0:0:
472,90,20716,2,0,P|433:91|376:97,1,70,2|0,1:0|2:0,0:0:0:0:
302,0,21161,2,0,P|322:33|356:79,1,70,2|2,1:0|0:1,0:0:0:0:
211,220,21605,6,0,P|172:221|115:227,1,70,2|0,1:0|0:0,0:0:0:0:
141,223,21939,1,2,0:0:0:0:
141,223,22050,2,0,P|142:262|148:319,1,70,0|2,1:0|0:0,0:1:0:0:
39,379,22494,1,2,1:0:0:0:
43,294,22716,1,0,0:0:0:0:
49,210,22939,1,4,0:2:0:0:
202,32,23383,5,2,0:0:0:0:
139,106,23605,1,0,0:0:0:0:
139,106,23716,1,2,0:0:0:0:
139,106,23828,1,2,1:0:0:0:
232,128,24050,1,2,0:0:0:0:
335,58,24272,2,0,P|323:103|318:143,1,70,2|0,1:0|2:0,0:0:0:0:
412,76,24716,2,0,P|400:121|395:161,1,70,2|2,1:0|0:0,0:0:0:0:
412,344,25161,5,2,1:0:0:0:
322,300,25383,1,0,0:0:0:0:
322,300,25494,1,0,0:0:0:0:
322,300,25605,1,0,1:0:0:0:
234,345,25828,1,0,0:0:0:0:
74,200,26050,1,0,1:0:0:0:
74,200,26161,1,0,1:0:0:0:
74,200,26272,1,4,1:2:0:0:
176,216,26494,1,0,0:0:0:0:
170,243,26605,1,0,0:0:0:0:
163,270,26716,1,4,0:3:0:0:
48,87,26939,6,0,P|77:70|128:40,1,70,4|0,0:0|0:0,0:0:0:0:
109,52,27272,1,2,0:0:0:0:
109,52,27383,2,0,P|125:81|155:132,1,70,2|0,0:0|0:0,0:0:0:0:
318,136,27828,2,0,P|284:135|225:136,1,70,2|0,0:0|2:0,0:0:0:0:
315,216,28272,2,0,P|281:214|222:216,1,70,2|2,0:0|0:0,0:0:0:0:
60,346,28716,6,0,P|94:345|129:346,1,70,2|0,0:0|0:0,0:0:0:0:
129,346,29050,1,2,0:0:0:0:
129,346,29161,2,0,P|128:311|129:276,1,70,0|2,0:0|0:0,0:0:0:0:
118,84,29605,1,2,0:0:0:0:
155,159,29828,1,0,0:0:0:0:
209,94,30050,1,4,0:2:0:0:
433,98,30494,5,0,0:0:0:0:
336,65,30716,1,0,0:0:0:0:
336,65,30828,1,2,0:0:0:0:
336,65,30939,1,2,0:0:0:0:
356,155,31161,1,2,0:0:0:0:
423,266,31383,2,0,P|389:260|355:252,1,70,2|0,0:0|2:0,0:0:0:0:
405,341,31828,2,0,P|371:335|337:327,1,70,2|2,0:0|0:0,0:0:0:0:
176,176,32272,5,2,0:0:0:0:
48,198,32494,1,0,0:2:0:0:
50,215,32605,1,2,0:2:0:0:
63,225,32716,1,0,0:2:0:0:
65,242,32828,1,2,0:2:0:0:
78,253,32939,2,0,P|130:262|183:275,1,105,4|0,0:2|2:0,0:0:0:0:
181,275,33383,1,0,0:0:0:0:
181,275,33494,1,0,0:0:0:0:
181,275,33605,1,0,0:0:0:0:
269,340,33828,1,0,0:0:0:0:
435,203,34050,6,0,P|395:196|355:187,1,70,4|0,0:1|0:0,0:1:0:0:
366,189,34383,1,0,0:0:0:0:
366,189,34494,2,0,P|327:203|289:214,1,70,4|0,0:0|0:0,0:1:0:0:
201,226,34939,2,0,P|208:186|217:146,2,70,0|0|4,0:0|0:0|0:0,0:1:0:0:
36,278,35828,5,0,0:0:0:0:
114,255,36050,1,0,0:0:0:0:
143,327,36272,1,4,0:0:0:0:
69,349,36494,1,0,0:0:0:0:
114,255,36716,1,0,3:0:0:0:
114,255,36828,1,0,3:0:0:0:
114,255,36939,1,0,3:0:0:0:
36,278,37161,1,2,3:0:0:0:
58,52,37605,6,0,P|113:61|169:75,1,105,0|0,0:0|0:0,0:1:0:0:
160,72,38050,2,0,P|153:111|143:150,1,70,4|0,0:0|0:0,0:1:0:0:
222,220,38494,1,0,0:0:0:0:
222,220,38605,1,0,0:0:0:0:
222,220,38716,1,0,0:0:0:0:
319,171,38939,1,2,0:0:0:0:
416,122,39161,5,0,0:0:0:0:
416,122,39272,1,0,0:0:0:0:
416,122,39383,2,0,P|423:156|429:190,1,70,0|0,0:2|0:0,0:0:0:0:
429,190,39716,1,0,0:0:0:0:
429,190,39828,1,4,0:0:0:0:
363,252,40050,1,0,0:0:0:0:
421,354,40272,1,2,0:0:0:0:
278,327,40494,1,2,0:0:0:0:
156,251,40716,1,8,0:0:0:0:
257,231,40939,1,0,0:0:0:0:
387,69,41161,6,0,P|352:74|318:82,1,70,0|0,0:2|0:0,0:0:0:0:
318,82,41494,1,0,0:0:0:0:
318,82,41605,2,0,P|323:116|331:150,1,70,4|0,0:0|0:0,0:0:0:0:
278,243,42050,1,0,0:0:0:0:
278,243,42161,1,0,0:0:0:0:
278,243,42272,1,0,0:0:0:0:
151,205,42494,6,2,P|132:132|109:60,2,140,2|0|8,0:0|0:0|0:0,0:2:0:0:
151,205,43605,1,0,0:0:0:0:
61,349,43828,1,0,0:0:0:0:
95,345,43939,1,0,0:0:0:0:
129,341,44050,1,0,0:0:0:0:
163,337,44161,1,0,0:0:0:0:
197,333,44272,1,2,0:0:0:0:
297,348,44494,1,0,0:0:0:0:
170,226,44716,5,0,0:0:0:0:
270,241,44939,1,0,0:0:0:0:
270,241,45050,1,0,0:0:0:0:
270,241,45161,1,8,0:0:0:0:
370,256,45383,1,0,0:0:0:0:
243,135,45605,5,0,0:0:0:0:
343,150,45828,1,0,0:0:0:0:
343,150,45939,1,0,0:0:0:0:
343,150,46050,1,2,0:0:0:0:
443,165,46272,1,0,0:0:0:0:
96,243,46494,6,0,P|87:191|82:138,1,105,4|0,0:1|2:0,0:0:0:0:
181,224,46939,2,0,P|185:171|194:118,1,105,4|0,0:1|2:0,0:0:0:0:
264,250,47383,6,0,P|293:171|327:96,1,157.500006008148,4|0,0:1|0:0,0:0:0:0:
323,104,47828,1,0,0:0:0:0:
194,20,48050,5,0,0:0:0:0:
160,26,48161,1,0,0:0:0:0:
139,39,48272,2,0,P|145:80|149:123,1,83.9999974365235,2|0,0:0|0:0,0:0:0:0:
149,122,48605,1,2,0:0:0:0:
149,122,48716,2,0,P|107:128|64:132,1,83.9999974365235,8|2,0:0|0:0,0:0:0:0:
58,222,49161,1,2,0:0:0:0:
88,305,49384,1,0,0:0:0:0:
2,291,49606,1,10,0:0:0:0:
146,237,49828,1,2,0:0:0:0:
285,358,50050,6,0,P|281:316|274:274,1,83.9999974365235,2|0,0:0|0:0,0:0:0:0:
275,275,50383,1,2,0:0:0:0:
275,275,50494,2,0,P|316:271|358:264,1,83.9999974365235,8|2,0:0|0:0,0:0:0:0:
455,203,50939,1,10,0:0:0:0:
455,203,51050,1,2,0:0:0:0:
455,203,51161,1,8,0:0:0:0:
337,87,51383,5,2,0:0:0:0:
260,164,51605,1,2,0:0:0:0:
151,98,51828,2,2,P|105:100|60:108,1,83.9999974365235,0|2,0:0|0:0,0:1:0:0:
68,107,52161,1,0,0:0:0:0:
68,107,52272,1,10,0:0:0:0:
0,246,52494,2,0,P|82:232|166:225,1,167.999994873047,2|2,0:0|0:0,0:0:0:0:
139,329,53161,2,0,P|97:335|55:339,1,83.9999974365235,10|2,0:0|0:0,0:0:0:0:
262,384,53605,6,0,P|255:342|251:300,2,83.9999974365235,2|2|8,0:0|0:0|0:0,0:0:0:0:
352,334,54272,1,2,0:0:0:0:
434,201,54494,1,8,0:0:0:0:
434,201,54605,1,2,0:0:0:0:
434,201,54716,2,2,P|440:242|444:284,1,83.9999974365235,8|10,0:0|0:0,0:1:0:0:
178,138,55161,1,0,0:0:0:0:
242,195,55383,6,0,P|283:188|325:184,1,83.9999974365235,2|0,0:0|0:0,0:0:0:0:
325,184,55716,1,2,0:0:0:0:
325,184,55828,2,0,P|318:142|314:100,1,83.9999974365235,8|2,0:0|0:0,0:0:0:0:
229,62,56272,1,2,0:0:0:0:
114,34,56494,1,0,0:0:0:0:
178,138,56716,1,10,0:0:0:0:
63,166,56939,1,2,0:0:0:0:
84,305,57161,6,0,P|166:291|250:284,1,167.999994873047,2|10,0:0|0:0,0:0:0:0:
344,319,57828,1,2,0:0:0:0:
421,255,58050,1,8,0:0:0:0:
421,255,58161,1,2,0:0:0:0:
421,255,58272,1,10,0:0:0:0:
412,55,58494,5,10,0:0:0:0:
379,132,58716,1,2,0:0:0:0:
335,22,58939,2,2,P|317:60|302:99,1,83.9999974365235,0|0,0:0|0:0,0:1:0:0:
302,99,59272,1,2,0:0:0:0:
302,99,59383,2,0,P|260:102|218:109,1,83.9999974365235,10|2,0:0|0:0,0:0:0:0:
151,164,59828,1,0,0:0:0:0:
52,143,60050,1,2,0:0:0:0:
31,242,60272,1,10,0:0:0:0:
130,263,60494,1,0,0:0:0:0:
197,322,60716,6,0,P|232:316|274:312,1,70,2|0,0:0|0:0,0:0:0:0:
364,319,61054,1,0,0:0:0:0:
382,329,61167,2,2,P|375:287|372:245,1,70,8|0,0:0|0:0,0:0:0:0:
379,162,61505,1,0,0:0:0:0:
389,144,61618,2,0,P|347:150|305:153,1,70,2|2,0:0|0:0,0:0:0:0:
222,147,61969,1,0,0:0:0:0:
204,137,62086,6,2,P|210:178|213:220,1,70,8|2,0:0|0:0,0:1:0:0:
213,206,62438,1,0,0:0:0:0:
213,206,62555,1,0,0:0:0:0:
136,243,62789,1,0,0:0:0:0:
37,147,63024,1,2,0:2:0:0:
121,162,63258,1,0,0:0:0:0:
52,228,63493,5,0,0:0:0:0:
52,228,63610,1,0,0:0:0:0:
52,228,63727,2,0,P|58:269|61:311,2,70,0|2|0,0:0|0:2|0:0,0:0:0:0:
21,65,64430,6,0,P|55:68|90:74,1,70,4|0,0:2|0:0,0:0:0:0:
148,133,64768,1,0,0:0:0:0:
148,133,64881,2,0,P|182:127|217:123,1,70,6|0,0:2|0:0,0:0:0:0:
424,84,65332,6,0,P|389:87|354:93,1,70,4|0,0:2|0:0,0:0:0:0:
354,92,65670,1,0,0:0:0:0:
354,92,65783,1,6,0:2:0:0:
297,152,66008,1,0,0:0:0:0:
74,252,66234,6,0,P|108:246|143:242,1,70,0|8,0:0|0:3,0:0:0:0:
217,270,66572,1,8,0:3:0:0:
217,270,66685,2,0,P|220:235|225:200,1,70,8|0,0:3|0:0,0:0:0:0:
459,305,67136,6,0,P|424:299|389:295,1,70,0|8,0:0|0:3,0:0:0:0:
316,323,67475,1,8,0:3:0:0:
316,323,67587,2,0,P|312:288|307:253,1,70,8|0,0:3|0:0,0:0:0:0:
178,126,68039,6,0,P|143:131|108:134,1,70,0|8,0:0|0:3,0:0:0:0:
108,134,68377,1,8,0:3:0:0:
108,134,68490,2,0,P|113:168|116:203,1,70,8|0,0:3|0:0,0:0:0:0:
32,288,68941,5,4,0:0:0:0:
256,368,69166,1,4,0:0:0:0:
480,288,69392,1,4,0:0:0:0:
323,41,69843,6,0,P|329:77|332:115,1,70,0|0,0:0|0:0,0:0:0:0:
245,54,70181,1,8,0:3:0:0:
245,54,70294,2,0,P|250:88|253:123,1,70,8|0,0:3|0:0,0:0:0:0:
167,67,70633,1,8,0:3:0:0:
167,67,70745,2,0,P|172:102|176:139,1,70,8|0,0:3|0:0,0:0:0:0:
89,80,71084,1,8,0:3:0:0:
89,80,71196,1,8,0:3:0:0:
89,80,71422,1,0,0:0:0:0:
23,256,71648,6,0,P|87:245|152:239,1,105,4|8,0:2|0:3,0:0:0:0:
127,241,72099,2,0,P|132:275|135:310,1,70,8|0,0:3|0:0,0:0:0:0:
216,357,72550,1,2,0:2:0:0:
291,302,72775,1,8,0:3:0:0:
291,302,72888,1,0,0:3:0:0:
291,302,73001,1,8,0:3:0:0:
210,255,73226,1,0,0:0:0:0:
116,51,73452,6,0,P|121:103|131:154,1,105,4|0,0:0|2:0,0:0:0:0:
262,131,73903,2,0,P|256:78|246:27,1,105,4|0,0:2|2:0,0:0:0:0:
148,168,74354,2,0,P|200:162|251:152,1,105,4|0,0:0|2:0,0:0:0:0:
228,22,74805,2,0,P|175:27|124:37,1,105,4|0,0:2|2:0,0:0:0:0:
14,181,75257,5,4,0:0:0:0:
130,160,75482,1,8,0:0:0:0:
130,160,75595,1,0,0:0:0:0:
130,160,75708,1,8,0:0:0:0:
67,310,75933,5,2,0:2:0:0:
67,310,76046,1,0,0:0:0:0:
67,310,76159,2,0,L|18:312,2,35,2|0|2,2:0|2:0|2:0,2:0:0:0:
184,356,76610,1,2,2:0:0:0:
293,328,76836,1,2,2:0:0:0:
439,123,77061,6,2,P|397:126|355:133,1,83.9999974365235,0|0,0:0|0:0,0:1:0:0:
356,133,77399,1,2,0:0:0:0:
356,133,77512,2,2,P|359:174|366:216,1,83.9999974365235,8|2,0:0|0:0,0:0:0:0:
353,312,77963,2,0,P|315:294|275:279,1,83.9999974365235,2|0,0:0|1:0,0:0:0:0:
199,219,78414,2,2,P|233:195|265:168,1,83.9999974365235,8|2,0:0|0:0,0:0:0:0:
113,65,78866,6,0,P|116:106|123:148,1,83.9999974365235,2|0,0:0|0:0,0:0:0:0:
123,148,79204,1,2,0:0:0:0:
124,149,79317,2,0,P|82:152|40:159,1,83.9999974365235,8|2,0:0|0:0,0:0:0:0:
0,261,79768,2,2,P|23:295|50:327,1,83.9999974365235,0|2,0:0|0:0,0:0:0:0:
158,312,80219,1,10,0:0:0:0:
347,334,80670,6,2,P|371:298|398:267,1,83.9999974365235,0|2,0:0|0:0,0:0:0:0:
399,268,81008,1,2,0:0:0:0:
399,268,81121,2,0,P|364:243|332:216,1,83.9999974365235,8|2,0:0|0:0,0:0:0:0:
246,277,81572,2,0,P|228:238|214:199,1,83.9999974365235,2|2,0:0|0:0,0:0:0:0:
109,212,82023,2,2,P|113:170|120:128,1,83.9999974365235,8|2,0:0|0:0,0:0:0:0:
321,41,82475,6,0,P|313:82|309:124,1,83.9999974365235
402,55,82926,2,0,P|394:96|390:138,1,83.9999974365235,8|0,0:0|0:0,0:0:0:0:
76,215,83377,1,8,0:0:0:0:
76,215,83490,1,0,0:0:0:0:
76,215,83602,1,8,0:0:0:0:
436,215,83828,1,8,0:0:0:0:
436,215,83941,1,0,0:0:0:0:
436,215,84054,1,8,0:0:0:0:
155,365,84279,6,0,P|161:323|165:281,1,83.9999974365235,6|2,0:0|0:0,0:0:0:0:
165,281,84617,1,0,0:0:0:0:
165,281,84730,2,2,P|206:287|248:291,1,83.9999974365235,8|2,0:0|0:0,0:0:0:0:
341,153,85181,2,0,P|334:194|330:236,1,83.9999974365235,2|0,0:0|1:0,0:0:0:0:
422,169,85633,2,2,P|415:210|411:252,1,83.9999974365235,8|2,0:0|0:0,0:0:0:0:
222,177,86084,6,0,P|180:170|138:166,1,83.9999974365235,2|0,0:0|0:0,0:0:0:0:
138,166,86422,1,2,0:0:0:0:
138,166,86535,2,0,P|144:124|148:82,1,83.9999974365235,8|2,0:0|0:0,0:0:0:0:
15,84,86986,2,0,P|18:125|25:167,1,83.9999974365235,2|2,0:0|0:0,0:0:0:0:
81,249,87437,1,10,0:0:0:0:
226,370,87888,6,0,P|236:307|241:244,1,125.999996154785
241,245,88339,2,0,P|283:251|326:255,1,83.9999974365235,8|0,0:0|0:0,0:0:0:0:
432,324,88790,2,0,P|425:281|421:238,1,83.9999974365235,0|0,0:0|0:0,0:0:0:0:
422,241,89129,1,0,0:0:0:0:
422,241,89242,2,0,P|415:198|411:155,1,83.9999974365235,8|0,0:0|0:0,0:0:0:0:
92,43,89693,5,0,0:0:0:0:
213,86,89918,1,2,0:0:0:0:
213,86,90031,1,0,0:0:0:0:
213,86,90144,1,10,0:0:0:0:
121,136,90369,1,2,0:0:0:0:
256,224,90595,1,2,0:0:0:0:
68,330,90820,1,2,0:0:0:0:
297,383,91046,1,8,0:0:0:0:
384,353,91272,5,0,0:0:0:0:
384,353,91385,1,0,0:0:0:0:
384,353,91498,1,4,0:2:0:0:
384,353,92851,5,4,0:2:0:0:
37,157,94655,6,2,P|72:158|107:161,1,70,0|0,0:0|0:0,0:1:0:0:
164,289,95106,2,0,P|165:254|168:220,1,70,2|2,0:1|0:1,0:0:0:0:
295,162,95557,1,0,0:0:0:0:
221,158,95782,1,2,0:1:0:0:
167,31,96008,1,0,0:0:0:0:
163,104,96233,1,2,0:1:0:0:
95,233,96459,6,0,P|91:287|91:341,2,105,2|2|2,0:0|0:0|0:0,0:0:0:0:
190,341,97361,1,0,0:0:0:0:
288,344,97587,1,2,0:0:0:0:
288,344,97700,1,0,0:0:0:0:
288,344,97812,1,2,0:0:0:0:
386,347,98038,1,2,0:0:0:0:
389,329,98151,1,0,0:0:0:0:
393,311,98264,5,6,0:1:0:0:
291,246,98489,1,0,0:0:0:0:
291,246,98602,1,0,0:0:0:0:
291,246,98715,1,8,0:0:0:0:
392,151,98940,1,2,0:0:0:0:
487,252,99166,1,2,0:0:0:0:
392,151,99391,1,0,0:0:0:0:
487,252,99617,1,10,0:0:0:0:
392,151,99842,1,2,0:0:0:0:
259,111,100068,5,2,0:0:0:0:
158,206,100294,1,0,0:0:0:0:
158,206,100406,1,0,0:0:0:0:
158,206,100519,1,8,0:0:0:0:
63,105,100745,1,2,0:0:0:0:
164,10,100970,1,2,0:0:0:0:
63,105,101196,1,2,0:0:0:0:
164,10,101421,2,2,P|198:9|233:11,1,70,8|2,0:0|2:1,0:0:0:0:
438,100,101873,6,0,P|438:134|436:169,1,70,6|0,0:0|0:0,0:0:0:0:
436,169,102211,1,2,0:0:0:0:
436,169,102324,1,8,0:0:0:0:
465,305,102549,1,2,0:0:0:0:
328,332,102775,1,2,0:0:0:0:
301,195,103000,1,0,0:0:0:0:
436,169,103226,1,10,0:0:0:0:
465,305,103451,1,2,0:0:0:0:
47,305,103677,5,6,0:2:0:0:
184,332,103903,1,2,0:0:0:0:
184,332,104015,1,0,0:0:0:0:
184,332,104128,1,10,0:0:0:0:
211,195,104354,1,0,0:0:0:0:
76,169,104579,1,8,0:0:0:0:
76,169,104692,1,0,0:0:0:0:
76,169,104805,1,8,0:0:0:0:
436,169,105030,1,8,0:0:0:0:
436,169,105143,1,0,0:0:0:0:
436,169,105256,1,8,0:0:0:0:
256,32,105482,5,4,0:0:0:0:
128,80,105708,1,0,0:0:0:0:
128,80,105820,1,2,0:0:0:0:
128,80,105933,1,8,0:0:0:0:
256,32,106158,1,2,0:1:0:0:
384,80,106384,1,2,0:1:0:0:
256,48,106609,1,0,0:2:0:0:
384,96,106835,1,10,0:1:0:0:
256,64,107061,1,2,0:1:0:0:
128,112,107286,5,2,0:1:0:0:
265,84,107512,1,0,0:0:0:0:
265,84,107624,1,2,0:0:0:0:
265,84,107737,1,8,0:0:0:0:
288,208,107963,1,2,0:0:0:0:
160,240,108188,1,2,0:0:0:0:
128,112,108414,1,2,0:0:0:0:
256,80,108640,2,2,P|290:79|325:81,1,70,8|2,0:0|2:1,0:0:0:0:
320,336,109091,5,6,0:1:0:0:
288,208,109316,1,0,0:0:0:0:
288,208,109429,1,2,0:0:0:0:
288,208,109542,1,8,0:0:0:0:
416,176,109767,1,2,0:1:0:0:
448,304,109993,1,2,0:1:0:0:
320,336,110218,1,0,0:1:0:0:
288,208,110444,1,10,0:1:0:0:
416,176,110670,1,2,0:1:0:0:
96,176,110895,5,2,0:1:0:0:
64,304,111121,1,0,0:0:0:0:
78,314,111233,1,2,0:2:0:0:
95,310,111346,1,8,0:0:0:0:
109,320,111459,1,2,0:2:0:0:
126,320,111572,2,0,P|178:324|230:324,1,105,4|0,0:2|2:0,0:0:0:0:
230,323,112023,1,0,0:0:0:0:
230,323,112136,1,0,0:0:0:0:
230,323,112248,1,12,0:0:0:0:
348,302,112474,1,0,0:0:0:0:
445,50,112700,6,0,P|443:93|443:135,1,70,4|0,0:2|0:0,0:0:0:0:
390,202,113038,1,0,0:0:0:0:
390,202,113151,2,0,P|347:200|305:200,1,70,8|8,0:3|0:3,0:0:0:0:
226,219,113602,1,0,0:0:0:0:
206,125,113827,2,0,P|197:82|184:53,2,70,0|8|0,0:0|0:3|0:0,0:0:0:0:
118,168,114504,6,0,P|116:218|118:253,1,70
89,318,114842,1,0,0:0:0:0:
89,318,114955,2,0,P|139:320|174:318,1,70,8|8,0:3|0:3,0:0:0:0:
282,350,115406,1,8,0:0:0:0:
323,343,115519,1,0,0:0:0:0:
364,337,115632,1,8,0:0:0:0:
496,227,115858,5,8,0:3:0:0:
403,240,116083,1,8,0:3:0:0:
311,256,116309,2,0,P|290:191|285:165,2,70
375,86,116985,2,0,P|312:93|225:93,1,140,8|0,0:3|0:0,0:0:0:0:
94,68,117662,1,8,0:3:0:0:
142,151,117888,1,8,0:3:0:0:
75,279,118113,6,0,P|130:263|224:256,1,140,0|8,0:0|0:3,0:0:0:0:
305,184,118790,1,8,0:3:0:0:
306,287,119015,1,8,0:0:0:0:
306,287,119128,1,0,0:0:0:0:
306,287,119241,2,0,P|288:323|277:353,1,70,8|8,0:0|0:3,0:0:0:0:
277,350,119692,1,8,0:3:0:0:
455,189,119918,6,0,P|406:186|354:189,1,70,0|0,0:0|0:0,0:0:0:0:
302,202,120256,1,0,0:0:0:0:
302,202,120369,2,0,P|305:153|302:101,1,70,8|8,0:3|0:3,0:0:0:0:
440,34,120820,2,0,P|382:39|287:42,1,140,0|8,0:0|0:3,0:0:0:0:
150,30,121497,5,8,0:1:0:0:
112,50,121609,1,8,0:3:0:0:
97,89,121722,1,8,0:1:0:0:
111,128,121835,1,0,0:0:0:0:
143,154,121948,1,8,0:1:0:0:
143,154,122061,1,8,0:3:0:0:
143,154,122173,2,0,P|164:190|167:244,2,70,8|0|8,0:3|0:0|0:1,0:0:0:0:
125,82,122737,1,8,0:3:0:0:
125,82,122850,1,8,0:1:0:0:
125,82,122963,1,0,0:0:0:0:
125,82,123076,2,0,P|170:84|204:88,1,70,8|0,0:1|0:0,0:0:0:0:
275,182,123527,6,0,P|335:199|420:200,1,140,8|8,0:3|0:3,0:0:0:0:
340,331,124203,2,0,P|410:331|478:313,1,140,8|8,0:3|0:3,0:0:0:0:
269,268,124880,2,0,P|261:310|248:350,1,70,8|8,0:3|0:3,0:0:0:0:
65,340,125331,5,8,0:3:0:0:
138,278,125557,1,0,0:0:0:0:
151,282,125670,1,0,0:0:0:0:
164,286,125782,1,12,0:3:0:0:
99,188,126008,1,0,0:0:0:0:
86,192,126121,1,0,0:0:0:0:
73,196,126233,1,12,0:3:0:0:
196,112,126468,1,0,0:0:0:0:
209,116,126585,1,0,0:0:0:0:
226,120,126702,6,0,P|276:122|343:114,1,105,8|0,0:3|0:0,0:0:0:0:
330,116,127178,2,0,P|342:149|350:183,1,70,4|0,0:3|0:0,0:0:0:0:
409,323,127654,1,2,0:2:0:0:
310,295,127892,1,8,0:3:0:0:
197,321,128130,2,0,P|214:281|223:250,1,70,8|0,0:3|0:0,0:0:0:0:
140,200,128584,2,0,P|146:156|146:124,1,70,8|0,0:3|0:0,0:0:0:0:
215,39,129052,6,0,P|221:83|229:121,1,70,4|0,0:2|0:0,0:0:0:0:
263,177,129398,1,0,0:0:0:0:
263,177,129513,2,0,P|306:170|348:166,1,70,8|0,0:0|0:0,0:0:0:0:
402,39,129964,6,0,P|405:83|415:164,1,105,4|0,0:2|0:0,0:0:0:0:
411,143,130415,2,0,P|460:141|496:141,1,70,8|0,0:0|0:0,0:0:0:0:
477,324,130866,6,0,P|439:319|387:318,1,70,0|0,0:0|0:0,0:0:0:0:
326,337,131204,1,0,0:0:0:0:
326,337,131317,2,0,P|331:299|332:247,1,70,8|0,0:0|0:0,0:0:0:0:
279,174,131768,6,0,P|317:179|369:180,1,70,0|0,0:0|0:0,0:0:0:0:
430,161,132106,1,0,0:0:0:0:
430,161,132219,2,0,P|425:199|424:251,1,70,8|0,0:0|0:0,0:0:0:0:
168,282,132670,6,0,P|133:277|98:274,1,70,0|0,0:0|0:0,0:0:0:0:
98,274,133008,1,0,0:0:0:0:
98,274,133121,2,0,P|103:240|106:205,1,70,8|0,0:0|0:0,0:0:0:0:
32,96,133572,5,4,0:0:0:0:
256,16,133798,1,4,0:0:0:0:
480,96,134023,1,12,0:0:0:0:
408,314,134475,6,0,P|414:278|417:240,1,70,0|0,0:0|0:0,0:0:0:0:
438,157,134813,1,0,0:0:0:0:
438,157,134926,2,0,P|404:152|369:149,1,70,8|0,0:0|0:0,0:0:0:0:
281,127,135264,1,0,0:0:0:0:
281,127,135377,2,0,P|276:161|273:196,1,70,0|0,0:0|0:0,0:0:0:0:
251,284,135715,1,0,0:0:0:0:
251,284,135828,1,8,0:0:0:0:
251,284,136053,1,0,0:0:0:0:
96,345,136279,6,0,P|105:291|110:223,1,105,0|0,0:0|0:0,0:0:0:0:
109,240,136730,2,0,P|47:240|31:240,1,70,8|0,0:0|0:0,0:0:0:0:
25,104,137181,1,0,0:0:0:0:
111,146,137407,1,8,0:0:0:0:
111,146,137520,1,0,0:0:0:0:
111,146,137632,1,8,0:0:0:0:
180,83,137858,1,0,0:0:0:0:
448,180,138084,6,0,P|420:142|358:119,1,105,4|0,0:0|2:0,0:0:0:0:
286,44,138535,2,0,P|275:94|288:178,1,105,4|0,0:2|2:0,0:0:0:0:
349,215,138986,2,0,B|309:249|231:237,1,105,4|0,0:0|2:0,0:0:0:0:
163,320,139437,2,0,L|285:326,1,105,4|0,0:2|2:0,0:0:0:0:
370,365,139888,5,4,0:0:0:0:
460,303,140114,1,8,0:0:0:0:
460,303,140226,1,0,0:0:0:0:
460,303,140339,1,8,0:0:0:0:
449,114,140565,5,2,0:2:0:0:
449,114,140678,1,0,0:0:0:0:
449,114,140790,2,0,L|400:116,2,35,2|0|2,2:0|2:0|2:0,2:0:0:0:
333,46,141241,1,2,2:0:0:0:
234,66,141467,1,2,2:0:0:0:
48,223,141693,6,0,P|106:213|152:212,1,83.9999974365235,6|0,0:0|0:0,0:0:0:0:
131,211,142031,1,2,0:0:0:0:
131,211,142144,2,0,P|141:269|142:315,1,83.9999974365235,8|2,0:0|0:0,0:0:0:0:
272,360,142595,2,0,P|268:318|260:276,1,83.9999974365235,2|0,0:0|1:0,0:0:0:0:
356,366,143046,2,2,P|352:324|344:282,1,83.9999974365235,8|2,0:0|0:0,0:0:0:0:
234,106,143497,6,0,P|292:114|341:116,1,83.9999974365235,2|0,0:0|0:0,0:0:0:0:
317,115,143835,1,2,0:0:0:0:
317,115,143948,2,0,P|309:173|307:222,1,83.9999974365235,8|2,0:0|0:0,0:0:0:0:
408,292,144399,1,0,0:0:0:0:
404,208,144625,1,2,0:0:0:0:
400,124,144850,2,0,P|342:116|293:114,1,83.9999974365235,10|0,0:0|2:0,0:0:0:0:
127,30,145302,6,2,P|134:82|135:136,1,83.9999974365235,0|0,0:0|0:0,0:0:0:0:
135,113,145640,1,2,0:0:0:0:
135,113,145753,2,2,P|93:115|51:121,1,83.9999974365235,8|2,0:0|0:0,0:0:0:0:
11,262,146204,2,0,P|52:255|94:253,1,83.9999974365235,2|0,0:0|0:0,0:0:0:0:
7,342,146655,2,2,P|48:335|90:333,1,83.9999974365235,8|2,0:0|0:0,0:0:0:0:
291,269,147106,6,0,L|389:284,1,83.9999974365235
221,115,147557,2,0,L|123:100,1,83.9999974365235,8|0,0:0|0:0,0:0:0:0:
436,215,148008,1,8,0:0:0:0:
436,215,148121,1,0,0:0:0:0:
436,215,148234,1,8,0:0:0:0:
76,215,148459,1,8,0:0:0:0:
76,215,148572,1,0,0:0:0:0:
76,215,148685,1,8,0:0:0:0:
208,75,148911,6,0,P|252:73|307:77,1,83.9999974365235,6|0,0:0|0:0,0:0:0:0:
291,75,149249,1,2,0:0:0:0:
291,75,149362,2,0,P|293:119|289:174,1,83.9999974365235,8|2,0:0|0:0,0:0:0:0:
418,257,149813,2,0,P|376:254|334:256,1,83.9999974365235,2|0,0:0|1:0,0:0:0:0:
407,336,150264,2,2,P|365:333|323:335,1,83.9999974365235,8|2,0:0|0:0,0:0:0:0:
145,360,150715,6,2,P|155:309|158:270,1,83.9999974365235,0|0,0:0|0:0,0:0:0:0:
157,277,151053,1,2,0:0:0:0:
157,277,151166,2,2,P|115:272|74:264,1,83.9999974365235,8|2,0:0|0:0,0:0:0:0:
8,161,151617,1,2,0:0:0:0:
89,178,151843,1,2,0:0:0:0:
169,194,152069,2,0,P|164:235|156:276,1,83.9999974365235,10|0,0:0|2:0,0:0:0:0:
365,68,152520,6,0,P|277:83|229:86,1,125.999996154785
241,86,152971,2,0,P|246:127|254:168,1,83.9999974365235,2|0,0:2|0:0,0:0:0:0:
24,172,153422,2,0,P|19:213|11:254,1,83.9999974365235,0|2,0:0|0:2,0:0:0:0:
102,184,153873,2,0,P|97:225|89:266,1,83.9999974365235,8|2,0:0|0:2,0:0:0:0:
144,348,154324,5,0,0:0:0:0:
228,302,154550,1,0,0:0:0:0:
228,302,154662,1,2,0:2:0:0:
228,302,154775,1,8,0:0:0:0:
316,346,155001,1,0,0:0:0:0:
480,256,155226,5,4,0:0:0:0:
256,176,155452,1,4,0:0:0:0:
32,256,155678,1,12,0:0:0:0:
94,186,155903,5,0,0:0:0:0:
94,186,156016,1,0,0:0:0:0:
94,186,156129,1,4,0:2:0:0:
94,186,157482,5,4,0:2:0:0:
94,186,159286,6,0,P|161:183|202:188,1,83.9999974365235,2|0,0:0|0:0,0:0:0:0:
258,161,159737,2,2,P|256:202|259:244,1,83.9999974365235,0|2,0:0|0:0,0:0:0:0:
284,325,160188,2,0,P|217:328|176:323,1,83.9999974365235,2|0,0:0|0:0,0:0:0:0:
120,350,160639,2,2,P|121:308|118:266,1,83.9999974365235,0|2,0:0|0:0,0:0:0:0:
154,109,161091,6,0,P|164:161|196:246,2,125.999996154785,4|4|4,0:2|0:2|0:2,0:0:0:0:
231,44,161993,1,8,0:0:0:0:
251,49,162106,1,0,0:0:0:0:
266,74,162219,1,8,0:0:0:0:
286,80,162332,1,0,0:0:0:0:
306,86,162444,1,8,0:0:0:0:
439,153,162670,5,2,0:2:0:0:
419,159,162783,1,0,0:0:0:0:
399,165,162896,1,4,0:0:0:0:
367,291,163121,1,0,0:0:0:0:
361,271,163234,1,0,0:0:0:0:
355,251,163347,1,8,0:0:0:0:
249,175,163572,1,0,0:0:0:0:
255,195,163685,1,0,0:0:0:0:
261,215,163798,1,2,0:2:0:0:
182,318,164023,1,0,0:0:0:0:
162,324,164136,1,0,0:0:0:0:
142,330,164249,1,8,0:0:0:0:
48,290,164474,5,0,0:0:0:0:
39,260,164587,1,0,0:0:0:0:
30,230,164700,1,2,0:2:0:0:
63,133,164926,1,0,0:0:0:0:
83,127,165038,1,0,0:0:0:0:
103,121,165151,1,8,0:0:0:0:
206,44,165377,1,0,0:0:0:0:
226,38,165490,1,2,0:0:0:0:
246,32,165602,2,0,P|288:37|329:47,2,83.9999974365235,0|2|10,0:1|0:0|0:0,0:0:0:0:
246,32,166279,1,0,0:0:0:0:
98,132,166505,6,0,P|104:178|104:226,1,83.9999974365235,4|0,0:2|0:0,0:0:0:0:
161,277,166843,1,0,0:0:0:0:
161,277,166956,2,0,P|207:271|255:271,1,83.9999974365235,8|0,0:0|0:0,0:0:0:0:
306,214,167294,1,0,0:0:0:0:
306,214,167407,2,0,P|300:168|300:120,1,83.9999974365235,2|0,0:2|0:0,0:0:0:0:
296,46,167745,1,0,0:0:0:0:
296,46,167858,2,0,P|342:52|390:52,1,83.9999974365235,8|0,0:0|0:0,0:0:0:0:
441,109,168196,1,0,0:0:0:0:
441,109,168309,2,0,P|435:155|435:203,1,83.9999974365235,2|0,0:2|0:0,0:0:0:0:
383,260,168647,1,0,0:0:0:0:
383,260,168760,2,0,P|389:306|389:354,1,83.9999974365235,8|0,0:0|0:0,0:0:0:0:
305,351,169099,1,2,0:0:0:0:
305,351,169211,2,0,P|261:349|211:349,2,83.9999974365235,0|2|10,0:1|0:1|0:0,0:0:0:0:
226,269,169888,6,0,P|219:243|212:229,1,35,0|0,0:0|0:0,0:0:0:0:
215,235,170114,2,0,P|257:209|301:170,1,105,0|8,0:0|0:0,0:0:0:0:
298,172,170565,2,0,L|248:116,1,70,8|0,0:0|0:0,0:0:0:0:
80,69,171016,5,2,0:0:0:0:
152,151,171241,1,8,0:0:0:0:
152,151,171354,1,8,0:0:0:0:
152,151,171467,2,0,L|155:195,2,35,8|2|8,0:0|0:0|0:0,0:0:0:0:
208,41,171918,2,0,P|260:57|325:59,1,105,8|8,0:0|0:0,0:0:0:0:
310,60,172369,2,0,L|309:130,1,70,8|8,0:0|0:0,0:0:0:0:
448,223,172820,2,0,P|410:221|330:228,1,105,2|0,0:0|0:0,0:0:0:0:
343,225,173271,1,8,0:0:0:0:
343,225,173384,1,8,0:0:0:0:
343,225,173497,1,2,0:0:0:0:
199,351,173723,6,0,P|201:298|197:262,1,70,8|0,0:0|0:0,0:0:0:0:
199,281,174061,1,8,0:0:0:0:
199,281,174174,2,0,P|146:279|110:283,1,70,8|8,0:0|0:0,0:0:0:0:
32,149,174625,1,2,0:0:0:0:
125,186,174850,1,8,0:0:0:0:
125,186,174963,1,8,0:0:0:0:
125,186,175076,2,0,L|166:184,2,35,8|2|8,0:0|0:0|0:0,0:0:0:0:
270,127,175527,6,0,P|277:185|289:243,1,105,8|8,0:0|0:0,0:0:0:0:
286,230,175978,2,0,L|371:226,1,70,8|8,0:0|0:0,0:0:0:0:
462,325,176429,2,0,P|407:327|327:336,1,105,2|0,0:0|0:0,0:0:0:0:
357,331,176880,1,8,0:0:0:0:
357,331,176993,1,8,0:0:0:0:
357,331,177106,1,2,0:0:0:0:
140,352,177332,6,0,P|182:306|211:265,1,105,4|8,1:0|0:0,0:0:0:0:
206,271,177783,2,0,L|146:222,1,70,8|8,0:0|0:0,0:0:0:0:
39,140,178234,1,2,0:0:0:0:
135,112,178459,1,8,0:0:0:0:
135,112,178572,1,8,0:0:0:0:
135,112,178685,2,0,L|174:117,2,35,8|2|8,0:0|0:0|0:0,0:0:0:0:
337,30,179136,6,0,P|332:93|331:140,1,105,4|8,1:0|0:0,0:0:0:0:
332,135,179587,2,0,L|408:139,1,70,8|8,0:0|0:0,0:0:0:0:
486,243,180038,2,0,P|429:241|363:242,1,105,2|0,0:0|0:0,0:0:0:0:
381,241,180490,1,8,0:0:0:0:
381,241,180602,1,8,0:0:0:0:
381,241,180715,1,2,0:0:0:0:
126,355,180941,6,0,P|121:292|120:245,1,105,4|8,1:0|0:0,0:0:0:0:
120,250,181392,2,0,L|200:249,1,70,8|8,0:0|0:0,0:0:0:0:
301,351,181843,1,2,0:0:0:0:
359,268,182068,1,8,0:0:0:0:
358,250,182181,1,8,0:0:0:0:
357,232,182294,1,8,0:0:0:0:
356,214,182407,1,2,0:0:0:0:
355,195,182520,2,8,L|348:169,2,23.3333333333333
355,195,182745,6,0,P|302:205|245:223,1,105,4|8,1:0|0:0,0:0:0:0:
176,265,183196,2,0,P|169:230|157:192,1,70,12|0,0:0|0:0,0:0:0:0:
166,181,183535,1,0,0:0:0:0:
172,164,183647,1,0,0:0:0:0:
179,147,183760,1,0,0:0:0:0:
186,131,183873,1,0,0:0:0:0:
287,37,184099,2,0,P|287:79|294:120,1,70,8|0,0:0|0:0,0:0:0:0:
290,106,184437,1,0,0:0:0:0:
290,106,184550,1,4,0:0:0:0:
328,333,184775,6,0,P|365:331|391:334,2,35
389,250,185226,2,0,P|352:252|326:249,2,35,0|0|2,0:0|0:0|0:0,0:0:0:0:
263,261,185677,2,0,P|226:259|200:262,2,35
202,178,186129,2,0,P|253:180|289:176,2,70,0|2|0,0:0|0:0|0:0,0:0:0:0:
75,164,186805,5,2,0:0:0:0:
79,181,186918,1,2,0:0:0:0:
83,197,187031,1,0,0:0:0:0:
87,214,187144,1,2,0:0:0:0:
91,231,187256,1,2,0:0:0:0:
160,324,187482,1,0,0:0:0:0:
164,307,187595,1,0,0:0:0:0:
168,290,187708,1,2,0:0:0:0:
249,218,187933,1,0,0:0:0:0:
305,337,188159,5,2,0:0:0:0:
414,292,188384,1,0,0:0:0:0:
414,292,188497,2,0,L|445:301,2,17.5
403,173,188835,1,0,0:0:0:0:
419,167,188948,1,0,0:0:0:0:
441,158,189061,5,2,0:0:0:0:
428,145,189174,1,2,0:0:0:0:
413,136,189286,1,0,0:0:0:0:
397,129,189399,1,2,0:0:0:0:
380,126,189512,1,2,0:0:0:0:
363,125,189624,1,0,0:0:0:0:
346,129,189737,1,2,0:0:0:0:
329,135,189850,1,2,0:0:0:0:
316,146,189963,5,6,0:0:0:0:
235,173,190189,1,0,0:0:0:0:
114,226,190414,5,0,0:0:0:0:
195,253,190640,1,0,0:0:0:0:
236,132,190865,5,2,0:0:0:0:
155,159,191091,1,0,0:0:0:0:
33,199,191317,1,2,0:0:0:0:
204,359,191768,5,2,0:0:0:0:
221,356,191880,1,2,0:0:0:0:
238,353,191993,1,0,0:0:0:0:
255,350,192106,1,2,0:0:0:0:
272,347,192219,1,2,0:0:0:0:
376,281,192444,1,2,0:0:0:0:
359,278,192557,1,0,0:0:0:0:
342,275,192670,1,2,0:0:0:0:
325,272,192783,1,2,0:0:0:0:
308,269,192896,1,2,0:0:0:0:
201,214,193121,1,0,0:0:0:0:
282,187,193347,1,0,0:0:0:0:
383,100,193572,5,2,0:0:0:0:
380,117,193685,1,2,0:0:0:0:
377,134,193798,1,0,0:0:0:0:
374,151,193911,1,2,0:0:0:0:
371,168,194023,1,2,0:0:0:0:
461,272,194249,1,0,0:0:0:0:
458,255,194362,1,2,0:0:0:0:
455,238,194474,1,2,0:0:0:0:
452,221,194587,1,2,0:0:0:0:
449,204,194700,1,0,0:0:0:0:
448,37,194926,1,2,0:0:0:0:
475,118,195151,1,0,0:0:0:0:
277,99,195377,6,0,P|283:137|282:188,1,70,10|0,0:0|0:0,0:0:0:0:
283,168,195715,1,8,0:0:0:0:
283,168,195828,1,8,0:0:0:0:
277,283,196053,1,0,0:0:0:0:
259,278,196166,1,0,0:0:0:0:
242,273,196279,1,10,0:0:0:0:
147,302,196505,1,0,0:0:0:0:
129,297,196617,1,0,0:0:0:0:
112,292,196730,1,2,0:3:0:0:
14,323,196956,1,0,0:0:0:0:
96,138,197181,6,0,P|148:125|215:163,1,105,4|0,1:0|0:0,0:0:0:0:
172,214,197632,6,0,P|218:187|293:207,1,115.50000352478,4|0,0:0|2:0,0:0:0:0:
259,268,198083,6,0,P|296:230|385:236,1,125.999996154785,4|0,0:0|2:0,0:0:0:0:
447,187,198535,2,0,L|441:276,1,83.9999974365235,4|0,0:0|0:0,0:0:0:0:
441,270,198873,1,0,0:0:0:0:
441,270,198986,1,4,0:0:0:0:
191,307,199211,6,0,P|166:301|141:303,1,41.9999987182618
149,301,199437,2,0,P|143:249|131:221,1,70,8|0,0:0|0:0,0:0:0:0:
67,198,199775,1,8,0:0:0:0:
67,198,199888,2,0,P|73:145|85:117,1,70
145,76,200226,1,8,0:0:0:0:
145,76,200339,2,0,P|168:101|197:121,1,70,8|0,0:0|0:0,0:0:0:0:
315,113,200790,6,0,P|304:146|302:181,1,70
302,181,201129,1,8,0:0:0:0:
302,181,201241,2,0,L|389:197,1,70,8|0,0:0|0:0,0:0:0:0:
250,249,201693,2,0,L|336:264,1,70
195,317,202144,2,0,L|281:332,2,70,8|0|0,0:0|0:0|0:0,0:0:0:0:
80,357,202820,6,0,L|92:288,1,70,0|8,0:0|0:0,0:0:0:0:
48,193,203271,1,0,0:0:0:0:
46,203,203384,1,8,0:0:0:0:
44,213,203497,1,8,0:0:0:0:
165,228,203723,2,0,P|164:193|173:159,2,70,0|8|0,0:0|0:0|0:0,0:0:0:0:
224,338,204399,6,0,P|270:341|308:346,1,70,4|0,0:2|0:0,0:0:0:0:
368,360,204738,1,8,0:0:0:0:
368,360,204850,2,0,P|371:314|376:276,1,70,8|4,0:0|0:2,0:0:0:0:
284,226,205189,1,8,0:0:0:0:
284,226,205302,2,0,P|281:180|276:142,1,70
393,94,205640,1,8,0:0:0:0:
393,94,205753,2,0,P|396:48|401:10,1,70,4|0,0:2|0:0,0:0:0:0:
398,24,206091,1,8,0:0:0:0:
398,24,206204,1,4,0:2:0:0:
250,56,206429,6,0,P|192:59|167:63,1,70,0|8,0:0|0:0,0:0:0:0:
169,62,206768,1,8,0:0:0:0:
158,64,206880,1,0,0:0:0:0:
147,66,206993,1,8,0:0:0:0:
136,68,207106,1,0,0:0:0:0:
48,156,207332,1,0,0:0:0:0:
59,158,207444,1,8,0:0:0:0:
70,160,207557,1,8,0:0:0:0:
161,210,207783,5,0,0:0:0:0:
172,212,207896,1,8,0:0:0:0:
182,214,208008,2,0,P|231:216|272:218,1,70
251,216,208347,1,8,0:0:0:0:
251,216,208459,1,8,0:0:0:0:
251,216,208572,1,8,0:0:0:0:
251,216,208685,1,0,0:0:0:0:
251,216,208798,1,8,0:0:0:0:
251,216,208911,1,0,0:0:0:0:
383,212,209136,1,0,0:0:0:0:
448,350,209362,2,0,P|411:348|368:348,1,70,8|0,0:0|0:0,0:0:0:0:
197,348,209812,6,0,L|225:321,5,23.3333333333333,0|0|0|2|2|2,0:0|2:0|0:0|2:2|0:2|2:2,0:0:0:0:
140,293,210264,6,0,L|168:266,5,23.3333333333333,12|0|0|2|0|0,0:0|1:0|0:0|1:2|0:0|1:0,0:0:0:0:
83,238,210715,6,0,L|111:211,5,23.3333333333333,0|0|0|2|2|2,0:0|2:0|0:0|2:2|0:2|2:2,0:0:0:0:
26,183,211166,6,0,L|54:156,5,23.3333333333333,12|0|0|2|0|0,0:0|1:0|0:0|1:2|0:0|1:0,0:0:0:0:
42,166,211617,6,0,P|93:169|133:161,1,70,12|2,0:0|0:2,0:0:0:0:
164,101,212069,2,0,P|211:116|252:118,1,70,4|2,0:2|0:2,0:0:0:0:
306,88,212527,2,0,P|348:115|387:128,1,70,4|2,0:0|0:2,0:0:0:0:
446,105,213003,2,0,P|479:142|513:164,1,70,4|2,0:2|0:2,0:0:0:0:
343,312,213529,5,4,0:0:0:0:
315,308,214466,1,2,0:0:0:0:
287,304,215404,2,0,P|268:232|259:147,2,140,2|0|2,0:0|0:0|0:0,0:0:0:0:
287,304,217279,5,6,0:0:0:0:
315,308,218216,1,2,0:0:0:0:
343,312,219154,5,2,0:0:0:0:
315,308,219388,1,8,1:0:0:0:
287,304,219622,1,8,1:0:0:0:
259,300,219857,1,8,1:0:0:0:
231,296,220091,1,12,1:2:0:0:
103,211,220443,5,0,1:0:0:0:
103,211,220560,1,8,1:0:0:0:
165,256,220794,1,8,1:0:0:0:
63,80,221029,6,0,P|99:82|146:87,1,70,4|2,2:0|0:2,0:0:0:0:
376,130,221480,2,0,P|339:132|295:138,1,70,4|2,0:2|0:2,0:0:0:0:
165,256,221931,1,6,0:2:0:0:
257,137,222854,6,0,P|259:173|265:218,1,70,4|0,0:2|0:0,0:0:0:0:
263,206,223196,1,2,0:2:0:0:
263,206,223310,2,0,P|299:203|344:198,1,70,6|0,0:2|0:0,0:0:0:0:
482,252,223767,1,6,0:2:0:0:
423,349,224681,6,0,L|340:353,1,70,4|0,0:2|0:0,0:0:0:0:
353,352,225019,1,8,0:0:0:0:
353,352,225132,2,0,L|349:269,1,70,8|8,0:0|0:0,0:0:0:0:
183,129,225584,5,0,0:0:0:0:
100,143,225810,1,0,0:0:0:0:
17,157,226035,1,8,0:0:0:0:
183,129,226261,1,8,0:0:0:0:
423,35,226488,6,0,L|340:31,1,70,4|0,0:2|0:0,0:0:0:0:
353,31,226827,1,8,0:0:0:0:
353,32,226940,2,0,L|349:115,1,70,8|8,0:0|0:0,0:0:0:0:
253,228,227392,5,8,0:0:0:0:
253,228,227505,1,8,0:0:0:0:
253,228,227618,1,8,0:0:0:0:
175,241,227844,1,0,0:0:0:0:
323,263,228070,5,8,0:0:0:0:
323,263,228296,2,0,P|379:266|476:305,2,140,4|0|4,0:2|0:0|0:0,0:0:0:0:
254,321,229426,2,0,P|256:347|265:379,2,56
256,192,230558,12,4,233748,0:0:0:0:
254,74,234727,5,0,0:0:0:0:
254,74,234836,1,4,0:2:0:0:
254,310,235054,6,0,P|223:278|192:254,1,83.9999974365235,6|0,0:0|0:0,0:0:0:0:
191,253,235392,1,2,0:0:0:0:
191,253,235505,2,2,L|142:326,1,83.9999974365235,8|2,0:0|0:0,0:0:0:0:
64,144,235956,2,2,L|105:223,1,83.9999974365235,0|0,0:0|1:0,0:1:0:0:
124,80,236407,2,2,L|165:159,1,83.9999974365235,8|2,0:0|0:1,0:1:0:0:
258,310,236858,6,0,P|289:278|320:254,1,83.9999974365235,2|0,0:0|0:0,0:0:0:0:
320,253,237196,1,2,0:0:0:0:
320,253,237309,2,0,L|370:326,1,83.9999974365235,8|2,0:0|0:0,0:0:0:0:
448,144,237760,2,0,P|427:180|407:223,2,83.9999974365235,2|2|8,0:0|0:1|0:0,0:0:0:0:
448,144,238437,1,2,0:0:0:0:
197,67,238663,6,0,P|249:70|290:77,1,83.9999974365235,10|0,0:0|0:0,0:0:0:0:
280,75,239001,1,2,0:0:0:0:
280,75,239114,2,0,P|277:127|270:168,1,83.9999974365235,0|2,0:0|0:0,0:0:0:0:
120,291,239565,2,0,P|131:240|145:201,1,83.9999974365235,8|2,0:0|0:0,0:0:0:0:
192,324,240016,2,2,P|203:273|217:234,1,83.9999974365235,0|2,0:0|0:1,0:1:0:0:
453,187,240467,6,0,L|354:172,1,83.9999974365235,8|0,0:0|0:0,0:0:0:0:
59,197,240918,2,0,L|158:212,1,83.9999974365235
436,301,241369,1,8,0:0:0:0:
436,301,241482,1,0,0:0:0:0:
436,301,241595,1,8,0:0:0:0:
76,301,241820,1,8,0:0:0:0:
76,301,241933,1,0,0:0:0:0:
76,301,242046,1,8,0:0:0:0:
166,80,242272,6,0,P|182:128|191:169,1,83.9999974365235,14|2,0:0|0:0,0:0:0:0:
189,160,242610,1,0,0:0:0:0:
189,160,242723,2,0,P|240:156|281:158,1,83.9999974365235,0|2,0:0|0:0,0:0:0:0:
371,305,243174,2,2,P|359:254|345:215,1,83.9999974365235,10|0,0:0|1:0,0:1:0:0:
299,338,243625,2,2,P|287:287|273:248,1,83.9999974365235,8|2,0:0|0:1,0:1:0:0:
427,33,244076,6,0,P|432:97|441:131,1,83.9999974365235,10|0,0:0|0:0,0:0:0:0:
436,116,244414,1,2,0:0:0:0:
436,116,244527,2,0,P|372:121|338:130,1,83.9999974365235,10|2,0:0|0:0,0:0:0:0:
230,215,244978,2,0,P|166:203|131:203,2,83.9999974365235,2|2|8,0:0|0:1|0:0,0:0:0:0:
422,313,245655,5,0,0:0:0:0:
422,313,245768,1,0,0:0:0:0:
422,313,245881,2,0,P|372:313|243:343,1,167.999994873047,12|0,0:0|0:0,0:0:0:0:
42,205,246557,1,0,0:0:0:0:
42,205,246670,1,0,0:0:0:0:
42,205,246783,2,0,P|66:205|131:220,1,83.9999974365235,12|0,0:0|0:0,0:0:0:0:
124,217,247121,1,0,0:0:0:0:
124,217,247234,1,0,0:0:0:0:
278,167,247460,1,0,0:0:0:0:
102,44,247685,6,0,P|95:68|93:134,1,83.9999974365235,12|2,0:0|0:2,0:0:0:0:
188,108,248136,2,0,P|188:133|203:197,1,83.9999974365235,4|2,0:0|0:2,0:0:0:0:
309,255,248587,1,12,0:0:0:0:
424,333,249176,6,0,P|414:279|361:219,1,105,4|0,0:2|2:0,0:0:0:0:
283,294,249641,6,0,P|260:244|193:200,1,105,4|0,0:2|2:0,0:0:0:0:
132,288,250088,6,0,P|96:246|20:221,1,105,4|0,0:0|2:0,0:0:0:0:
97,156,250522,2,0,P|132:144|170:149,1,70,0|2,0:2|2:2,0:0:0:0:
328,30,250943,5,0,0:0:0:0:
241,77,251144,1,10,0:0:0:0:
241,77,251245,1,0,0:0:0:0:
241,77,251345,2,0,P|253:124|269:162,1,70,10|0,0:0|0:0,0:0:0:0:
317,257,251749,2,2,P|332:212|346:179,1,70,0|8,0:0|0:0,0:0:0:0:
413,145,252057,1,2,0:0:0:0:
413,145,252159,2,0,P|458:160|491:174,1,70,8|10,0:0|0:0,0:0:0:0:
490,254,252468,1,0,0:0:0:0:
490,254,252570,1,10,0:0:0:0:
362,354,252776,1,10,0:0:0:0:
362,354,252879,1,0,0:0:0:0:
362,354,252981,2,2,P|317:347|279:344,1,70,8|2,0:0|0:0,0:0:0:0:
84,358,253392,6,0,P|99:290|102:220,1,140,2|8,0:0|0:0,0:0:0:0:
102,220,254009,1,2,0:0:0:0:
79,63,254214,1,8,0:0:0:0:
79,63,254317,1,2,0:0:0:0:
79,63,254420,1,8,0:0:0:0:
79,63,254522,1,0,0:0:0:0:
79,63,254625,1,10,0:0:0:0:
215,81,254831,1,2,0:0:0:0:
351,99,255036,5,10,0:0:0:0:
351,99,255139,1,0,0:0:0:0:
351,99,255242,2,0,P|348:169|333:238,1,140,10|0,0:0|0:0,0:0:0:0:
196,219,255858,1,12,0:0:0:0:
196,219,255961,1,0,0:0:0:0:
196,219,256063,1,8,0:0:0:0:
60,201,256269,1,8,0:0:0:0:
60,201,256372,1,0,0:0:0:0:
60,201,256474,1,8,0:0:0:0:
332,237,256680,6,0,P|389:260|458:309,1,140,6|10,0:0|0:0,0:0:0:0:
453,304,257296,1,2,0:0:0:0:
326,359,257502,1,2,0:0:0:0:
184,351,257707,1,10,0:0:0:0:
184,351,257810,1,0,0:0:0:0:
184,351,257913,2,0,P|195:312|207:278,1,70,10|2,0:0|0:0,0:0:0:0:
222,174,258324,2,0,P|183:183|147:189,1,70,2|2,0:0|0:0,0:0:0:0:
50,230,258735,1,8,0:0:0:0:
50,230,258837,1,0,0:0:0:0:
50,230,258940,1,10,0:0:0:0:
50,230,259043,1,0,0:0:0:0:
50,230,259146,1,10,0:0:0:0:
102,111,259351,5,8,0:0:0:0:
102,111,259454,1,0,0:0:0:0:
102,111,259557,1,10,0:0:0:0:
224,88,259762,1,2,0:0:0:0:
346,65,259968,2,0,P|396:54|433:51,1,70,6|2,0:0|0:0,0:0:0:0:
490,226,260379,5,0,0:0:0:0:
368,249,260584,1,2,0:0:0:0:
246,272,260790,2,0,P|196:283|159:286,2,70,6|2|0,0:0|0:0|0:0,0:0:0:0:
246,272,261406,5,2,0:0:0:0:
282,109,261611,2,0,P|254:130|229:154,1,70,2|2,0:0|0:0,0:0:0:0:
132,85,262022,2,2,P|118:117|108:150,1,70,0|6,0:0|0:1,0:0:0:0:
32,288,262433,5,4,0:0:0:0:
256,368,262639,1,4,0:2:0:0:
480,288,262844,1,4,0:0:0:0:
387,45,263255,6,0,P|358:97|340:189,1,140,6|10,0:1|0:0,0:0:0:0:
340,174,263872,1,2,0:0:0:0:
160,259,264077,2,2,P|199:251|249:252,1,70,0|10,0:0|0:0,0:0:0:0:
262,179,264385,1,0,0:0:0:0:
262,179,264488,2,0,P|254:140|255:90,1,70,10|2,0:0|0:0,0:0:0:0:
49,62,264899,5,0,0:0:0:0:
77,149,265105,1,8,0:0:0:0:
77,149,265207,1,2,0:2:0:0:
77,149,265310,1,8,0:0:0:0:
161,120,265516,1,2,0:2:0:0:
161,120,265618,1,8,0:0:0:0:
161,120,265721,1,2,0:2:0:0:
130,35,265927,1,8,0:0:0:0:
130,35,266029,1,2,0:2:0:0:
130,35,266132,1,8,0:0:0:0:
49,62,266337,1,0,0:0:0:0:
81,320,266543,6,2,P|165:309|244:313,1,140,4|8,0:2|0:0,0:0:0:0:
220,310,267159,1,2,0:0:0:0:
339,256,267365,1,8,0:0:0:0:
339,256,267468,1,2,0:0:0:0:
339,256,267570,1,8,0:0:0:0:
339,256,267673,1,0,0:0:0:0:
339,256,267776,2,0,P|330:224|323:164,1,70,10|2,0:0|0:0,0:0:0:0:
284,55,268187,6,0,P|249:90|192:131,2,105,6|2|2,0:2|0:0|0:0,0:0:0:0:
415,100,269009,1,8,0:0:0:0:
415,100,269111,1,2,0:0:0:0:
415,100,269214,1,8,0:0:0:0:
415,100,269317,1,0,0:0:0:0:
415,100,269420,1,10,0:0:0:0:
452,284,269625,5,8,0:0:0:0:
456,300,269728,1,2,0:0:0:0:
460,316,269831,2,2,P|408:322|381:328,1,70,4|2,0:0|0:0,0:0:0:0:
227,351,270242,2,0,P|273:326|296:312,1,70,8|2,0:0|0:0,0:0:0:0:
419,227,270653,2,2,P|367:233|340:239,1,70,0|10,0:0|0:0,0:0:0:0:
254,219,270961,1,0,0:0:0:0:
254,219,271063,2,2,P|274:170|283:144,1,70,8|2,0:0|0:0,0:0:0:0:
240,51,271474,2,0,P|213:73|184:93,1,70,0|2,0:0|0:0,0:0:0:0:
67,90,271885,2,0,P|82:121|94:154,1,70,10|8,0:0|0:0,0:0:0:0:
94,154,272194,1,2,0:0:0:0:
94,154,272296,2,0,P|62:169|29:181,1,70,8|10,0:0|0:0,0:0:0:0:
34,261,272605,1,0,0:0:0:0:
34,261,272707,2,2,P|68:254|102:245,1,70,8|2,0:0|0:0,0:0:0:0:
248,51,273118,6,0,P|242:106|239:204,2,140,4|8|4,0:2|0:0|0:2,0:0:0:0:
332,102,274146,1,0,0:0:0:0:
332,102,274248,1,0,0:0:0:0:
332,102,274351,2,0,P|329:129|327:178,1,70,8|0,0:0|0:0,0:0:0:0:
416,153,274762,5,4,0:2:0:0:
401,251,274968,1,8,0:0:0:0:
401,251,275070,1,0,0:1:0:0:
401,251,275173,1,8,0:0:0:0:
401,251,275276,1,0,0:1:0:0:
401,251,275379,2,0,L|357:248,1,35,4|0,0:2|0:0,0:0:0:0:
307,334,275584,1,8,0:0:0:0:
324,335,275687,1,0,0:1:0:0:
341,336,275790,1,8,0:0:0:0:
358,337,275892,1,0,0:1:0:0:
375,338,275995,1,4,0:2:0:0:
245,247,276200,5,8,0:0:0:0:
228,248,276303,1,0,0:0:0:0:
211,249,276406,1,12,0:0:0:0:
228,248,277536,6,0,L|241:220,1,17.5
211,249,277639,1,4,0:0:0:0:
211,249,278872,5,4,0:0:0:0:
211,249,279283,2,0,P|222:199|240:138,1,105.000004005432,4|0,0:0|0:0,0:0:0:0:
96,48,280105,2,0,P|111:96|126:158,1,105.000004005432,0|4,0:0|0:2,0:0:0:0:
124,149,280721,1,0,2:0:0:0:
199,51,280927,2,0,P|250:53|313:60,1,105.000004005432,8|4,0:0|0:2,0:0:0:0:
424,226,281748,5,0,0:0:0:0:
471,300,281954,1,0,0:0:0:0:
384,305,282159,1,0,0:0:0:0:
297,310,282365,5,8,0:0:0:0:
297,310,282468,1,2,0:0:0:0:
297,310,282570,2,0,P|287:271|282:232,1,70,8|2,0:0|0:0,0:0:0:0:
206,168,282981,2,0,P|200:202|191:236,1,70,0|2,0:0|0:0,0:0:0:0:
112,322,283392,1,10,0:0:0:0:
112,322,283495,1,0,0:0:0:0:
112,322,283598,1,10,0:0:0:0:
28,222,283803,2,0,P|62:215|97:211,1,70,8|2,0:0|0:0,0:0:0:0:
173,29,284214,6,0,P|166:63|162:98,1,70,8|2,0:0|0:0,0:0:0:0:
239,222,284625,1,10,0:0:0:0:
256,222,284728,1,0,0:0:0:0:
273,222,284831,1,10,0:0:0:0:
290,222,284933,1,0,0:0:0:0:
307,222,285036,1,10,0:0:0:0:
391,142,285242,5,8,0:0:0:0:
408,142,285344,1,0,0:0:0:0:
425,142,285447,2,0,P|426:179|433:220,2,70,8|0|12,0:0|0:0|0:0,0:0:0:0:
342,54,286269,6,0,P|305:55|264:62,1,70,0|8,0:0|0:0,0:0:0:0:
272,60,286577,1,0,0:0:0:0:
272,60,286680,1,12,0:0:0:0:
103,92,286885,5,8,0:0:0:0:
120,89,286988,1,0,0:0:0:0:
137,86,287091,1,8,0:0:0:0:
195,28,287296,1,0,0:0:0:0:
198,162,287502,5,12,0:0:0:0:
251,176,287707,5,8,0:0:0:0:
298,245,287913,5,8,0:0:0:0:
246,344,288118,5,8,0:0:0:0:
109,304,288324,5,12,0:0:0:0:
114,168,288529,5,8,0:0:0:0:
110,185,288632,1,2,0:2:0:0:
106,202,288735,1,8,0:0:0:0:
102,219,288837,1,2,0:2:0:0:
99,236,288940,1,8,0:0:0:0:
117,71,289146,6,0,P|161:69|216:71,1,83.9999974365235,4|8,0:0|0:0,0:0:0:0:
200,69,289454,1,0,0:0:0:0:
200,69,289556,2,0,P|202:113|200:168,1,83.9999974365235,8|0,0:0|0:0,0:0:0:0:
348,293,289967,2,0,P|359:252|368:211,1,83.9999974365235,8|8,0:0|0:0,0:0:0:0:
227,316,290378,2,0,P|248:279|267:241,1,83.9999974365235,8|8,0:0|0:0,0:0:0:0:
395,71,290789,6,0,P|351:69|296:71,1,83.9999974365235,4|8,0:2|0:0,0:0:0:0:
312,69,291098,1,0,0:0:0:0:
312,69,291200,2,0,P|310:113|312:168,1,83.9999974365235,8|0,0:0|0:0,0:0:0:0:
262,321,291611,1,8,0:0:0:0:
241,239,291816,1,8,0:0:0:0:
189,357,292022,2,2,P|175:310|157:228,1,125.999996154785,8|0,0:0|0:0,0:2:0:0:
158,234,292433,6,0,P|126:275|103:307,1,83.9999974365235,0|8,0:0|0:0,0:0:0:0:
106,301,292741,1,0,0:0:0:0:
106,301,292844,2,0,P|81:267|54:234,1,83.9999974365235,8|0,0:0|0:0,0:0:0:0:
126,56,293255,2,0,P|166:67|206:80,1,83.9999974365235,8|8,0:0|0:0,0:0:0:0:
19,139,293666,2,0,P|60:139|102:141,1,83.9999974365235,8|8,0:0|0:0,0:0:0:0:
362,126,294077,6,0,P|348:165|337:206,1,83.9999974365235,0|8,0:0|0:0,0:0:0:0:
337,206,294385,1,0,0:0:0:0:
337,206,294488,2,0,P|297:192|256:181,1,83.9999974365235,8|0,0:0|0:0,0:0:0:0:
76,122,294899,1,8,0:0:0:0:
76,122,295002,1,0,0:0:0:0:
76,122,295104,1,8,0:0:0:0:
436,122,295310,1,8,0:0:0:0:
436,122,295413,1,0,0:0:0:0:
436,122,295515,1,8,0:0:0:0:
221,335,295721,6,0,P|263:333|318:337,1,83.9999974365235,4|8,0:0|0:0,0:0:0:0:
304,335,296023,1,0,0:0:0:0:
304,335,296124,2,0,P|302:293|306:238,1,83.9999974365235,8|0,0:0|0:0,0:0:0:0:
194,88,296528,2,0,P|180:127|171:168,1,83.9999974365235,8|8,0:0|0:0,0:0:0:0:
312,67,296931,2,0,P|288:101|269:138,1,83.9999974365235,8|8,0:0|0:0,0:0:0:0:
10,274,297335,6,0,P|47:270|108:272,1,83.9999974365235,4|8,0:2|0:0,0:0:0:0:
93,270,297638,1,0,0:0:0:0:
93,270,297738,2,0,P|89:233|91:172,1,83.9999974365235,8|0,0:0|0:0,0:0:0:0:
192,35,298142,1,8,0:0:0:0:
216,115,298344,1,8,0:0:0:0:
428,125,298546,2,2,P|365:126|303:133,1,125.999996154785,8|0,0:0|0:0,0:2:0:0:
302,133,298949,6,0,P|304:185|303:226,1,83.9999974365235,0|8,0:0|0:0,0:0:0:0:
304,216,299252,1,0,0:0:0:0:
304,216,299353,2,0,P|258:214|206:215,1,83.9999974365235,8|0,0:0|0:0,0:0:0:0:
117,283,299756,2,0,P|122:237|126:186,1,83.9999974365235,8|8,0:0|0:0,0:0:0:0:
26,360,300160,2,0,P|22:313|18:262,1,83.9999974365235,8|8,0:0|0:0,0:0:0:0:
73,41,300564,5,0,0:0:0:0:
152,114,300765,1,8,0:0:0:0:
173,115,300866,1,0,0:0:0:0:
193,116,300967,1,8,0:0:0:0:
213,117,301068,1,0,0:0:0:0:
230,118,301169,1,4,0:0:0:0:
344,35,301371,5,8,0:0:0:0:
341,54,301472,1,0,0:0:0:0:
338,71,301573,1,12,0:0:0:0:
157,316,301774,1,8,0:0:0:0:
282,313,301976,1,8,0:0:0:0:
480,263,302178,6,0,P|437:263|372:268,1,83.9999974365235,4|8,0:0|0:0,0:0:0:0:
396,265,302479,1,0,0:0:0:0:
396,265,302580,2,0,P|396:222|391:157,1,83.9999974365235,8|0,0:0|0:0,0:0:0:0:
214,59,302982,2,0,P|192:94|173:132,1,83.9999974365235,8|8,0:0|0:0,0:0:0:0:
345,58,303384,2,0,P|315:87|287:119,1,83.9999974365235,8|8,0:0|0:0,0:0:0:0:
32,263,303786,6,0,P|75:263|140:268,1,83.9999974365235,0|8,0:0|0:0,0:0:0:0:
115,265,304087,1,0,0:0:0:0:
116,265,304188,2,0,P|116:222|121:157,1,83.9999974365235,8|0,0:0|0:0,0:0:0:0:
176,53,304590,1,8,0:0:0:0:
233,114,304791,1,8,0:0:0:0:
443,114,304992,2,2,P|376:127|310:145,1,125.999996154785,8|0,0:0|0:0,0:2:0:0:
320,142,305394,6,0,P|330:197|334:239,1,83.9999974365235,4|8,0:2|0:0,0:0:0:0:
333,225,305693,1,0,0:0:0:0:
333,225,305792,2,0,P|291:229|250:237,1,83.9999974365235,8|0,0:0|0:0,0:0:0:0:
146,316,306191,2,0,P|155:274|162:233,1,83.9999974365235,8|8,0:0|0:0,0:0:0:0:
50,372,306590,2,0,P|52:329|51:287,1,83.9999974365235,8|8,0:0|0:0,0:0:0:0:
21,130,306988,6,0,P|78:134|121:130,1,83.9999974365235,0|8,0:0|0:0,0:0:0:0:
104,132,307287,1,0,0:0:0:0:
104,132,307387,1,8,0:0:0:0:
196,83,307586,1,4,0:0:0:0:
361,37,307786,6,0,L|324:110,1,70,2|0,0:0|2:0,0:0:0:0:
376,61,308184,2,0,L|339:134,1,70,2|0,0:0|2:0,0:0:0:0:
446,309,308583,6,0,P|398:305|353:305,1,83.9999974365235,4|8,0:0|0:0,0:0:0:0:
362,304,308880,1,0,0:0:0:0:
362,305,308979,2,0,P|362:263|366:221,1,83.9999974365235,8|0,0:0|0:0,0:0:0:0:
234,161,309375,2,0,P|251:198|271:235,1,83.9999974365235,8|8,0:0|0:0,0:0:0:0:
132,125,309771,2,0,P|139:166|149:207,1,83.9999974365235,8|8,0:0|0:0,0:0:0:0:
402,59,310167,6,0,P|354:63|309:63,1,83.9999974365235,0|8,0:0|0:0,0:0:0:0:
318,64,310464,1,0,0:0:0:0:
318,63,310563,2,0,P|318:104|322:146,1,83.9999974365235,8|0,0:0|0:0,0:0:0:0:
99,61,310959,1,8,0:0:0:0:
182,71,311157,1,8,0:0:0:0:
219,160,311355,2,2,P|213:224|203:288,1,125.999996154785,8|0,0:0|0:0,0:2:0:0:
203,284,311751,6,0,P|253:290|293:298,1,83.9999974365235,4|8,0:2|0:0,0:0:0:0:
286,296,312048,1,0,0:0:0:0:
286,296,312147,2,0,P|291:246|299:206,1,83.9999974365235,8|0,0:0|0:0,0:0:0:0:
388,84,312543,2,0,P|380:125|376:167,1,83.9999974365235,8|8,0:0|0:0,0:0:0:0:
500,52,312939,2,0,P|481:89|466:129,1,83.9999974365235,8|8,0:0|0:0,0:0:0:0:
434,322,313335,5,0,0:0:0:0:
328,294,313533,1,8,0:0:0:0:
328,294,313632,1,0,0:0:0:0:
328,294,313731,1,8,0:0:0:0:
242,359,313929,1,0,0:0:0:0:
74,71,314127,5,8,0:0:0:0:
74,71,314226,1,0,0:0:0:0:
74,71,314325,1,8,0:3:0:0:
74,71,314424,1,8,0:3:0:0:
74,71,314523,1,8,0:3:0:0:
24,140,314721,1,8,0:3:0:0:
225,59,314919,5,2,2:2:0:0:
383,49,315271,6,0,L|384:96,1,35
280,168,315624,6,0,P|247:178|200:209,1,70
291,283,316330,6,0,P|316:306|367:331,2,70
216,196,317496,6,0,P|193:197|154:194,1,35,0|0,0:0|2:0,0:0:0:0:
100,125,318265,6,0,P|76:222|154:310,1,210.000008010865,0|0,0:0|2:0,0:0:0:0:
