osu file format v14

[General]
AudioFilename: audio.mp3
AudioLeadIn: 0
PreviewTime: 261683
Countdown: 0
SampleSet: Soft
StackLeniency: 0.7
Mode: 0
LetterboxInBreaks: 0
EpilepsyWarning: 1
WidescreenStoryboard: 1

[Editor]
Bookmarks: 1496,31115,59857,82851,105845,124528,147522,173390,204288,227282,250276,263210,280455,294826,306323,317641
DistanceSpacing: 0.7
BeatDivisor: 4
GridSize: 32
TimelineZoom: 1.3

[Metadata]
Title:Messiah
TitleUnicode:Messiah
Artist:Liz Triangle
ArtistUnicode:Liz Triangle
Creator:eiri-
Version:Collab Lunatic
Source:東方地霊殿 ~ Subterranean Animism.
Tags:Ayyri EvilElvis Elvis Jounzan Mirash Delis Vass_Bass Vass ailv aliv Noffy 東方Project kaztora eba Misaki Nakajima Peko lily-an ハルトマンの妖怪少女 Koishi Komeiji ラストリモート 古明地 こいし B2 Chireiden Earth Spirit Palace Touhou ZUN Team Shanghai Alice TH11 TH 11 Last Remote Hartmann's Youkai Girl LTCD-0010 Kouroumu 6 K6 SA
BeatmapID:1666389
BeatmapSetID:793438

[Difficulty]
HPDrainRate:7
CircleSize:4
OverallDifficulty:8
ApproachRate:8
SliderMultiplier:1.6
SliderTickRate:1

[Events]
//Background and Video events
0,0,"bgkoishi.jpg",0,0
//Break Periods
2,54309,56233
//Storyboard Layer 0 (Background)
//Storyboard Layer 1 (Fail)
//Storyboard Layer 2 (Pass)
//Storyboard Layer 3 (Foreground)
//Storyboard Sound Samples

[TimingPoints]
1496,600,4,2,2,30,1,0
2096,535.714285714286,4,2,2,30,1,0
2632,534.283170080142,4,2,2,30,1,0
2632,-125,4,2,2,30,0,0
15454,625,4,2,2,35,1,0
15454,-333.333333333333,4,2,2,35,0,0
16704,504.201680672269,4,2,2,35,1,0
16704,-333.333333333333,4,2,2,35,0,0
18216,504.201680672269,4,2,2,35,1,0
18721,359.281437125748,4,2,1,70,1,0
18900,359.281437125748,4,2,1,70,1,0
19618,359.281437125748,4,2,1,70,1,0
42612,-200,4,2,1,55,0,0
49797,-200,4,2,1,60,0,0
51234,-133.333333333333,4,2,1,70,0,0
54109,-133.333333333333,4,2,1,80,0,0
56983,-133.333333333333,4,2,1,55,0,0
59857,-200,4,2,1,55,0,0
82132,-100,4,2,1,70,0,0
105845,-100,4,2,2,40,0,0
110156,-100,4,2,1,70,0,0
111594,-100,4,2,1,60,0,0
123091,-100,4,2,2,80,0,0
124528,-100,4,2,1,75,0,0
140785,-100,4,2,1,5,0,0
140875,-100,4,2,1,70,0,0
147522,-100,4,2,2,55,0,0
149857,-100,4,2,2,70,0,0
150037,-100,4,2,1,70,0,0
150396,-133.333333333333,4,2,1,60,0,0
167282,-66.6666666666667,4,2,1,70,0,0
167821,-133.333333333333,4,2,1,60,0,0
173749,-133.333333333333,4,2,2,40,0,0
176983,-133.333333333333,4,2,1,40,0,0
177701,-133.333333333333,4,2,1,60,0,0
179138,-100,4,2,1,55,0,0
189737,-100,4,2,1,50,0,0
190276,-100,4,2,1,55,0,0
190635,-100,4,2,1,60,0,0
202132,-100,4,2,1,70,0,0
203570,359.281437125748,4,2,66,70,1,0
203929,-100,4,2,1,70,0,0
204109,-100,4,2,1,70,0,0
204288,359.281437125748,4,2,1,70,1,0
204647,-100,4,2,1,75,0,0
227282,-100,4,2,1,80,0,0
227461,-100,4,2,1,55,0,0
233030,-100,4,2,1,70,0,0
250276,-83.3333333333333,4,2,1,80,0,0
260425,-83.3333333333333,4,2,1,70,0,0
261773,-83.3333333333333,4,2,1,50,0,0
263210,-100,4,1,1,75,0,0
274168,-133.333333333333,4,1,1,65,0,0
274707,-100,4,1,1,75,0,0
280455,-83.3333333333333,4,1,1,75,0,0
283329,-100,4,1,1,75,0,0
288000,-100,4,1,1,65,0,0
288539,-100,4,1,1,60,0,0
290515,-100,4,1,1,55,0,0
291952,-100,4,2,1,70,0,0
293389,-100,4,2,1,40,0,0
293569,-100,4,2,1,70,0,0
294826,-100,4,2,1,75,0,0

[Colours]
Combo1 : 132,179,184
Combo2 : 200,32,74
Combo3 : 39,69,159
Combo4 : 250,238,200

[HitObjects]
184,228,1496,5,0,0:0:0:0:
304,272,2096,1,0,0:0:0:0:
392,176,2632,6,0,L|308:188,1,64,2|0,0:0|0:0,0:0:0:0:
268,140,3166,2,0,P|256:100|276:12,1,128,0|2,0:0|0:0,0:0:0:0:
348,4,3967,1,0,0:0:0:0:
416,40,4234,2,0,L|412:108,1,64,2|0,0:0|0:0,0:0:0:0:
480,196,4769,6,0,P|460:232|460:328,2,128,2|0|2,0:0|0:0|0:0,0:0:0:0:
404,184,6104,1,2,0:0:0:0:
344,232,6371,1,2,0:0:0:0:
268,240,6639,1,2,0:0:0:0:
204,196,6906,6,0,P|136:184|100:72,1,192,2|0,0:0|0:0,0:0:0:0:
164,40,7974,2,0,L|240:60,2,64,2|0|2,0:0|0:0|0:0,0:0:0:0:
96,8,8776,1,0,0:0:0:0:
12,80,9043,6,0,P|24:152|32:228,1,128,2|0,0:0|0:0,0:0:0:0:
88,344,10111,2,0,P|95:280|106:217,1,128,2|0,0:0|0:0,0:0:0:0:
388,100,11180,5,2,0:0:0:0:
388,100,11447,2,0,L|380:168,1,64,2|0,0:0|0:0,0:0:0:0:
324,212,11981,2,0,P|280:204|236:116,1,128,4|0,0:0|0:0,0:0:0:0:
312,40,12783,2,0,P|304:80|304:108,1,64,2|2,0:0|0:0,0:0:0:0:
232,64,13317,5,4,0:0:0:0:
152,52,13584,1,0,0:0:0:0:
72,80,13851,1,0,0:0:0:0:
16,176,14119,6,0,L|32:316,1,128,4|0,0:0|0:0,0:0:0:0:
108,340,15187,5,0,0:0:0:0:
300,288,15454,6,0,L|376:304,1,71.9999978027344,0|0,0:0|0:0,0:0:0:0:
436,364,16704,6,0,P|500:320|496:208,1,191.999994140625,0|0,0:0|3:0,0:0:0:0:
499,213,18780,2,0,L|473:217,2,26.6666666666667,0|0|4,0:0|0:0|1:3,0:0:0:0:
332,84,19169,5,4,1:3:0:0:
112,208,19438,5,4,1:3:0:0:
172,272,19618,6,0,L|272:252,1,80,4|0,1:2|0:1,0:0:0:0:
408,144,19977,1,0,1:0:0:0:
324,124,20156,1,0,1:0:0:0:
240,24,20336,6,0,P|212:68|212:184,1,160,8|0,1:0|1:0,0:0:0:0:
388,312,20875,1,8,1:0:0:0:
428,236,21055,2,0,L|328:216,1,80,0|0,0:0|1:0,0:0:0:0:
116,364,21414,6,0,P|79:293|84:214,1,160,8|0,1:0|1:0,0:0:0:0:
240,328,21953,1,0,1:0:0:0:
304,368,22132,2,0,P|328:328|336:280,1,80,8|0,1:0|1:1,0:0:0:0:
180,156,22492,6,0,P|190:194|211:228,1,80,4|0,1:2|0:0,0:0:0:0:
400,164,22851,1,0,1:0:0:0:
480,180,23031,1,0,1:0:0:0:
436,68,23210,6,0,P|397:57|276:92,1,160,8|0,1:0|1:0,0:0:0:0:
148,88,23749,1,8,1:0:0:0:
72,32,23929,2,0,P|48:76|40:120,1,80,0|8,1:0|1:0,0:0:0:0:
220,288,24288,5,8,1:0:0:0:
128,248,24468,1,0,1:0:0:0:
128,248,24558,1,0,1:0:0:0:
128,248,24647,1,0,1:0:0:0:
40,320,24827,1,8,1:0:0:0:
140,364,25007,5,4,1:2:0:0:
292,232,25186,1,8,1:0:0:0:
428,352,25366,2,0,P|436:300|452:260,1,80,4|8,1:2|0:1,0:0:0:0:
400,204,25725,1,2,1:0:0:0:
204,100,25905,5,0,1:0:0:0:
276,32,26085,2,0,P|292:116|300:208,1,160,10|2,1:0|1:0,0:0:0:0:
372,88,26623,2,0,P|424:56|464:48,1,80,10|0,1:0|1:0,0:0:0:0:
224,180,26983,5,10,1:0:0:0:
188,248,27162,2,0,P|128:248|80:160,1,160,2|2,1:0|1:0,0:0:0:0:
124,340,27701,5,0,1:0:0:0:
40,292,27881,2,0,L|52:380,1,80,10|0,1:0|0:0,0:0:0:0:
320,304,28240,6,0,L|330:224,1,80,4|0,1:2|0:0,0:0:0:0:
200,56,28600,5,2,1:0:0:0:
120,28,28779,2,0,L|138:191,1,160,4|8,1:2|0:1,0:0:0:0:
260,336,29318,5,2,1:0:0:0:
376,372,29498,1,4,1:2:0:0:
476,284,29677,1,8,1:0:0:0:
352,244,29857,1,10,1:0:0:0:
260,336,30037,1,4,1:2:0:0:
504,192,30216,5,8,1:0:0:0:
504,180,30306,1,0,1:3:0:0:
504,168,30396,1,4,1:3:0:0:
308,32,30576,5,8,1:0:0:0:
128,240,30755,6,0,B|120:280|120:280|136:340,1,80,8|0,1:0|1:0,0:0:0:0:
256,192,31115,5,4,1:2:0:0:
332,208,31294,1,0,1:1:0:0:
408,220,31474,1,0,1:0:0:0:
484,232,31654,1,0,1:0:0:0:
256,192,31833,6,0,L|164:176,1,80,8|0,1:0|0:0,0:0:0:0:
177,178,32192,5,0,1:0:0:0:
332,208,32372,1,8,1:0:0:0:
244,272,32552,1,0,0:0:0:0:
216,92,32731,1,0,1:0:0:0:
396,68,32911,2,0,P|404:116|400:160,1,80,8|0,1:0|0:0,0:0:0:0:
352,308,33270,5,8,1:0:0:0:
308,228,33450,1,0,1:0:0:0:
232,284,33629,5,8,1:0:0:0:
272,148,33809,1,0,1:0:0:0:
272,148,33899,1,0,1:0:0:0:
272,148,33989,2,0,L|268:48,1,80,4|0,1:2|0:0,0:0:0:0:
192,200,34348,5,0,1:0:0:0:
148,268,34528,1,0,1:0:0:0:
172,344,34707,2,0,P|208:368|260:368,1,80,8|0,1:0|0:0,0:0:0:0:
92,180,35067,2,0,L|80:80,1,80,0|8,1:0|1:0,0:0:0:0:
260,240,35426,5,0,1:0:0:0:
336,256,35606,2,0,L|500:236,1,160,8|0,1:0|0:0,0:0:0:0:
476,120,36144,1,4,1:3:0:0:
396,128,36324,1,4,1:2:0:0:
316,136,36504,1,8,1:0:0:0:
320,140,36863,5,4,1:2:0:0:
172,88,37043,1,0,0:0:0:0:
352,64,37222,5,2,1:0:0:0:
132,156,37402,1,0,1:0:0:0:
248,112,37582,5,10,1:0:0:0:
248,112,37941,1,2,1:0:0:0:
312,296,38120,1,10,1:0:0:0:
196,192,38300,5,0,0:0:0:0:
364,224,38480,1,2,1:0:0:0:
280,208,38659,5,8,1:0:0:0:
280,208,39019,1,2,1:0:0:0:
364,224,39198,1,0,1:0:0:0:
448,240,39378,1,10,1:0:0:0:
280,208,39558,1,0,0:0:0:0:
348,136,39737,6,0,P|400:132|444:120,1,80,4|0,1:2|0:0,0:0:0:0:
272,100,40097,1,10,1:0:0:0:
200,148,40276,1,4,1:2:0:0:
116,148,40456,5,0,1:0:0:0:
116,148,40725,1,0,1:0:0:0:
116,148,40815,2,0,P|68:160|16:160,1,80,4|2,1:2|1:0,0:0:0:0:
200,148,41174,1,2,1:0:0:0:
272,100,41354,1,10,1:0:0:0:
348,136,41534,1,4,1:2:0:0:
280,192,41713,1,8,1:0:0:0:
200,40,41893,5,4,1:3:0:0:
384,60,42073,1,8,1:0:0:0:
360,244,42252,1,4,1:2:0:0:
176,224,42432,1,8,1:0:0:0:
284,152,42612,6,0,P|368:144|452:160,2,160,4|0|0,1:3|3:0|0:0,0:0:0:0:
256,168,44228,1,0,3:0:0:0:
236,192,44408,1,0,0:0:0:0:
224,220,44588,1,0,0:0:0:0:
224,252,44767,1,0,3:0:0:0:
132,200,45126,1,0,0:0:0:0:
168,88,45486,6,0,L|256:72,1,80,4|0,1:0|0:0,0:0:0:0:
276,84,46025,1,0,0:0:0:0:
308,92,46204,2,0,L|476:40,1,160,0|0,3:0|0:0,0:0:0:0:
460,76,47103,1,0,3:0:0:0:
468,108,47282,1,0,3:0:0:0:
428,192,47641,2,0,P|436:248|432:280,1,80,0|0,3:0|0:0,0:0:0:0:
372,336,48360,6,0,P|336:348|288:328,1,80,4|0,1:3|0:0,0:0:0:0:
232,292,49079,2,0,L|220:196,1,80,0|0,0:0|0:0,0:0:0:0:
236,196,49617,1,0,0:0:0:0:
212,184,49797,1,0,1:0:0:0:
276,160,49977,5,0,1:0:0:0:
188,108,50156,1,0,1:0:0:0:
288,68,50336,1,2,0:3:0:0:
160,24,50516,5,0,1:0:0:0:
168,140,50695,1,8,1:0:0:0:
108,204,50875,5,8,1:0:0:0:
120,348,51055,1,2,1:3:0:0:
184,288,51234,6,0,L|316:304,1,120.000004577637,4|2,1:2|1:3,0:0:0:0:
380,296,51773,1,2,1:3:0:0:
452,332,51953,2,0,P|496:320|524:304,1,60.0000022888184,8|0,1:0|1:3,0:0:0:0:
388,208,52312,1,2,1:3:0:0:
312,224,52492,2,0,P|252:216|208:176,1,120.000004577637,10|8,1:0|1:0,0:0:0:0:
240,288,53031,2,0,L|252:356,1,60.0000022888184,4|0,1:3|0:0,0:0:0:0:
250,347,53390,1,0,1:0:0:0:
168,332,53570,5,8,1:0:0:0:
148,200,53749,1,4,1:3:0:0:
132,68,53929,1,8,1:0:0:0:
212,124,54109,5,4,1:3:0:0:
256,192,56983,12,4,59857,0:2:0:0:
256,192,60216,5,0,1:0:0:0:
196,148,60576,2,0,L|108:160,1,80,8|2,0:1|0:0,0:0:0:0:
80,152,61115,1,0,1:0:0:0:
44,148,61294,2,0,P|32:204|37:236,1,80,2|0,0:0|0:0,0:0:0:0:
122,304,62013,2,0,L|140:214,1,80,8|0,0:1|0:0,0:0:0:0:
126,200,62552,1,2,0:0:0:0:
114,174,62731,2,0,L|132:88,1,80,0|0,1:0|1:0,0:0:0:0:
180,40,63450,1,8,0:1:0:0:
248,72,63809,5,2,0:0:0:0:
284,80,63989,1,0,1:0:0:0:
320,88,64168,2,0,P|336:144|328:212,1,120,2|0,1:2|0:0,0:0:0:0:
288,272,64887,2,0,L|368:296,1,80,8|4,0:1|0:0,0:0:0:0:
208,320,65606,5,0,1:0:0:0:
140,300,65965,2,0,P|128:264|120:216,1,80,0|8,1:0|0:1,0:0:0:0:
164,164,66683,1,2,0:0:0:0:
164,164,66863,1,0,1:0:0:0:
164,164,67043,2,0,L|252:176,1,80,2|0,0:0|1:0,0:0:0:0:
276,160,67582,1,0,0:0:0:0:
308,148,67761,2,0,L|396:160,1,80,8|0,0:1|0:0,0:0:0:0:
464,240,68480,6,0,P|452:312|452:332,2,80,0|0|8,1:0|1:0|0:1,0:0:0:0:
328,240,69558,1,0,1:0:0:0:
296,256,69737,1,2,0:0:0:0:
280,288,69917,5,0,0:0:0:0:
248,268,70097,1,2,0:0:0:0:
212,260,70276,1,0,1:0:0:0:
176,264,70456,1,0,1:0:0:0:
104,304,70635,6,0,P|96:260|100:208,1,80,4|0,0:3|0:0,0:0:0:0:
44,172,71174,1,0,0:0:0:0:
196,48,71354,6,0,P|200:104|192:176,1,120,4|0,1:2|0:0,0:0:0:0:
256,208,72073,2,0,L|344:196,1,80,8|2,0:1|0:0,0:0:0:0:
356,168,72612,1,0,1:0:0:0:
380,140,72791,2,0,L|460:125,1,80,2|0,0:0|1:0,0:0:0:0:
489,35,73510,2,0,L|410:49,1,80,8|0,0:1|0:0,0:0:0:0:
316,108,74228,6,0,P|316:68|324:24,1,80,0|0,1:0|1:0,0:0:0:0:
252,12,74947,2,0,L|164:0,1,80,8|2,0:1|0:0,0:0:0:0:
136,8,75486,1,0,1:0:0:0:
104,20,75665,2,0,L|93:99,1,80,0|0,1:0|1:0,0:0:0:0:
40,148,76384,2,0,L|50:227,1,80,8|2,0:1|0:0,0:0:0:0:
48,340,77103,5,0,1:0:0:0:
120,328,77462,1,0,1:0:0:0:
188,312,77821,2,0,L|280:296,1,80,8|2,0:1|0:0,0:0:0:0:
292,272,78360,1,0,1:0:0:0:
320,252,78540,2,0,L|336:344,1,80,2|0,0:0|1:0,0:0:0:0:
400,268,79258,2,0,L|386:189,1,80,8|2,0:1|0:0,0:0:0:0:
328,148,79977,5,0,1:0:0:0:
268,108,80336,1,0,1:0:0:0:
296,40,80695,1,8,0:1:0:0:
228,20,81055,6,0,P|200:32|188:40,1,40,0|2,1:0|0:0,0:0:0:0:
120,32,81414,2,0,P|101:56|95:69,1,40,0|2,0:0|0:0,0:0:0:0:
36,108,81773,1,0,1:0:0:0:
36,108,82043,5,0,1:0:0:0:
36,108,82132,1,4,1:3:0:0:
236,272,82402,1,4,1:3:0:0:
448,156,82671,1,4,1:3:0:0:
356,92,82851,5,6,1:0:0:0:
356,92,83031,2,0,L|368:256,1,160,10|2,1:0|1:0,0:0:0:0:
164,56,83570,5,10,1:0:0:0:
164,56,83929,2,0,P|120:80|68:80,1,80,10|2,1:0|1:0,0:0:0:0:
252,112,84288,5,2,1:0:0:0:
276,188,84468,2,0,P|264:264|248:288,1,80,10|0,1:0|0:0,0:0:0:0:
344,108,84827,2,0,P|416:172|496:160,1,160,2|0,1:0|0:0,0:0:0:0:
368,240,85366,2,0,L|384:332,1,80,4|0,1:2|0:0,0:0:0:0:
208,204,85725,5,6,1:0:0:0:
140,256,85905,2,0,L|-24:264,1,160,10|2,1:0|1:0,0:0:0:0:
296,248,86444,5,10,1:0:0:0:
292,252,86803,1,10,1:0:0:0:
384,244,86983,1,2,1:0:0:0:
476,236,87162,1,2,1:0:0:0:
476,236,87342,2,0,P|484:284|476:344,1,80,2|0,1:0|1:0,0:0:0:0:
304,200,87701,2,2,P|320:88|372:52,1,160,2|0,1:0|0:0,1:1:0:0:
192,184,88240,2,0,L|176:268,1,80,4|0,1:3|0:0,0:0:0:0:
88,124,88600,5,4,1:3:0:0:
88,124,88779,2,0,L|64:292,1,160,10|2,1:0|1:0,0:0:0:0:
276,124,89318,1,10,1:0:0:0:
280,128,89677,1,10,1:0:0:0:
204,184,89857,1,2,1:0:0:0:
352,176,90037,5,2,1:0:0:0:
432,164,90216,2,0,L|512:152,1,80,10|0,1:0|0:0,0:0:0:0:
288,244,90576,6,0,L|92:276,1,160,2|0,1:0|0:0,0:0:0:0:
44,188,91115,2,0,P|100:180|156:168,1,80,10|0,1:0|0:0,0:0:0:0:
208,156,91474,5,2,1:0:0:0:
308,56,91653,1,10,1:0:0:0:
308,56,91833,2,0,P|320:112|312:152,1,80,0|2,1:0|1:0,0:0:0:0:
220,288,92192,5,10,1:0:0:0:
208,156,92372,1,2,1:0:0:0:
368,208,92552,5,10,1:0:0:0:
380,332,92731,1,2,1:0:0:0:
280,228,92911,5,2,1:0:0:0:
220,288,93091,2,0,P|172:300|128:284,1,80,4|0,1:3|0:0,0:0:0:0:
368,256,93450,2,0,P|480:292|500:352,1,160,4|0,1:2|0:0,0:0:0:0:
264,144,93989,5,4,1:2:0:0:
264,144,94348,1,6,1:0:0:0:
192,176,94528,2,0,P|136:168|104:136,1,80,10|0,1:0|0:0,0:0:0:0:
176,100,94887,1,2,1:0:0:0:
256,352,95067,5,10,1:0:0:0:
256,352,95426,1,10,1:0:0:0:
336,312,95606,1,2,1:0:0:0:
256,352,95785,1,2,1:0:0:0:
184,240,95965,5,8,1:0:0:0:
256,140,96144,1,0,1:0:0:0:
328,240,96324,2,0,L|420:228,1,80,10|2,1:0|1:0,0:0:0:0:
460,168,96683,5,0,1:0:0:0:
256,216,96863,1,4,1:2:0:0:
460,168,97043,1,0,1:0:0:0:
256,216,97222,2,0,L|148:208,1,80,6|10,1:0|1:0,0:0:0:0:
96,196,97582,1,0,0:0:0:0:
96,196,97761,1,2,1:0:0:0:
380,120,97941,5,10,1:0:0:0:
380,120,98300,1,10,1:0:0:0:
368,208,98480,1,0,1:0:0:0:
240,44,98659,5,2,1:0:0:0:
324,64,98839,1,10,1:0:0:0:
288,228,99019,5,10,1:0:0:0:
204,208,99199,1,0,1:0:0:0:
188,292,99378,1,2,1:0:0:0:
272,312,99558,1,0,1:0:0:0:
308,148,99737,5,4,1:2:0:0:
224,128,99917,1,0,0:0:0:0:
140,108,100097,2,0,P|80:120|44:152,1,80,6|10,1:0|1:0,0:0:0:0:
204,256,100456,2,0,P|264:244|300:212,1,80,0|2,0:0|1:0,0:0:0:0:
436,36,100815,5,10,1:0:0:0:
432,40,101174,1,10,1:0:0:0:
464,128,101354,1,0,1:0:0:0:
336,52,101534,1,2,1:0:0:0:
264,96,101713,2,0,P|204:124|160:116,1,80,10|2,1:0|1:0,0:0:0:0:
112,108,102073,1,10,1:0:0:0:
52,48,102252,5,2,1:0:0:0:
140,192,102432,1,0,0:0:0:0:
140,276,102612,1,4,1:3:0:0:
20,128,102791,1,0,0:0:0:0:
60,216,102971,5,6,1:0:0:0:
44,360,103150,1,10,1:0:0:0:
176,308,103330,1,0,0:0:0:0:
256,328,103510,1,2,1:0:0:0:
280,128,103689,2,0,L|192:144,1,80,10|0,1:0|0:0,0:0:0:0:
396,184,104049,5,10,1:0:0:0:
368,256,104228,1,2,1:0:0:0:
432,304,104408,2,0,L|420:404,1,80,4|8,1:2|1:0,0:0:0:0:
120,256,104767,2,0,L|132:356,1,80,0|0,0:0|0:0,0:0:0:0:
328,152,105126,2,0,L|316:252,1,80,8|8,1:0|1:0,0:0:0:0:
200,40,105486,2,0,L|212:140,1,80,8|8,1:0|1:0,0:0:0:0:
256,332,105845,5,2,0:0:0:0:
328,304,106204,1,0,0:0:0:0:
248,292,106564,1,2,0:0:0:0:
168,244,106923,1,0,0:0:0:0:
256,248,107282,1,2,0:0:0:0:
352,196,108001,1,2,0:0:0:0:
252,196,108360,1,2,0:0:0:0:
160,136,108719,1,4,0:0:0:0:
264,144,109079,1,0,0:0:0:0:
364,80,109438,1,2,0:0:0:0:
252,88,109797,1,0,0:0:0:0:
140,24,110156,5,0,1:0:0:0:
68,36,110336,1,8,1:0:0:0:
72,108,110516,1,8,1:0:0:0:
144,96,110695,1,2,1:3:0:0:
252,192,110875,5,0,1:0:0:0:
280,260,111055,1,8,1:0:0:0:
208,252,111234,1,8,1:0:0:0:
252,192,111414,1,2,1:3:0:0:
364,264,111594,5,4,1:2:0:0:
364,264,111773,2,0,P|352:332|272:360,1,160,10|2,1:0|1:3,0:0:0:0:
212,312,112312,2,0,P|168:308|40:312,1,160,10|2,1:0|1:3,0:0:0:0:
40,236,112851,2,0,P|119:232|199:237,1,160,10|0,1:0|0:0,0:0:0:0:
260,192,113390,6,0,P|260:144|264:100,1,80,8|0,1:0|1:0,0:0:0:0:
256,32,113749,1,4,1:3:0:0:
328,32,113929,1,0,0:0:0:0:
408,40,114109,1,8,1:0:0:0:
408,40,114468,5,4,1:2:0:0:
408,40,114647,2,0,P|412:104|412:200,1,160,10|2,1:0|1:3,0:0:0:0:
332,108,115186,2,0,P|328:192|327:267,1,160,10|2,1:0|1:3,0:0:0:0:
244,172,115725,2,0,P|248:251|248:331,1,160,10|10,1:0|1:0,0:0:0:0:
176,224,116264,2,0,P|132:212|96:180,1,80,6|0,1:3|0:0,0:0:0:0:
48,136,116623,5,8,1:0:0:0:
104,296,116803,1,2,1:3:0:0:
224,160,116983,2,0,P|232:84|232:48,1,80,4|0,1:3|0:0,0:0:0:0:
424,220,117342,6,0,P|372:240|352:344,1,160,4|0,1:2|0:0,0:0:0:0:
440,344,117881,1,2,1:3:0:0:
496,288,118061,2,0,P|496:240|500:192,1,80,10|0,1:0|0:0,0:0:0:0:
332,84,118420,5,2,1:3:0:0:
332,84,118600,2,0,P|334:123|326:251,1,160,10|2,1:0|1:0,0:0:0:0:
200,328,119138,2,0,P|192:248|195:168,1,160,10|2,1:0|1:0,0:0:0:0:
256,36,119857,5,2,1:3:0:0:
256,36,120216,2,0,L|76:28,1,160,2|0,1:0|0:0,0:0:0:0:
24,24,120755,1,2,1:3:0:0:
256,112,120935,2,0,L|415:119,1,160,10|2,1:0|1:3,0:0:0:0:
252,192,121474,2,0,L|92:184,1,160,10|10,1:0|1:0,0:0:0:0:
256,272,122013,2,0,L|352:276,1,80,2|2,1:0|1:3,0:0:0:0:
408,280,122372,1,10,1:0:0:0:
252,352,122552,2,0,L|160:352,1,80,2|4,1:0|1:2,0:0:0:0:
100,356,122911,1,0,1:0:0:0:
100,356,123001,1,0,1:0:0:0:
256,192,123091,12,4,124528,1:2:0:0:
216,72,124887,5,0,1:0:0:0:
264,140,125067,1,0,1:0:0:0:
332,96,125246,1,10,1:0:0:0:
164,136,125426,5,0,0:0:0:0:
120,64,125606,1,2,1:0:0:0:
368,172,125785,5,10,1:0:0:0:
236,276,126144,5,10,1:0:0:0:
264,96,126504,5,2,1:0:0:0:
348,312,126683,5,10,1:0:0:0:
168,348,126863,1,4,1:3:0:0:
168,348,126953,1,0,1:0:0:0:
168,348,127043,1,10,1:0:0:0:
288,208,127222,1,0,1:0:0:0:
372,224,127402,6,0,P|408:232|460:236,1,80,4|0,1:3|0:0,0:0:0:0:
116,172,127761,2,0,P|80:164|28:160,1,80,0|2,1:0|1:0,0:0:0:0:
280,272,128120,5,10,1:0:0:0:
408,152,128300,1,0,1:0:0:0:
280,144,128480,1,0,1:0:0:0:
136,308,128659,5,10,1:0:0:0:
216,68,129019,5,8,1:0:0:0:
316,312,129378,5,10,1:0:0:0:
404,260,129558,5,10,1:0:0:0:
232,312,129737,1,4,1:3:0:0:
232,312,129827,1,0,1:0:0:0:
232,312,129917,1,10,1:0:0:0:
280,116,130097,1,0,1:0:0:0:
332,184,130276,6,0,P|324:228|328:276,1,80,4|0,1:3|0:0,0:0:0:0:
68,128,130635,2,0,P|76:84|72:36,1,80,0|0,1:0|1:0,0:0:0:0:
168,88,130995,2,0,L|156:256,1,160,10|4,1:0|1:2,0:0:0:0:
92,300,131534,5,10,1:0:0:0:
252,272,131713,1,0,0:0:0:0:
176,324,131893,5,8,1:0:0:0:
336,328,132073,1,10,1:0:0:0:
256,360,132252,5,4,1:3:0:0:
416,356,132432,1,10,1:0:0:0:
336,328,132612,5,0,0:0:0:0:
332,248,132791,1,8,1:0:0:0:
412,240,132971,1,0,1:0:0:0:
416,320,133150,1,4,1:3:0:0:
192,260,133510,5,4,1:2:0:0:
192,260,133689,2,0,P|144:272|88:272,1,80,4|0,1:3|0:0,0:0:0:0:
312,116,134049,5,4,1:2:0:0:
312,116,134228,2,0,P|360:128|416:128,1,80,4|2,1:3|1:0,0:0:0:0:
336,224,134588,5,4,1:3:0:0:
272,288,134767,1,8,1:0:0:0:
240,204,134947,1,4,1:2:0:0:
360,304,135126,5,0,1:0:0:0:
316,136,135306,1,4,1:3:0:0:
472,168,135486,1,4,1:2:0:0:
396,156,135665,5,8,1:0:0:0:
424,240,135845,1,2,1:0:0:0:
336,224,136025,2,0,L|164:232,1,160,4|0,1:2|1:0,0:0:0:0:
108,192,136564,5,0,1:0:0:0:
112,276,136743,1,10,1:0:0:0:
32,244,136923,5,0,0:0:0:0:
260,232,137103,1,2,1:0:0:0:
200,164,137282,6,0,P|192:96|192:64,1,80,10|0,1:0|0:0,0:0:0:0:
364,332,137641,2,0,P|444:352|472:360,1,80,10|8,1:0|1:0,0:0:0:0:
420,136,138001,5,0,0:0:0:0:
388,236,138180,1,10,1:0:0:0:
472,192,138360,1,4,1:3:0:0:
312,232,138540,1,8,1:0:0:0:
232,252,138719,1,0,1:0:0:0:
68,272,138899,6,0,P|64:192|68:108,1,160,4|0,1:3|1:0,0:0:0:0:
140,148,139438,1,0,1:0:0:0:
324,112,139617,1,10,1:0:0:0:
312,28,139797,1,0,0:0:0:0:
240,80,139977,1,0,1:0:0:0:
440,52,140156,6,0,P|436:116|436:152,1,80,10|0,1:0|0:0,0:0:0:0:
280,328,140516,2,0,P|284:264|272:176,1,120,0|0,1:0|0:0,0:0:0:0:
264,192,140875,2,0,L|356:204,1,80,8|4,1:0|1:2,0:0:0:0:
188,264,141234,5,4,1:3:0:0:
112,168,141414,1,10,1:0:0:0:
300,104,141594,1,2,1:0:0:0:
264,192,141773,5,4,1:3:0:0:
264,192,142132,1,0,1:0:0:0:
344,208,142312,1,0,1:0:0:0:
364,288,142492,1,8,1:0:0:0:
264,192,142851,5,4,1:2:0:0:
304,280,143031,1,10,1:0:0:0:
232,344,143210,1,0,1:0:0:0:
264,192,143570,5,8,1:0:0:0:
188,300,143749,1,4,1:3:0:0:
60,256,143929,1,10,1:0:0:0:
144,156,144109,1,0,1:0:0:0:
288,276,144288,5,4,1:3:0:0:
412,192,144468,1,0,1:0:0:0:
276,112,144647,2,4,P|216:108|96:100,1,160,4|2,1:3|1:0,1:1:0:0:
116,101,145186,1,8,1:0:0:0:
260,240,145366,2,0,P|300:236|352:244,1,80,2|8,0:1|1:0,0:0:0:0:
160,340,145725,2,0,L|68:324,1,80,4|0,1:2|0:0,0:0:0:0:
212,180,146085,2,0,P|172:196|112:200,1,80,0|10,1:0|1:0,0:0:0:0:
12,72,146444,2,0,L|44:244,1,160,0|4,1:0|1:3,0:0:0:0:
268,280,147162,5,8,1:0:0:0:
232,352,147342,1,8,1:0:0:0:
256,192,147522,5,4,1:3:0:0:
256,192,147701,1,0,0:0:0:0:
264,144,148061,1,2,0:0:0:0:
264,144,148240,1,0,0:0:0:0:
256,96,148600,1,2,0:0:0:0:
256,96,148779,1,0,0:0:0:0:
272,48,149138,1,2,0:0:0:0:
272,48,149317,1,0,0:0:0:0:
244,4,149677,1,4,1:0:0:0:
104,28,149857,5,0,1:0:0:0:
108,100,150037,1,4,1:3:0:0:
112,172,150216,1,0,1:0:0:0:
240,228,150396,6,0,L|172:220,1,60.0000022888184,4|0,1:2|0:0,0:0:0:0:
188,312,150755,2,0,L|247:319,1,60.0000022888184,2|2,0:3|0:0,0:0:0:0:
120,272,151115,2,0,P|56:296|40:368,1,120.000004577637,8|2,1:0|0:3,0:0:0:0:
124,368,151653,1,2,0:0:0:0:
320,296,151833,6,0,L|456:280,1,120.000004577637,4|8,1:2|1:0,0:0:0:0:
320,216,152372,2,0,P|380:212|424:156,1,120.000004577637,4|0,1:2|0:0,0:0:0:0:
256,168,152911,2,2,P|292:136|300:104,1,60.0000022888184,14|0,1:0|0:0,1:1:0:0:
184,120,153270,5,4,1:2:0:0:
136,176,153450,1,2,0:0:0:0:
176,236,153629,2,0,P|180:276|176:320,1,60.0000022888184,2|2,0:3|0:0,0:0:0:0:
80,220,153989,1,8,1:0:0:0:
40,160,154168,2,0,P|36:120|40:76,1,60.0000022888184,2|0,1:0|0:0,1:1:0:0:
248,28,154528,5,2,0:0:0:0:
240,100,154707,1,4,1:3:0:0:
316,204,154887,2,0,P|332:140|396:120,2,120.000004577637,10|2|0,1:0|1:0|0:0,0:0:0:0:
460,100,155785,2,0,L|456:176,1,60.0000022888184,4|0,1:3|0:0,0:0:0:0:
300,300,156144,5,4,1:2:0:0:
300,300,156324,1,2,0:0:0:0:
300,300,156504,2,0,L|216:296,1,60.0000022888184,2|2,0:3|0:0,0:0:0:0:
372,352,156863,1,8,1:0:0:0:
372,352,157043,2,0,L|431:354,1,60.0000022888184,2|0,1:0|0:0,0:0:0:0:
188,244,157402,5,2,0:0:0:0:
120,292,157582,2,0,P|112:256|112:224,1,60.0000022888184,4|0,1:2|0:0,0:0:0:0:
256,172,157941,2,0,P|264:232|260:300,1,120.000004577637,8|0,1:0|0:0,0:0:0:0:
176,168,158480,1,0,0:0:0:0:
224,100,158659,2,2,P|232:64|232:32,1,60.0000022888184,14|0,1:0|0:0,1:1:0:0:
16,168,159019,5,4,1:2:0:0:
28,240,159198,1,2,0:0:0:0:
52,308,159378,2,0,P|88:300|120:296,1,60.0000022888184,2|2,0:3|0:0,0:0:0:0:
268,234,159737,5,10,1:0:0:0:
379,327,159917,1,2,1:0:0:0:
336,210,160096,5,2,0:3:0:0:
311,351,160276,1,10,1:0:0:0:
391,256,160456,5,4,1:3:0:0:
256,305,160635,2,0,L|180:296,1,60.0000022888184,4|0,1:3|0:0,0:0:0:0:
128,208,160995,1,4,1:3:0:0:
263,158,161174,2,0,L|339:167,1,60.0000022888184,4|0,1:3|0:0,0:0:0:0:
168,32,161534,6,0,P|184:72|176:168,1,120.000004577637,4|4,1:3|1:2,0:0:0:0:
8,228,162073,2,0,P|3:168|22:112,1,120.000004577637,2|2,0:1|0:1,0:0:0:0:
132,264,162612,2,0,L|272:280,1,120.000004577637,10|2,1:0|0:3,0:0:0:0:
312,336,163150,1,2,0:0:0:0:
472,220,163330,6,0,L|396:232,1,60.0000022888184,4|0,1:2|0:0,0:0:0:0:
288,180,163689,1,8,1:0:0:0:
224,148,163869,2,0,L|148:160,2,60.0000022888184,4|0|2,1:2|0:0|0:0,0:0:0:0:
392,12,164408,2,0,P|411:68|406:127,1,120.000004577637,6|4,1:0|1:2,0:0:0:0:
180,16,164947,2,0,P|168:64|172:96,1,60.0000022888184,2|2,0:1|0:3,0:0:0:0:
256,200,165307,1,2,0:1:0:0:
312,248,165486,2,0,P|324:296|320:328,1,60.0000022888184,10|0,1:0|0:0,0:0:0:0:
56,356,165845,2,0,P|60:320|72:292,1,60.0000022888184,2|2,0:3|0:0,0:0:0:0:
164,172,166204,5,4,1:3:0:0:
160,268,166384,1,0,0:0:0:0:
160,268,166564,1,0,1:0:0:0:
88,216,166743,2,0,P|76:160|88:76,1,120.000004577637,2|0,1:0|0:0,0:0:0:0:
413,33,167282,70,2,B|349:64|347:126|347:126|339:267,1,240.000009155274,10|4,1:0|1:2,1:0:0:0:
432,248,167821,6,0,B|428:216|428:216|436:168,1,60.0000022888184,2|2,0:1|0:3,0:0:0:0:
284,320,168180,1,2,0:1:0:0:
248,252,168360,2,0,L|172:248,1,60.0000022888184,10|0,1:0|0:0,0:0:0:0:
60,172,168719,5,2,0:3:0:0:
152,112,168899,1,2,0:0:0:0:
240,152,169079,2,0,L|299:155,1,60.0000022888184,4|0,1:2|0:0,0:0:0:0:
196,304,169438,5,8,1:0:0:0:
108,344,169618,2,0,L|48:347,1,60.0000022888184,4|0,1:2|0:0,0:0:0:0:
292,248,169977,5,0,0:0:0:0:
292,248,170156,2,0,L|280:376,1,120.000004577637,6|4,1:0|1:2,0:0:0:0:
380,240,170695,6,0,B|388:208|388:208|380:160,1,60.0000022888184,2|2,0:1|0:3,0:0:0:0:
136,188,171055,1,2,0:1:0:0:
168,120,171234,2,0,B|160:88|160:88|168:40,1,60.0000022888184,10|0,1:0|0:0,0:0:0:0:
296,32,171594,5,2,1:0:0:0:
272,188,171773,1,2,1:0:0:0:
368,84,171953,5,4,1:3:0:0:
440,80,172132,1,0,1:0:0:0:
472,144,172312,1,0,1:0:0:0:
400,152,172492,1,8,1:0:0:0:
240,288,172671,5,4,1:3:0:0:
316,272,172851,1,0,1:0:0:0:
184,244,173031,5,8,1:0:0:0:
380,304,173210,1,0,1:0:0:0:
308,120,173390,1,2,0:0:0:0:
112,192,173749,6,0,L|52:200,2,60.0000022888184,2|0|2,0:0|0:0|0:0,0:0:0:0:
184,244,174468,2,0,L|168:320,1,60.0000022888184,0|2,0:0|0:0,0:0:0:0:
168,128,175007,2,0,L|108:72,2,60.0000022888184,2|2|2,0:0|0:0|0:0,0:0:0:0:
260,296,175725,2,0,L|276:368,1,60.0000022888184,0|2,0:0|0:0,0:0:0:0:
348,156,176264,6,0,B|288:168|296:200|220:200,1,120.000004577637,4|0,0:0|0:0,0:0:0:0:
237,199,176983,2,0,P|272:208|304:224,1,60.0000022888184,2|0,0:0|0:0,0:0:0:0:
240,276,177342,2,0,P|254:324|250:356,1,60.0000022888184,0|0,0:0|0:0,0:0:0:0:
168,320,177701,5,4,1:2:0:0:
88,284,177881,1,8,1:0:0:0:
152,152,178061,5,8,1:0:0:0:
156,236,178240,1,2,0:3:0:0:
80,204,178420,5,4,1:2:0:0:
228,96,178600,1,8,1:0:0:0:
340,224,178779,5,8,1:0:0:0:
256,260,178959,1,2,0:3:0:0:
264,168,179138,2,0,P|300:144|360:128,1,80,4|0,1:3|0:0,0:0:0:0:
352,328,179677,2,0,P|316:352|256:368,1,80,2|10,1:3|1:0,0:0:0:0:
208,332,180037,1,0,1:0:0:0:
352,328,180216,2,0,L|440:340,1,80,2|8,1:3|1:0,0:0:0:0:
292,136,180576,6,0,P|252:212|292:280,1,160,4|8,1:3|1:0,0:0:0:0:
282,272,181294,1,4,1:3:0:0:
360,240,181474,1,0,0:0:0:0:
224,192,181653,1,8,1:0:0:0:
148,160,181833,1,0,1:0:0:0:
284,120,182013,6,0,P|296:60|296:28,1,80,4|10,1:3|1:0,0:0:0:0:
296,41,182552,1,2,1:3:0:0:
68,132,182731,2,0,P|68:180|84:224,1,80,10|0,1:0|0:0,0:0:0:0:
216,276,183091,2,0,P|216:228|200:184,1,80,2|10,1:3|1:0,0:0:0:0:
206,197,183629,5,8,1:0:0:0:
292,224,183809,2,0,L|384:248,1,80,4|0,1:3|0:0,0:0:0:0:
456,264,184168,2,0,P|440:212|440:160,1,80,4|2,1:3|1:0,0:0:0:0:
324,336,184528,2,0,P|376:324|432:332,1,80,4|0,1:2|0:0,0:0:0:0:
248,292,184887,6,0,P|188:324|88:312,1,160,4|0,1:2|0:0,0:0:0:0:
48,256,185426,1,2,1:3:0:0:
76,176,185606,2,0,P|116:208|136:252,1,80,10|0,1:0|0:0,0:0:0:0:
212,212,185965,2,0,L|232:124,1,80,2|10,1:3|1:0,0:0:0:0:
229,133,186324,2,0,P|280:160|320:160,1,80,0|10,0:0|1:0,0:0:0:0:
360,232,186683,2,0,P|392:200|404:136,1,80,2|0,1:3|0:0,0:0:0:0:
468,72,187043,2,0,L|488:240,1,160,10|2,1:0|1:0,0:0:0:0:
486,230,187761,5,2,1:0:0:0:
420,280,187941,2,0,L|336:264,1,80,10|0,1:0|0:0,0:0:0:0:
272,308,188300,1,2,1:3:0:0:
108,244,188480,2,0,L|272:220,1,160,10|2,1:0|1:3,0:0:0:0:
168,312,189019,1,10,1:0:0:0:
168,312,189378,2,0,P|136:336|80:352,1,80,10|2,1:0|1:3,0:0:0:0:
28,156,189737,5,0,1:0:0:0:
28,156,189827,1,0,1:0:0:0:
28,156,189917,1,4,1:2:0:0:
112,196,190097,1,0,1:0:0:0:
80,280,190276,1,4,1:3:0:0:
0,240,190456,1,8,1:0:0:0:
192,200,190635,6,0,P|304:196|360:196,1,160,4|0,1:2|0:0,0:0:0:0:
368,116,191174,1,4,1:2:0:0:
288,276,191354,2,0,P|240:280|192:276,1,80,10|0,1:0|0:0,0:0:0:0:
196,120,191713,2,0,P|244:116|292:120,1,80,4|10,1:2|1:0,0:0:0:0:
232,196,192073,6,0,B|172:212|136:184|64:200,1,160,0|10,1:0|1:0,0:0:0:0:
16,144,192612,1,2,1:0:0:0:
116,268,192791,2,0,L|92:364,1,80,4|4,1:3|1:2,0:0:0:0:
184,332,193150,2,0,L|212:224,1,80,10|0,1:0|0:0,0:0:0:0:
256,188,193510,5,4,1:2:0:0:
220,116,193689,2,0,P|152:84|124:88,1,80,10|0,1:0|0:0,0:0:0:0:
96,144,194049,1,4,1:2:0:0:
256,188,194228,2,0,P|352:180|400:120,1,160,10|4,1:0|1:2,0:0:0:0:
436,204,194767,2,0,L|400:304,1,80,10|0,1:0|0:0,0:0:0:0:
336,320,195126,5,4,1:2:0:0:
268,276,195306,2,0,L|156:288,1,80,4|2,1:3|1:0,0:0:0:0:
208,112,195665,2,0,L|196:192,1,80,8|4,1:0|1:3,0:0:0:0:
356,212,196025,2,0,L|268:204,1,80,4|0,1:2|0:0,0:0:0:0:
320,132,196384,6,0,P|436:144|512:148,1,160,4|0,1:2|0:0,0:0:0:0:
464,224,196923,1,4,1:2:0:0:
328,288,197103,2,0,P|284:280|240:244,1,80,10|0,1:0|0:0,0:0:0:0:
176,328,197462,2,0,P|220:336|264:372,1,80,4|10,1:2|1:0,0:0:0:0:
180,212,197821,6,0,P|104:272|20:248,2,160,0|10|4,0:0|1:0|1:3,0:0:0:0:
208,136,198719,1,10,1:0:0:0:
320,240,198899,1,4,1:2:0:0:
244,256,199079,1,0,0:0:0:0:
432,180,199258,5,4,1:2:0:0:
460,252,199438,2,0,P|408:280|372:280,1,80,10|0,1:0|0:0,0:0:0:0:
288,152,199797,1,4,1:2:0:0:
244,88,199977,2,0,P|192:60|156:60,1,80,10|0,1:0|0:0,0:0:0:0:
48,216,200336,5,4,1:2:0:0:
96,280,200516,1,10,1:0:0:0:
96,280,200875,1,4,1:2:0:0:
232,204,201055,1,10,1:0:0:0:
276,292,201234,5,2,1:0:0:0:
276,292,201324,1,0,1:0:0:0:
276,292,201414,1,4,1:3:0:0:
312,164,201594,1,10,1:0:0:0:
184,132,201773,1,4,1:3:0:0:
152,260,201953,1,0,1:0:0:0:
152,260,202043,1,0,1:0:0:0:
256,192,202132,12,4,204288,1:2:0:0:
380,272,204647,5,0,1:0:0:0:
416,200,204826,1,0,1:0:0:0:
336,204,205006,1,10,1:0:0:0:
456,268,205186,5,0,0:0:0:0:
376,136,205365,1,2,1:0:0:0:
308,276,205545,1,10,1:0:0:0:
168,132,205904,5,2,1:0:0:0:
64,320,206264,5,2,1:0:0:0:
216,256,206443,5,10,1:0:0:0:
144,220,206623,1,4,1:3:0:0:
148,296,206802,1,10,1:0:0:0:
216,336,206982,1,8,1:0:0:0:
40,204,207162,5,4,1:3:0:0:
40,204,207521,1,0,1:0:0:0:
104,156,207701,1,0,1:0:0:0:
68,84,207880,1,10,1:0:0:0:
4,132,208060,1,0,0:0:0:0:
216,184,208240,5,2,1:0:0:0:
240,104,208419,2,0,P|296:100|352:104,1,80,10|0,1:0|0:0,0:0:0:0:
472,288,208779,2,0,P|416:292|360:288,1,80,2|10,1:0|1:0,0:0:0:0:
252,224,209138,1,0,0:0:0:0:
200,280,209317,2,0,P|136:288|92:376,1,160,4|10,1:3|1:0,0:0:0:0:
248,360,209856,1,0,1:0:0:0:
264,228,210036,6,0,P|268:176|288:56,1,160,4|0,1:3|0:0,0:0:0:0:
384,36,210575,1,0,1:0:0:0:
480,168,210755,1,10,1:0:0:0:
376,136,210934,1,0,0:0:0:0:
472,268,211114,1,4,1:2:0:0:
288,204,211293,6,0,L|120:184,2,160,10|2|4,1:0|1:0|1:3,0:0:0:0:
364,264,212192,2,0,L|352:352,1,80,2|0,1:0|0:0,0:0:0:0:
180,384,212551,2,0,P|168:336|169:304,1,80,10|0,1:0|0:0,0:0:0:0:
336,172,212910,6,0,P|408:180|464:264,2,160,4|4|0,1:3|1:2|0:0,0:0:0:0:
68,236,213808,1,4,1:2:0:0:
68,236,213898,1,0,1:0:0:0:
68,236,213988,2,0,P|36:176|36:60,1,160,4|4,1:3|1:2,0:0:0:0:
168,28,214527,1,10,1:0:0:0:
236,88,214707,2,0,P|232:128|216:168,2,80,8|4|0,1:0|1:2|1:0,0:0:0:0:
280,272,215246,5,10,1:0:0:0:
200,368,215425,1,4,1:2:0:0:
136,256,215605,1,8,1:0:0:0:
332,132,215785,6,0,B|408:120|408:120|488:168,1,160,4|0,1:2|1:0,0:0:0:0:
328,216,216323,1,0,1:0:0:0:
280,272,216503,2,0,L|288:356,1,80,10|0,1:0|0:0,0:0:0:0:
220,152,216862,1,2,1:0:0:0:
152,184,217042,2,0,L|128:344,1,160,10|2,1:0|1:0,0:0:0:0:
156,108,217581,5,10,1:0:0:0:
72,76,217761,1,4,1:3:0:0:
36,168,217940,1,2,1:0:0:0:
124,200,218120,1,8,1:0:0:0:
64,64,218299,5,10,1:0:0:0:
24,168,218479,1,0,1:0:0:0:
244,24,218659,6,0,L|420:40,1,160,4|0,1:3|1:0,0:0:0:0:
332,176,219198,1,0,1:0:0:0:
248,236,219377,2,0,L|264:128,1,80,10|0,1:0|0:0,0:0:0:0:
404,192,219737,1,2,1:0:0:0:
188,308,219916,6,0,P|172:268|172:228,1,80,10|0,1:0|0:0,0:0:0:0:
476,208,220276,2,0,P|474:247|459:284,1,80,10|2,1:0|1:0,0:0:0:0:
320,336,220635,1,4,0:3:0:0:
320,88,220814,2,0,L|336:268,1,160,4|10,1:2|1:0,0:0:0:0:
96,280,221353,5,0,1:0:0:0:
96,280,221443,1,0,1:0:0:0:
96,280,221533,2,0,L|110:120,1,160,4|0,1:3|1:0,0:0:0:0:
200,64,222072,1,0,1:0:0:0:
275,127,222252,1,10,1:0:0:0:
194,58,222611,5,4,1:2:0:0:
283,130,222791,1,10,1:0:0:0:
188,197,222970,1,2,1:0:0:0:
104,116,223150,1,0,0:0:0:0:
192,48,223329,6,0,L|280:64,1,80,8|2,1:0|1:0,0:0:0:0:
336,232,223689,2,0,L|168:204,1,160,4|10,1:2|1:0,0:0:0:0:
104,240,224228,1,10,1:0:0:0:
392,324,224407,6,0,P|436:284|448:256,1,80,4|0,1:2|0:0,0:0:0:0:
288,68,224767,2,0,P|280:136|280:176,1,80,0|8,1:0|1:0,0:0:0:0:
176,364,225126,2,0,P|120:336|92:300,1,80,0|8,0:0|1:0,0:0:0:0:
48,112,225485,2,0,L|144:124,1,80,4|0,1:2|0:0,0:0:0:0:
292,272,225844,5,2,1:0:0:0:
364,236,226024,1,0,1:0:0:0:
328,164,226204,1,8,1:0:0:0:
256,200,226384,1,0,1:0:0:0:
416,176,226563,5,4,1:3:0:0:
416,176,226743,1,0,0:0:0:0:
200,264,226922,5,8,1:0:0:0:
208,132,227102,1,8,1:0:0:0:
256,200,227282,5,4,1:3:0:0:
256,192,227461,12,0,229437,0:0:0:0:
256,192,233030,5,4,1:3:0:0:
260,196,233749,5,0,0:0:0:0:
264,200,234467,5,8,1:0:0:0:
284,280,234647,1,0,1:0:0:0:
276,172,234826,1,8,1:0:0:0:
168,184,235006,1,2,1:3:0:0:
288,144,235186,1,8,1:0:0:0:
356,252,235365,1,0,1:0:0:0:
300,116,235545,1,8,1:0:0:0:
152,112,235725,1,2,1:3:0:0:
312,88,235904,6,0,L|408:80,1,80,4|0,1:2|0:0,0:0:0:0:
488,72,236264,1,0,1:0:0:0:
488,72,236443,1,8,1:0:0:0:
408,204,236623,2,0,P|320:192|248:216,1,160,8|0,1:0|1:0,0:0:0:0:
180,168,237162,2,0,P|172:100|180:64,1,80,8|0,1:0|0:0,0:0:0:0:
88,244,237521,1,4,1:3:0:0:
144,296,237701,2,0,L|248:304,1,80,8|0,1:0|0:0,0:0:0:0:
396,312,238060,5,0,1:0:0:0:
312,344,238240,1,8,1:0:0:0:
320,176,238419,1,4,1:3:0:0:
316,260,238599,1,8,1:0:0:0:
232,224,238779,6,0,P|236:148|240:32,1,160,4|2,1:3|1:0,0:0:0:0:
156,68,239317,1,2,1:0:0:0:
116,152,239497,2,0,L|120:252,1,80,10|0,1:0|0:0,0:0:0:0:
32,144,239856,1,2,1:0:0:0:
32,144,240036,2,0,L|40:324,1,160,10|0,1:0|1:0,0:0:0:0:
120,344,240575,5,10,1:0:0:0:
196,304,240755,1,0,1:0:0:0:
196,304,240844,1,0,1:0:0:0:
196,304,240934,2,0,P|272:296|304:280,1,80,4|0,1:2|1:0,0:0:0:0:
380,168,241293,2,0,L|216:216,1,160,4|4,1:3|1:2,0:0:0:0:
68,72,242012,5,2,1:0:0:0:
140,112,242192,1,2,1:0:0:0:
140,112,242371,2,0,P|204:124|316:120,1,160,10|2,1:0|1:0,0:0:0:0:
384,96,242910,2,0,L|368:184,1,80,10|0,1:0|0:0,0:0:0:0:
228,276,243270,1,2,1:0:0:0:
228,276,243449,2,0,L|248:168,1,80,10|8,1:0|1:0,0:0:0:0:
312,252,243808,5,4,1:3:0:0:
144,304,243988,1,10,1:0:0:0:
296,332,244168,1,2,1:0:0:0:
156,220,244347,1,8,1:0:0:0:
92,160,244527,6,0,P|76:220|72:256,1,80,4|0,1:3|0:0,0:0:0:0:
252,196,244886,2,0,P|268:136|272:100,1,80,2|0,1:0|0:0,0:0:0:0:
188,112,245246,2,0,L|356:92,1,160,8|2,1:0|1:0,0:0:0:0:
252,196,245785,2,0,L|352:188,1,80,10|0,1:0|0:0,0:0:0:0:
216,296,246144,1,0,1:0:0:0:
216,296,246323,2,0,P|304:280|408:280,1,160,10|4,1:0|1:2,0:0:0:0:
436,328,246862,5,0,1:0:0:0:
492,176,247042,1,8,1:0:0:0:
348,104,247222,1,10,1:0:0:0:
272,152,247401,6,0,P|184:144|112:140,1,160,4|2,1:3|1:0,0:0:0:0:
112,140,247940,1,2,1:0:0:0:
36,288,248120,2,0,P|128:300|200:248,1,160,10|0,1:0|1:0,0:0:0:0:
224,344,248659,2,0,L|304:360,1,80,10|0,1:0|0:0,0:0:0:0:
384,256,249018,1,0,1:0:0:0:
384,256,249198,2,0,P|344:264|300:268,1,80,4|0,1:2|1:0,0:0:0:0:
232,216,249557,5,8,1:0:0:0:
216,188,249647,1,0,0:0:0:0:
216,156,249737,1,4,1:3:0:0:
228,128,249826,1,0,1:0:0:0:
256,112,249916,1,8,1:0:0:0:
224,36,250096,1,8,1:0:0:0:
376,80,250276,6,0,L|396:296,1,191.999994140625,4|0,1:3|0:0,0:0:0:0:
248,360,250814,6,0,B|156:340|156:340|52:368,1,191.999994140625,4|0,1:3|1:0,0:0:0:0:
16,304,251353,1,2,1:0:0:0:
164,212,251533,6,0,L|181:20,1,191.999994140625,4|0,1:2|1:0,0:0:0:0:
252,177,252072,2,0,B|279:276|279:276|244:369,1,191.999994140625,4|0,1:3|0:0,0:0:0:0:
248,96,252611,6,0,P|324:108|348:224,1,191.999994140625,4|0,1:3|0:0,0:0:0:0:
404,268,253150,1,4,1:2:0:0:
460,216,253329,1,0,1:0:0:0:
468,180,253419,1,0,1:0:0:0:
460,144,253509,1,0,1:0:0:0:
300,24,253689,6,0,L|80:48,1,191.999994140625,4|0,1:3|0:0,0:0:0:0:
52,96,254228,1,2,1:0:0:0:
212,360,254407,2,0,L|432:336,1,191.999994140625,4|0,1:2|1:0,0:0:0:0:
136,128,254946,6,0,P|128:224|212:288,1,191.999994140625,4|0,1:3|0:0,0:0:0:0:
372,244,255485,2,2,P|380:148|296:84,1,191.999994140625,4|10,1:2|1:0,1:1:0:0:
224,24,256024,6,0,B|160:24|160:24|104:56|104:56|28:56,1,191.999994140625,4|0,3:0|0:0,0:0:0:0:
76,264,256563,2,0,L|248:160,1,191.999994140625,4|0,1:3|0:0,0:0:0:0:
284,100,257102,1,2,1:0:0:0:
512,280,257282,6,0,P|432:272|404:156,1,191.999994140625,4|0,1:2|1:0,0:0:0:0:
472,92,257820,2,0,P|472:156|476:196,1,95.9999970703126,4|0,1:3|0:0,0:0:0:0:
348,292,258180,1,0,1:0:0:0:
268,308,258359,2,0,P|271:260|258:112,1,191.999994140625,4|0,1:3|0:0,0:0:0:0:
80,248,258898,6,0,P|160:256|188:372,1,191.999994140625,4|0,1:2|0:0,0:0:0:0:
12,300,259437,1,4,1:3:0:0:
12,212,259617,2,0,P|16:136|16:92,1,95.9999970703126,0|0,0:0|0:0,0:0:0:0:
152,20,259976,5,8,1:0:0:0:
136,152,260156,1,8,1:0:0:0:
152,284,260335,1,4,1:2:0:0:
256,192,260425,12,0,261773,0:0:0:0:
256,192,262491,5,0,0:0:0:0:
256,192,263210,6,0,L|76:208,1,160,4|0,1:2|0:0,0:0:0:0:
252,272,263749,1,8,1:0:0:0:
332,248,263928,2,0,P|400:252|456:272,1,120,0|0,1:3|0:0,0:0:0:0:
476,300,264287,2,0,L|452:216,1,80,8|8,1:0|1:0,0:0:0:0:
328,32,264647,6,0,P|336:80|332:128,1,80,4|0,1:2|1:0,0:0:0:0:
208,244,265006,2,0,P|200:196|204:148,1,80,8|0,1:0|0:0,0:0:0:0:
296,200,265365,2,0,P|304:248|300:296,1,80,4|0,1:2|1:0,0:0:0:0:
132,360,265724,2,0,P|124:312|128:264,1,80,8|8,1:0|1:0,0:0:0:0:
176,208,266084,6,0,P|264:208|308:264,1,160,4|8,1:2|1:0,0:0:0:0:
304,340,266623,1,8,1:0:0:0:
384,220,266802,2,0,L|356:92,1,120,0|0,0:0|0:0,0:0:0:0:
368,64,267162,2,0,P|328:84|280:88,1,80,8|8,1:0|1:0,0:0:0:0:
260,84,267431,5,0,0:0:0:0:
232,68,267521,1,4,1:2:0:0:
156,136,267701,1,0,0:0:0:0:
196,232,267880,2,0,P|248:256|296:256,1,80,8|8,1:0|1:0,0:0:0:0:
424,224,268240,5,4,0:2:0:0:
412,304,268419,1,0,0:0:0:0:
336,324,268599,1,4,0:3:0:0:
348,248,268779,1,8,0:0:0:0:
492,276,268958,6,0,P|512:216|448:140,1,160,4|8,0:2|0:0,0:0:0:0:
390,91,269497,2,0,P|370:151|434:227,1,160,4|10,0:2|0:0,0:0:0:0:
288,168,270036,2,0,L|316:268,1,80,8|0,0:0|0:0,0:0:0:0:
220,112,270395,5,4,0:2:0:0:
160,232,270575,1,0,0:0:0:0:
80,128,270755,1,8,0:0:0:0:
220,112,270934,2,0,L|388:92,2,160,4|8|0,0:2|0:0|0:0,0:0:0:0:
156,52,271832,6,0,P|144:88|132:148,1,80,4|0,0:2|0:0,0:0:0:0:
172,204,272192,1,4,0:3:0:0:
188,288,272371,1,8,0:0:0:0:
188,288,272461,1,0,0:0:0:0:
188,288,272551,1,4,0:2:0:0:
104,264,272731,1,0,0:0:0:0:
264,228,272910,1,8,0:0:0:0:
132,360,273090,6,0,P|208:376|276:312,1,160,4|0,0:3|0:0,0:0:0:0:
344,200,273629,1,0,0:0:0:0:
204,152,273808,1,8,0:0:0:0:
204,152,273898,1,0,0:0:0:0:
204,152,273988,1,8,0:0:0:0:
248,248,274168,6,0,P|204:244|132:272,1,120.000004577637,4|0,0:2|1:0,0:0:0:0:
108,296,274617,1,0,1:0:0:0:
108,296,274707,2,0,L|96:208,1,80,4|0,1:2|0:0,0:0:0:0:
40,140,275066,2,0,P|88:136|128:128,1,80,8|8,0:0|0:0,0:0:0:0:
332,104,275425,2,0,P|284:136|224:132,1,120,0|0,0:0|0:0,0:0:0:0:
208,104,275785,2,0,L|240:188,1,80,8|8,0:0|0:0,0:0:0:0:
248,208,276054,5,0,0:0:0:0:
260,236,276144,2,0,B|348:248|320:192|428:204,2,160,4|8|4,0:2|0:0|0:3,0:0:0:0:
180,212,277042,1,0,0:0:0:0:
248,355,277222,1,8,0:0:0:0:
248,355,277581,6,0,L|260:235,1,120,4|0,0:2|0:0,0:0:0:0:
284,264,277940,2,0,L|272:164,1,80,8|8,0:0|0:0,0:0:0:0:
268,152,278210,1,0,0:0:0:0:
262,120,278299,1,0,0:0:0:0:
340,72,278479,1,0,0:0:0:0:
184,148,278659,2,0,P|140:148|100:128,1,80,8|8,0:0|0:0,0:0:0:0:
72,60,279018,5,4,0:2:0:0:
128,228,279198,1,8,0:0:0:0:
40,200,279377,5,4,0:2:0:0:
184,148,279557,1,8,0:0:0:0:
96,136,279737,5,4,0:2:0:0:
152,308,279916,1,4,0:3:0:0:
60,288,280096,5,0,0:0:0:0:
212,236,280276,1,0,1:3:0:0:
212,236,280365,1,0,1:0:0:0:
212,236,280455,2,0,P|280:240|332:352,1,191.999994140625,4|0,0:3|0:0,0:0:0:0:
412,296,280994,2,0,P|408:224|412:96,1,191.999994140625,10|10,0:0|0:0,0:0:0:0:
328,140,281533,5,8,0:0:0:0:
336,60,281713,2,0,P|288:56|200:164,1,191.999994140625,4|10,0:2|0:0,0:0:0:0:
16,196,282252,5,10,0:0:0:0:
108,172,282431,2,0,P|100:236|96:296,1,95.9999970703126,8|4,0:0|0:3,0:0:0:0:
97,267,282701,1,0,0:0:0:0:
97,267,282790,1,0,0:0:0:0:
132,264,282880,1,0,0:0:0:0:
164,264,282970,1,4,0:3:0:0:
196,272,283060,1,0,0:0:0:0:
224,292,283150,1,8,0:0:0:0:
244,320,283240,1,0,0:0:0:0:
252,352,283329,2,0,P|328:348|372:280,1,160,4|0,0:2|0:0,0:0:0:0:
304,232,283868,6,0,P|308:164|296:64,1,160,10|2,0:0|0:0,0:0:0:0:
228,36,284407,1,10,0:0:0:0:
148,52,284587,1,0,0:0:0:0:
36,188,284767,5,2,0:0:0:0:
116,176,284946,1,0,0:0:0:0:
172,256,285126,1,10,0:0:0:0:
92,272,285305,2,0,P|96:328|188:380,1,160,10|2,0:0|0:0,0:0:0:0:
256,256,285844,2,0,P|252:308|252:356,1,80,10|2,0:0|0:0,0:0:0:0:
336,292,286204,6,0,P|340:228|332:124,1,160,4|10,0:2|0:0,0:0:0:0:
116,204,286743,2,0,L|36:196,1,80,10|0,0:0|0:0,0:0:0:0:
208,24,287102,2,0,P|216:72|216:112,1,80,10|10,0:0|0:0,0:0:0:0:
144,280,287461,6,0,B|224:260|224:260|300:288,1,160,4|8,0:2|0:0,0:0:0:0:
368,256,288000,1,4,0:2:0:0:
432,316,288180,1,0,0:0:0:0:
432,316,288270,1,0,0:0:0:0:
432,316,288359,1,4,0:3:0:0:
492,216,288539,6,0,L|500:52,1,160,4|8,0:2|0:0,0:0:0:0:
432,16,289078,1,4,0:3:0:0:
360,24,290515,1,0,2:0:0:0:
288,32,291773,1,2,2:0:0:0:
256,192,291952,12,0,293389,0:0:0:0:
256,136,293569,5,8,1:0:0:0:
200,192,293749,1,0,1:0:0:0:
256,248,293928,1,8,1:0:0:0:
312,192,294108,1,0,1:0:0:0:
220,116,294287,5,8,1:0:0:0:
208,276,294467,1,0,1:0:0:0:
352,212,294646,1,8,1:0:0:0:
256,192,294826,6,0,L|164:204,1,80,4|0,1:3|1:0,0:0:0:0:
256,192,295186,2,0,L|348:180,1,80,0|0,1:0|1:0,1:1:0:0:
196,120,295545,1,8,1:0:0:0:
312,264,295725,1,0,0:0:0:0:
176,202,295904,6,0,L|88:178,1,80,0|8,1:0|1:0,0:0:0:0:
335,181,296264,2,0,L|423:205,1,80,0|0,0:0|1:0,0:0:0:0:
256,192,296623,1,8,1:0:0:0:
256,192,296802,1,0,0:0:0:0:
168,144,296982,5,4,1:2:0:0:
308,104,297162,1,0,0:0:0:0:
344,248,297341,1,8,1:0:0:0:
204,288,297521,1,0,1:0:0:0:
396,148,297701,6,0,P|456:208|444:288,1,160,4|0,1:2|1:0,0:0:0:0:
392,336,298240,1,0,1:0:0:0:
296,196,298419,2,0,P|284:156|288:108,1,80,8|0,1:0|0:0,0:0:0:0:
368,32,298779,5,0,1:0:0:0:
368,32,298958,1,8,1:0:0:0:
368,32,299138,2,0,L|268:44,1,80,0|0,0:0|1:0,0:0:0:0:
164,144,299497,1,8,1:0:0:0:
104,76,299677,5,0,1:0:0:0:
136,64,299767,1,0,1:0:0:0:
168,52,299856,1,4,1:2:0:0:
296,160,300036,1,0,0:0:0:0:
240,92,300216,5,8,1:0:0:0:
256,288,300395,1,0,1:0:0:0:
180,232,300575,6,0,P|96:236|8:232,1,160,4|10,1:2|1:0,0:0:0:0:
56,160,301114,1,2,1:0:0:0:
276,192,301293,2,0,P|328:184|376:144,1,80,8|0,1:0|0:0,0:0:0:0:
420,52,301653,5,0,1:0:0:0:
488,168,301832,1,10,1:0:0:0:
352,172,302012,1,2,1:0:0:0:
496,88,302192,5,2,1:0:0:0:
420,216,302372,1,8,1:0:0:0:
340,88,302551,1,0,1:0:0:0:
308,96,302641,1,0,1:0:0:0:
276,104,302731,1,10,1:0:0:0:
208,48,302910,5,2,1:0:0:0:
288,196,303090,1,10,1:0:0:0:
128,176,303270,1,0,0:0:0:0:
216,132,303449,5,4,1:2:0:0:
216,132,303629,1,2,1:0:0:0:
216,132,303808,2,0,L|208:232,1,80,10|2,1:0|1:0,0:0:0:0:
272,288,304168,2,0,P|216:248|128:264,1,160,8|4,1:0|1:2,0:0:0:0:
60,320,304707,5,10,1:0:0:0:
60,320,304796,1,0,1:0:0:0:
60,320,304886,1,2,1:0:0:0:
124,176,305066,1,10,1:0:0:0:
124,176,305246,1,4,1:3:0:0:
16,240,305425,1,0,1:0:0:0:
232,248,305605,5,8,1:0:0:0:
156,268,305785,1,4,1:3:0:0:
484,196,305964,5,4,1:2:0:0:
484,196,306323,5,4,1:2:0:0:
404,208,306503,1,0,0:0:0:0:
324,220,306683,1,0,1:0:0:0:
196,172,306862,5,0,1:0:0:0:
108,152,307042,2,0,P|100:200|104:244,1,80,8|0,1:0|0:0,0:0:0:0:
272,108,307401,5,0,1:0:0:0:
348,128,307581,1,8,1:0:0:0:
324,52,307761,1,0,0:0:0:0:
248,272,307940,5,0,1:0:0:0:
328,268,308120,2,0,P|336:316|332:360,1,80,8|0,1:0|0:0,0:0:0:0:
136,356,308479,5,4,1:2:0:0:
60,284,308659,1,0,1:0:0:0:
156,244,308838,1,8,1:0:0:0:
280,109,309018,5,0,0:0:0:0:
356,129,309198,1,4,1:2:0:0:
328,268,309377,1,0,0:0:0:0:
384,213,309557,1,0,1:0:0:0:
209,181,309737,1,0,1:0:0:0:
229,257,309917,1,8,1:0:0:0:
296,188,310096,5,0,0:0:0:0:
296,188,310276,2,0,P|296:132|288:96,1,80,0|8,1:0|1:0,0:0:0:0:
124,16,310635,1,0,0:0:0:0:
96,88,310814,2,0,P|90:127|96:192,1,80,0|8,1:0|1:0,0:0:0:0:
200,324,311174,5,0,0:0:0:0:
204,240,311353,2,0,L|124:280,1,80,4|0,1:2|1:0,0:0:0:0:
268,284,311713,2,0,P|308:240|304:140,1,160,4|4,1:3|1:2,0:0:0:0:
232,112,312252,5,2,1:0:0:0:
292,28,312431,2,0,L|352:84,1,80,2|2,1:0|1:0,0:0:0:0:
208,32,312790,2,0,P|144:52|108:144,1,160,8|2,1:0|1:0,0:0:0:0:
188,296,313329,5,10,1:0:0:0:
84,236,313509,1,2,1:0:0:0:
112,336,313689,1,2,1:0:0:0:
264,260,313868,2,0,P|320:248|424:260,1,160,8|2,1:0|1:0,0:0:0:0:
480,204,314407,1,10,1:0:0:0:
344,100,314587,2,0,P|368:144|380:176,1,80,4|0,1:3|0:0,0:0:0:0:
252,188,314946,5,4,1:2:0:0:
268,108,315126,1,2,1:0:0:0:
252,28,315305,1,4,1:2:0:0:
56,176,315485,2,0,B|44:216|44:216|60:280,2,80,2|8|8,1:0|1:0|1:0,0:0:0:0:
204,336,316024,5,4,1:2:0:0:
264,284,316204,2,0,L|344:300,1,80,10|2,1:0|1:0,0:0:0:0:
416,264,316563,1,8,1:0:0:0:
416,264,316743,1,8,1:0:0:0:
264,96,316922,5,8,1:0:0:0:
224,104,317012,1,0,1:0:0:0:
184,112,317102,1,4,1:3:0:0:
132,172,317282,5,10,1:0:0:0:
264,280,317461,5,4,1:3:0:0:
408,188,317641,5,4,1:3:0:0:
