osu file format v14

[General]
AudioFilename: audio.mp3
AudioLeadIn: 0
PreviewTime: 124438
Countdown: 0
SampleSet: Soft
StackLeniency: 0.7
Mode: 0
LetterboxInBreaks: 0
WidescreenStoryboard: 1

[Editor]
DistanceSpacing: 1.8
BeatDivisor: 4
GridSize: 8
TimelineZoom: 2.5

[Metadata]
Title:Messiah
TitleUnicode:Messiah
Artist:Liz Triangle
ArtistUnicode:Liz Triangle
Creator:Luscent
Version:Desire
Source:東方地霊殿 ~ Subterranean Animism.
Tags:東方Project kaztora eba Misaki Nakajima Peko lily-an ハルトマンの妖怪少女 Koishi Komeiji ラストリモート 古明地 こいし B2 Chireiden Earth Spirit Palace Touhou ZUN Team Shanghai Alice TH11 TH 11 Last Remote Hartmann's Youkai Girl LTCD-0010 Kouroumu 6 K6 SA japanese video game eiri- Natteke desu
BeatmapID:2306846
BeatmapSetID:1104025

[Difficulty]
HPDrainRate:5
CircleSize:4
OverallDifficulty:8
ApproachRate:8
SliderMultiplier:1.4
SliderTickRate:1

[Events]
//Background and Video events
0,0,"672585.jpg",0,0
//Break Periods
//Storyboard Layer 0 (Background)
//Storyboard Layer 1 (Fail)
//Storyboard Layer 2 (Pass)
//Storyboard Layer 3 (Foreground)
//Storyboard Layer 4 (Overlay)
//Storyboard Sound Samples

[TimingPoints]
1506,600,4,2,2,30,1,0
2106,535.714285714286,4,2,2,30,1,0
2642,534.283170080142,4,2,2,30,1,0
15464,625,4,2,1,55,1,0
16714,504.201680672269,4,2,1,55,1,0
18731,359.281437125748,4,2,1,55,1,0
19628,359.281437125748,4,2,1,55,1,1
19628,-83.3333333333333,4,2,1,55,0,1
30406,-83.3333333333333,4,2,1,55,0,0
31125,-83.3333333333333,4,2,1,55,0,1
42622,-83.3333333333333,4,2,1,55,0,0
54119,-83.3333333333333,4,2,1,75,0,1
54163,-83.3333333333333,4,2,1,55,0,1
56274,-83.3333333333333,4,2,1,55,0,0
56993,-83.3333333333333,4,2,1,55,0,1
58430,-83.3333333333333,4,2,1,55,0,0
59867,-133.333333333333,4,2,1,40,0,0
81963,-66.6666666666667,4,2,1,60,0,0
82322,-66.6666666666667,4,2,1,5,0,0
82412,-66.6666666666667,4,2,1,60,0,0
82592,-66.6666666666667,4,2,1,5,0,0
82681,-66.6666666666667,4,2,1,60,0,0
82861,-83.3333333333333,4,2,1,55,0,0
105855,-250,4,2,2,40,0,0
110166,-250,4,2,1,45,0,0
110885,-250,4,2,1,50,0,0
111604,-83.3333333333333,4,2,1,55,0,0
123460,-83.3333333333333,4,2,2,55,0,0
123999,-250,4,2,2,55,0,0
124538,-62.5,4,2,1,75,0,1
125256,-83.3333333333333,4,2,1,75,0,1
127232,-62.5,4,2,1,75,0,1
127681,-83.3333333333333,4,2,1,75,0,1
130107,-62.5,4,2,1,75,0,1
130556,-83.3333333333333,4,2,1,75,0,1
135496,-83.3333333333333,4,2,1,55,0,0
136035,-62.5,4,2,1,55,0,1
136574,-83.3333333333333,4,2,1,75,0,1
138729,-62.5,4,2,1,75,0,1
139178,-83.3333333333333,4,2,1,75,0,1
141604,-62.5,4,2,1,75,0,1
142053,-83.3333333333333,4,2,1,75,0,1
147532,-83.3333333333333,4,2,1,75,0,0
149687,-83.3333333333333,4,2,2,55,0,0
150047,-83.3333333333333,4,2,1,55,0,0
150406,-100,4,2,1,55,0,0
173400,-250,4,2,1,55,0,0
179148,-83.3333333333333,4,2,1,55,0,0
203580,-250,4,2,66,100,0,0
203625,-250,4,2,1,100,0,0
203939,-250,4,2,1,35,0,0
204118,-250,4,2,1,45,0,0
204298,359.281437125748,4,2,1,75,1,1
204298,-62.5,4,2,1,75,0,1
204657,-83.3333333333333,4,2,1,75,0,1
206992,-62.5,4,2,1,75,0,1
207441,-83.3333333333333,4,2,1,75,0,1
209866,-62.5,4,2,1,75,0,1
210405,-83.3333333333333,4,2,1,75,0,1
215076,-83.3333333333333,4,2,1,55,0,0
215795,-62.5,4,2,1,75,0,1
216154,-83.3333333333333,4,2,1,75,0,1
218669,-62.5,4,2,1,75,0,1
219028,-83.3333333333333,4,2,1,75,0,1
221543,-62.5,4,2,1,75,0,1
221902,-83.3333333333333,4,2,1,75,0,1
227292,-83.3333333333333,4,2,1,75,0,0
230166,-83.3333333333333,4,2,1,55,0,0
234477,-83.3333333333333,4,2,1,40,0,0
234836,-83.3333333333333,4,2,1,50,0,0
235196,-83.3333333333333,4,2,1,60,0,0
235555,-83.3333333333333,4,2,1,70,0,0
235914,-83.3333333333333,4,2,1,60,0,0
238789,-83.3333333333333,4,2,1,65,0,0
250286,-71.4285714285714,4,2,1,65,0,0
250555,-71.4285714285714,4,2,1,5,0,0
250645,-71.4285714285714,4,2,1,65,0,0
251094,-71.4285714285714,4,2,1,5,0,0
251184,-71.4285714285714,4,2,1,65,0,0
251812,-71.4285714285714,4,2,1,5,0,0
251902,-71.4285714285714,4,2,1,65,0,0
252351,-71.4285714285714,4,2,1,5,0,0
252441,-71.4285714285714,4,2,1,65,0,0
252890,-71.4285714285714,4,2,1,5,0,0
252980,-71.4285714285714,4,2,1,65,0,0
253429,-71.4285714285714,4,2,1,5,0,0
253519,-71.4285714285714,4,2,1,65,0,0
253968,-71.4285714285714,4,2,1,5,0,0
254058,-71.4285714285714,4,2,1,65,0,0
254687,-71.4285714285714,4,2,1,5,0,0
254777,-71.4285714285714,4,2,1,65,0,0
255226,-71.4285714285714,4,2,1,5,0,0
255315,-71.4285714285714,4,2,1,65,0,0
255765,-71.4285714285714,4,2,1,5,0,0
255854,-71.4285714285714,4,2,1,65,0,0
256303,-71.4285714285714,4,2,1,5,0,0
256393,-71.4285714285714,4,2,1,65,0,0
256842,-71.4285714285714,4,2,1,5,0,0
256932,-71.4285714285714,4,2,1,65,0,0
257561,-71.4285714285714,4,2,1,5,0,0
257651,-71.4285714285714,4,2,1,65,0,0
258100,-71.4285714285714,4,2,1,5,0,0
258190,-71.4285714285714,4,2,1,65,0,0
258639,-71.4285714285714,4,2,1,5,0,0
258729,-71.4285714285714,4,2,1,65,0,0
259178,-71.4285714285714,4,2,1,5,0,0
259268,-71.4285714285714,4,2,1,65,0,0
259717,-71.4285714285714,4,2,1,5,0,0
259806,-71.4285714285714,4,2,1,65,0,0
260345,-1000,4,2,1,55,0,0
261693,-1000,4,2,1,10,0,0
263220,-71.4285714285714,4,1,1,75,0,1
266363,-71.4285714285714,4,2,1,75,0,1
266453,-71.4285714285714,4,1,1,75,0,1
266812,-71.4285714285714,4,2,1,75,0,1
266992,-71.4285714285714,4,1,1,75,0,1
267082,-71.4285714285714,4,2,1,75,0,1
267172,-71.4285714285714,4,1,1,75,0,1
267800,-71.4285714285714,4,2,1,75,0,1
267890,-71.4285714285714,4,1,1,75,0,1
273100,-71.4285714285714,4,1,1,75,0,0
274178,-200,4,1,1,75,0,0
274627,-71.4285714285714,4,1,1,75,0,0
274717,-71.4285714285714,4,1,1,75,0,1
278669,-71.4285714285714,4,1,1,75,0,0
279028,-71.4285714285714,4,1,1,75,0,1
279926,-71.4285714285714,4,1,1,75,0,0
280465,-71.4285714285714,4,1,1,75,0,1
282621,-71.4285714285714,4,1,1,75,0,0
283339,-71.4285714285714,4,1,1,75,0,1
288549,-64.5161290322581,4,1,1,75,0,1
289088,-666.666666666667,4,1,1,45,0,0
289133,-666.666666666667,4,1,1,5,0,0
290525,-666.666666666667,4,1,1,45,0,0
290570,-666.666666666667,4,1,1,5,0,0
291962,-1000,4,2,1,45,0,0
292007,-1000,4,2,1,5,0,0
293579,-71.4285714285714,4,2,1,50,0,0
293938,-71.4285714285714,4,2,1,60,0,0
294297,-71.4285714285714,4,2,1,70,0,0
294836,-83.3333333333333,4,2,1,75,0,1
295734,-83.3333333333333,4,1,1,75,0,1
295914,-83.3333333333333,4,2,1,75,0,1
296902,-83.3333333333333,4,1,1,75,0,1
296992,-83.3333333333333,4,2,1,75,0,1
297890,-83.3333333333333,4,1,1,75,0,1
298070,-83.3333333333333,4,2,1,75,0,1
299777,-83.3333333333333,4,1,1,75,0,1
299866,-83.3333333333333,4,2,1,75,0,1
300046,-83.3333333333333,4,1,1,75,0,1
300226,-83.3333333333333,4,2,1,75,0,1
305974,-83.3333333333333,4,2,1,75,0,0
306333,-83.3333333333333,4,2,1,75,0,1
317112,-83.3333333333333,4,2,1,80,0,1
317471,-83.3333333333333,4,2,1,90,0,1
317651,-83.3333333333333,4,2,1,90,0,0

[Colours]
Combo1 : 84,81,213
Combo2 : 148,65,133
Combo3 : 212,172,209
Combo4 : 87,194,226
Combo5 : 156,241,243
Combo6 : 247,244,232
Combo7 : 169,250,177

[HitObjects]
256,192,16714,12,0,18604,0:0:0:0:
262,146,18790,5,0,3:0:0:0:
262,146,18850,1,0,3:0:0:0:
262,146,18910,1,4,1:3:0:0:
190,251,19179,1,4,1:3:0:0:
278,339,19448,1,4,1:3:0:0:
57,81,19628,6,0,P|107:87|165:74,1,83.9999974365235,4|0,1:2|0:0,0:0:0:0:
15,152,19987,1,0,1:0:0:0:
178,13,20166,1,0,1:0:0:0:
254,37,20346,1,10,1:0:0:0:
444,339,20705,85,2,1:0:0:0:
360,331,20885,1,8,1:0:0:0:
366,247,21065,1,0,0:0:0:0:
450,255,21245,1,0,1:0:0:0:
339,350,21424,1,10,1:0:0:0:
126,111,21604,5,0,1:0:0:0:
126,111,21693,1,0,1:0:0:0:
126,111,21783,1,2,1:0:0:0:
153,246,21962,1,0,1:0:0:0:
47,329,22142,1,8,1:0:0:0:
254,254,22322,1,0,0:0:0:0:
437,112,22502,86,0,P|387:118|329:105,1,83.9999974365235,4|0,1:2|0:0,0:0:0:0:
479,183,22861,1,0,1:0:0:0:
316,44,23040,1,0,1:0:0:0:
240,68,23220,1,10,1:0:0:0:
91,308,23580,5,0,1:0:0:0:
170,351,23759,1,10,1:0:0:0:
277,302,23939,1,0,0:0:0:0:
191,375,24119,1,8,1:0:0:0:
20,277,24298,1,10,1:0:0:0:
330,163,24478,85,0,1:0:0:0:
330,163,24568,1,0,1:0:0:0:
330,163,24657,1,2,1:0:0:0:
183,227,24836,1,8,1:0:0:0:
283,155,25016,1,4,1:2:0:0:
234,239,25195,1,0,0:0:0:0:
100,120,25376,6,0,P|52:141|-6:134,1,83.9999974365235,4|0,1:2|0:0,0:0:0:0:
10,238,25735,1,2,1:0:0:0:
38,59,25915,1,0,1:0:0:0:
183,105,26095,1,10,1:0:0:0:
38,59,26274,1,0,0:0:0:0:
219,220,26454,85,2,1:0:0:0:
301,203,26633,1,10,1:0:0:0:
285,121,26813,1,0,1:0:0:0:
202,137,26993,1,10,1:0:0:0:
332,220,27172,1,2,1:0:0:0:
255,326,27352,5,0,1:0:0:0:
255,326,27442,1,0,1:0:0:0:
255,326,27532,1,2,1:0:0:0:
467,213,27711,1,0,1:0:0:0:
415,317,27891,2,0,P|376:306|301:291,1,83.9999974365235,10|0,1:0|0:0,0:0:0:0:
107,344,28250,85,4,1:2:0:0:
87,202,28430,1,0,0:0:0:0:
185,97,28610,1,2,1:0:0:0:
199,194,28789,5,4,1:2:0:0:
171,0,28969,1,0,0:0:0:0:
102,109,29148,1,0,1:0:0:0:
404,141,29328,85,2,1:0:0:0:
279,173,29508,1,4,1:2:0:0:
279,173,29598,1,0,1:0:0:0:
279,173,29687,1,8,1:0:0:0:
189,93,29867,1,10,1:0:0:0:
408,237,30047,2,0,P|359:244|292:279,1,83.9999974365235,4|8,1:2|1:0,0:0:0:0:
310,291,30316,5,0,1:0:0:0:
310,291,30406,1,4,1:3:0:0:
489,247,30586,1,8,1:0:0:0:
454,66,30765,1,8,1:0:0:0:
75,284,31125,86,0,P|123:278|180:254,1,83.9999974365235,4|0,1:2|0:0,0:0:0:0:
148,352,31484,1,0,1:0:0:0:
97,201,31663,1,0,1:0:0:0:
254,173,31843,1,10,1:0:0:0:
246,250,32023,1,0,0:0:0:0:
246,96,32202,5,2,1:0:0:0:
385,257,32382,1,8,1:0:0:0:
178,208,32561,1,0,0:0:0:0:
374,125,32741,1,0,1:0:0:0:
264,309,32921,1,10,1:0:0:0:
21,205,33101,85,0,1:0:0:0:
21,205,33190,1,0,1:0:0:0:
21,205,33280,1,10,1:0:0:0:
91,282,33460,1,0,1:0:0:0:
178,208,33639,2,0,P|134:202|78:170,1,83.9999974365235,8|0,1:0|0:0,0:0:0:0:
197,351,33999,5,4,1:2:0:0:
164,117,34178,1,0,0:0:0:0:
283,279,34358,1,0,1:0:0:0:
283,279,34538,1,0,1:0:0:0:
365,194,34717,1,10,1:0:0:0:
462,240,34897,1,0,0:0:0:0:
492,122,35077,85,0,1:0:0:0:
445,319,35256,1,10,1:0:0:0:
306,197,35436,1,0,0:0:0:0:
326,276,35616,1,0,1:0:0:0:
187,230,35795,1,10,1:0:0:0:
245,316,35975,5,0,1:0:0:0:
245,316,36065,1,0,1:0:0:0:
245,316,36154,1,4,1:3:0:0:
237,164,36334,1,4,1:2:0:0:
229,12,36514,1,8,1:0:0:0:
17,184,36873,85,4,1:2:0:0:
90,253,37053,1,0,0:0:0:0:
187,230,37232,1,2,1:0:0:0:
132,359,37412,1,0,1:0:0:0:
91,176,37592,2,0,P|96:133|135:55,1,83.9999974365235,10|0,1:0|0:0,0:0:0:0:
300,117,37951,5,2,1:0:0:0:
370,34,38130,1,10,1:0:0:0:
191,104,38310,1,0,0:0:0:0:
380,190,38490,1,2,1:0:0:0:
258,50,38669,2,0,P|212:28|146:24,1,83.9999974365235,8|0,1:0|0:0,0:0:0:0:
206,231,39029,85,2,1:0:0:0:
314,126,39208,1,0,1:0:0:0:
464,144,39388,1,10,1:0:0:0:
69,343,39747,5,4,1:2:0:0:
50,218,39927,1,0,0:0:0:0:
151,142,40107,1,10,1:0:0:0:
165,230,40286,85,4,1:2:0:0:
137,54,40466,1,0,0:0:0:0:
179,318,40645,1,0,0:0:0:0:
326,102,40825,5,4,1:2:0:0:
296,259,41005,1,2,1:0:0:0:
408,160,41184,1,2,1:0:0:0:
487,211,41364,1,10,1:0:0:0:
511,189,41544,1,4,1:2:0:0:
365,342,41723,85,8,1:0:0:0:
365,342,41813,1,0,1:0:0:0:
365,342,41903,1,4,1:3:0:0:
294,267,42083,1,8,1:0:0:0:
178,211,42262,1,4,1:2:0:0:
22,203,42442,1,8,1:0:0:0:
393,234,42622,85,4,1:3:0:0:
256,192,45496,5,4,1:0:0:0:
256,192,48370,5,4,1:3:0:0:
267,203,48729,85,2,0:0:0:0:
278,214,49089,5,0,0:0:0:0:
289,225,49448,85,2,0:0:0:0:
469,235,49807,5,0,1:0:0:0:
458,309,49987,1,0,1:0:0:0:
350,183,50166,85,2,1:2:0:0:
336,92,50346,1,2,0:3:0:0:
215,239,50526,5,0,1:0:0:0:
198,337,50705,1,8,1:0:0:0:
31,188,50885,85,10,1:0:0:0:
48,286,51064,1,2,1:3:0:0:
256,266,51244,6,0,P|266:173|248:61,1,167.999994873047,4|2,1:2|1:0,0:0:0:0:
226,17,51783,1,2,1:3:0:0:
464,74,51963,2,0,P|415:84|369:123,1,83.9999974365235,8|0,1:0|1:3,0:0:0:0:
343,166,52322,1,2,1:3:0:0:
450,156,52502,1,10,1:0:0:0:
331,42,52681,1,0,0:0:0:0:
108,217,52861,85,8,1:0:0:0:
237,179,53041,1,4,1:3:0:0:
338,266,53220,1,0,0:0:0:0:
167,352,53400,5,2,1:0:0:0:
176,276,53580,1,8,1:0:0:0:
188,176,53759,1,4,1:3:0:0:
203,50,53939,1,8,1:0:0:0:
70,248,54119,69,4,1:3:0:0:
256,192,54298,12,4,56274,1:3:0:0:
251,205,56993,101,4,1:3:0:0:
256,192,57172,12,0,58430,0:0:0:0:
167,268,59867,38,0,P|126:269|58:267,2,105.000004005432,4|0|8,0:2|1:0|0:1,0:0:0:0:
267,291,60945,1,2,0:0:0:0:
298,363,61125,1,0,1:0:0:0:
382,241,61304,2,0,P|352:241|326:240,1,52.5000020027161,2|0,0:0|1:0,0:0:0:0:
444,293,61663,1,0,1:0:0:0:
504,244,61843,2,0,P|510:187|495:119,1,105.000004005432,0|0,1:0|0:0,0:0:0:0:
502,140,62382,1,0,1:0:0:0:
264,38,62741,6,0,P|321:43|390:36,2,105.000004005432,0|0|8,1:0|1:0|0:1,0:0:0:0:
200,121,63819,1,2,0:0:0:0:
131,157,63999,1,0,1:0:0:0:
57,137,64178,2,0,P|27:135|-3:137,1,52.5000020027161,2|0,1:2|1:0,0:0:0:0:
200,121,64538,1,0,1:0:0:0:
120,234,64717,2,0,P|67:235|-1:234,1,105.000004005432,0|0,1:0|0:0,0:0:0:0:
153,309,65256,1,4,0:0:0:0:
349,279,65616,86,0,P|347:337|350:387,2,105.000004005432,0|0|8,1:0|1:0|0:1,0:0:0:0:
454,266,66693,1,2,0:0:0:0:
454,191,66873,1,0,1:0:0:0:
390,150,67053,2,0,B|335:147|349:190|254:182,1,105.000004005432,2|0,0:0|1:0,0:0:0:0:
228,229,67592,1,0,0:0:0:0:
152,207,67771,2,0,P|117:206|88:207,1,52.5000020027161,8|0,0:1|0:0,0:0:0:0:
52,272,68130,1,0,0:0:0:0:
52,272,68310,1,0,1:0:0:0:
221,333,68490,6,0,L|229:203,1,105.000004005432,0|0,1:0|1:0,0:0:0:0:
247,52,69208,2,0,L|259:158,1,105.000004005432,8|0,0:1|1:0,0:0:0:0:
179,161,69747,1,2,0:0:0:0:
305,221,69927,1,0,0:0:0:0:
371,178,70107,1,2,1:2:0:0:
475,246,70286,2,0,P|439:239|409:238,1,52.5000020027161,0|0,1:0|0:0,0:0:0:0:
364,361,70645,2,0,P|429:329|491:340,1,105.000004005432,8|0,1:1|0:0,0:0:0:0:
146,301,71364,86,0,P|111:260|118:178,2,105.000004005432,4|0|8,1:2|1:0|0:1,0:0:0:0:
222,303,72442,1,2,0:0:0:0:
203,374,72622,1,0,1:0:0:0:
300,299,72801,2,0,L|282:162,1,105.000004005432,2|0,0:0|1:0,0:0:0:0:
220,154,73340,1,0,0:0:0:0:
343,121,73520,2,0,L|267:112,1,52.5000020027161,8|0,0:1|0:0,0:0:0:0:
404,179,73879,1,2,0:0:0:0:
404,179,74059,1,0,1:0:0:0:
292,39,74238,6,0,B|237:36|243:69|162:56,2,105.000004005432,0|0|8,1:0|1:0|0:1,0:0:0:0:
117,134,75316,1,2,0:0:0:0:
42,116,75496,1,0,1:0:0:0:
69,190,75675,2,0,L|199:177,1,105.000004005432,0|0,1:0|1:0,0:0:0:0:
235,127,76214,1,0,1:0:0:0:
296,216,76394,2,0,L|308:131,1,52.5000020027161,8|0,0:1|0:0,0:0:0:0:
222,250,76753,2,0,L|231:361,1,105.000004005432,2|0,0:0|1:0,0:0:0:0:
446,298,77472,85,0,1:0:0:0:
370,314,77651,1,0,0:0:0:0:
457,323,77831,1,8,0:1:0:0:
393,132,78190,1,2,0:0:0:0:
336,187,78370,1,0,1:0:0:0:
469,152,78550,6,0,L|465:30,1,105.000004005432,2|0,0:0|1:0,0:0:0:0:
395,13,79089,1,0,0:0:0:0:
393,132,79268,2,0,L|401:210,1,52.5000020027161,8|0,0:1|0:0,0:0:0:0:
328,83,79627,1,2,0:0:0:0:
328,83,79807,1,0,1:0:0:0:
180,148,79987,86,0,P|250:146|303:152,2,105.000004005432,0|0|8,1:0|1:0|0:1,0:0:0:0:
81,188,81065,1,0,1:0:0:0:
69,265,81244,1,2,0:0:0:0:
119,325,81424,1,0,0:0:0:0:
197,325,81604,1,2,0:0:0:0:
271,299,81783,1,0,1:0:0:0:
389,344,81963,69,0,1:0:0:0:
389,344,82053,1,0,1:0:0:0:
389,344,82142,2,0,L|400:211,1,105.000004005432,4|0,1:3|0:0,0:0:0:0:
251,88,82412,2,0,L|242:192,1,105.000004005432,4|0,1:3|0:0,0:0:0:0:
401,126,82681,1,4,1:3:0:0:
31,143,82861,21,6,1:0:0:0:
67,251,83041,2,0,B|129:266|129:266|211:245,1,125.999996154785,10|0,1:0|0:0,0:0:0:0:
211,225,83400,1,2,1:0:0:0:
333,339,83580,2,0,L|356:201,1,125.999996154785,10|0,1:0|0:0,0:0:0:0:
358,182,83939,1,10,1:0:0:0:
482,259,84119,1,2,1:0:0:0:
372,97,84298,6,0,B|281:87|298:158|190:136,1,167.999994873047,2|0,1:0|0:0,0:0:0:0:
41,57,84837,1,2,1:0:0:0:
41,57,84927,1,0,1:0:0:0:
41,57,85017,1,8,1:0:0:0:
136,109,85197,1,0,0:0:0:0:
233,60,85376,2,0,P|270:39|326:23,1,83.9999974365235,4|0,1:2|0:0,0:0:0:0:
490,143,85735,85,6,1:0:0:0:
409,222,85915,2,0,L|258:206,1,125.999996154785,10|0,1:0|0:0,0:0:0:0:
252,216,86274,1,2,1:0:0:0:
129,340,86454,2,0,P|101:260|97:194,1,125.999996154785,10|0,1:0|0:0,0:0:0:0:
108,188,86813,1,10,1:0:0:0:
285,285,86993,1,2,1:0:0:0:
300,133,87172,6,0,P|254:132|207:137,1,83.9999974365235,2|0,1:0|0:0,0:0:0:0:
180,198,87532,1,0,1:0:0:0:
361,181,87711,2,2,P|387:93|342:25,1,167.999994873047,2|0,1:0|0:0,1:0:0:0:
508,68,88250,2,0,L|486:188,1,83.9999974365235,4|0,1:3|0:0,0:0:0:0:
498,261,88610,85,4,1:3:0:0:
425,344,88789,2,0,B|361:360|361:360|295:344,1,125.999996154785,10|0,1:0|0:0,0:0:0:0:
274,329,89148,1,2,1:0:0:0:
146,356,89328,2,0,P|135:283|180:231,1,125.999996154785,10|0,1:0|0:0,0:0:0:0:
189,224,89687,1,10,1:0:0:0:
52,293,89867,1,2,1:0:0:0:
268,222,90047,6,0,P|270:175|267:137,1,83.9999974365235,2|10,1:0|1:0,0:0:0:0:
399,173,90406,1,0,0:0:0:0:
229,48,90586,2,0,P|282:109|389:72,1,167.999994873047,2|0,1:0|0:0,0:0:0:0:
509,65,91125,2,0,P|511:112|508:150,1,83.9999974365235,10|0,1:0|0:0,0:0:0:0:
375,236,91484,85,2,1:0:0:0:
256,192,91663,1,10,1:0:0:0:
137,148,91843,1,0,0:0:0:0:
294,293,92023,5,2,1:0:0:0:
332,136,92202,1,10,1:0:0:0:
176,223,92382,1,2,1:0:0:0:
436,299,92562,85,10,1:0:0:0:
460,210,92741,1,2,1:0:0:0:
189,321,92921,5,2,1:0:0:0:
165,232,93100,1,8,1:1:0:0:
512,270,93460,85,4,1:2:0:0:
57,184,93999,5,4,1:2:0:0:
368,48,94358,86,0,P|314:104|213:93,1,167.999994873047,6|0,1:0|0:0,0:0:0:0:
354,195,94897,1,2,1:0:0:0:
507,135,95077,2,0,P|464:139|414:134,1,83.9999974365235,10|0,1:0|0:0,0:0:0:0:
476,292,95436,1,10,1:0:0:0:
436,218,95616,1,2,1:0:0:0:
314,302,95795,6,0,L|502:308,1,167.999994873047,2|0,1:0|1:0,0:0:0:0:
262,383,96334,1,10,1:0:0:0:
211,205,96514,1,2,1:0:0:0:
165,272,96693,1,0,0:0:0:0:
294,208,96873,2,0,P|314:136|285:57,1,125.999996154785,4|0,1:2|0:0,0:0:0:0:
262,51,97232,86,0,B|172:38|188:110|87:87,1,167.999994873047,6|0,1:0|0:0,0:0:0:0:
48,33,97771,1,2,1:0:0:0:
241,129,97951,2,0,P|242:178|239:239,1,83.9999974365235,10|0,1:0|0:0,0:0:0:0:
156,317,98310,5,10,1:0:0:0:
253,289,98490,1,0,1:0:0:0:
349,261,98669,1,2,1:0:0:0:
323,358,98849,85,10,1:0:0:0:
106,240,99029,1,10,1:0:0:0:
39,278,99208,1,0,1:0:0:0:
398,322,99568,5,0,0:0:0:0:
465,284,99747,1,4,1:2:0:0:
192,117,100107,86,0,P|174:200|269:250,1,167.999994873047,6|0,1:0|0:0,0:0:0:0:
397,220,100645,1,2,1:0:0:0:
331,170,100825,2,0,L|227:174,1,83.9999974365235,10|0,1:0|0:0,0:0:0:0:
217,329,101184,1,10,1:0:0:0:
295,346,101364,1,0,1:0:0:0:
453,283,101544,6,0,P|484:210|458:103,1,167.999994873047,2|2,1:0|1:0,0:0:0:0:
179,44,102083,2,0,P|148:117|174:224,1,167.999994873047,10|0,1:0|0:0,0:0:0:0:
427,61,102622,2,0,L|318:71,1,83.9999974365235,8|0,1:1|0:0,0:0:0:0:
250,203,102981,85,6,1:0:0:0:
329,179,103160,1,10,1:0:0:0:
270,120,103340,1,0,0:0:0:0:
309,261,103520,5,2,1:0:0:0:
349,97,103699,1,10,1:0:0:0:
190,144,103879,1,0,0:0:0:0:
421,319,104059,85,10,1:0:0:0:
459,203,104238,1,2,1:0:0:0:
276,348,104418,5,4,1:2:0:0:
261,266,104598,1,8,1:0:0:0:
83,330,104777,1,0,0:0:0:0:
59,226,104957,69,0,1:0:0:0:
59,226,105047,1,0,1:0:0:0:
59,226,105136,1,8,1:0:0:0:
172,332,105316,1,8,1:0:0:0:
284,188,105496,1,8,1:0:0:0:
414,253,105675,1,8,1:0:0:0:
490,219,105855,6,0,P|492:156|489:90,2,112,2|2|2,0:0|0:0|0:0,0:0:0:0:
304,157,108011,2,0,B|251:174|251:174|186:155,1,112,2|4,0:0|0:0,0:0:0:0:
110,47,109448,5,2,0:0:0:0:
110,47,109807,85,0,0:0:0:0:
110,47,110166,5,0,1:0:0:0:
91,123,110346,1,8,1:0:0:0:
147,177,110526,85,8,1:0:0:0:
34,68,110705,1,2,1:3:0:0:
225,155,110885,5,0,1:0:0:0:
68,197,111065,1,8,1:0:0:0:
315,260,111244,85,8,1:0:0:0:
221,231,111424,1,2,1:3:0:0:
445,214,111604,6,0,P|417:165|304:167,1,167.999994873047,4|10,1:2|1:0,0:0:0:0:
419,55,112142,1,2,1:3:0:0:
494,19,112322,2,0,B|505:58|505:58|485:113,1,83.9999974365235,10|0,1:0|0:0,0:0:0:0:
294,83,112681,2,0,L|182:73,1,83.9999974365235,2|10,1:3|1:0,0:0:0:0:
22,127,113042,85,4,1:3:0:0:
45,243,113221,1,0,0:0:0:0:
160,220,113401,1,8,1:0:0:0:
147,148,113580,1,0,1:0:0:0:
268,292,113759,5,4,1:3:0:0:
267,306,113849,1,0,1:0:0:0:
264,321,113939,1,0,1:0:0:0:
258,335,114029,1,0,1:0:0:0:
249,347,114119,2,0,P|212:333|169:326,1,83.9999974365235,8|0,1:0|1:0,0:0:0:0:
403,357,114478,85,4,1:2:0:0:
337,211,114657,1,10,1:0:0:0:
441,90,114837,1,0,0:0:0:0:
441,90,115017,1,2,1:3:0:0:
512,155,115196,5,10,1:0:0:0:
446,205,115376,1,0,0:0:0:0:
328,133,115556,1,2,1:3:0:0:
181,80,115736,1,10,1:0:0:0:
6,146,115915,86,0,B|-3:189|-3:189|9:245,1,83.9999974365235,0|10,0:0|1:0,0:0:0:0:
89,108,116274,1,6,1:3:0:0:
158,165,116454,1,0,0:0:0:0:
123,266,116633,1,8,1:0:0:0:
118,282,116723,1,0,1:0:0:0:
113,298,116813,1,2,1:3:0:0:
108,314,116903,1,0,1:0:0:0:
103,330,116993,2,0,L|8:339,1,83.9999974365235,4|0,1:3|0:0,0:0:0:0:
214,272,117352,6,0,P|258:268|315:277,1,83.9999974365235,4|10,1:2|1:0,0:0:0:0:
351,338,117711,1,0,0:0:0:0:
494,261,117891,2,0,P|498:219|494:177,1,83.9999974365235,2|10,1:3|1:0,0:0:0:0:
440,338,118250,1,0,0:0:0:0:
351,123,118430,1,2,1:3:0:0:
417,77,118610,1,10,1:0:0:0:
427,160,118789,86,0,P|379:198|273:182,2,167.999994873047,0|10|2,0:0|1:0|1:0,0:0:0:0:
397,272,119687,1,0,1:3:0:0:
279,111,119867,2,0,P|238:110|172:112,1,83.9999974365235,2|2,1:3|1:0,0:0:0:0:
32,177,120226,6,0,B|113:169|93:248|217:229,1,167.999994873047,2|0,1:0|0:0,0:0:0:0:
189,235,120765,1,2,1:3:0:0:
76,336,120945,1,10,1:0:0:0:
121,77,121125,85,0,0:0:0:0:
195,110,121304,1,2,1:3:0:0:
185,231,121484,1,10,1:0:0:0:
121,77,121843,5,10,1:0:0:0:
185,231,122023,1,2,1:0:0:0:
121,77,122382,85,10,1:0:0:0:
185,231,122562,1,2,1:0:0:0:
408,101,122741,5,4,1:2:0:0:
397,187,122921,1,0,1:0:0:0:
397,187,123011,1,0,1:0:0:0:
104,283,123460,85,2,0:1:0:0:
115,197,123640,1,2,0:1:0:0:
253,172,123999,86,0,L|259:211,2,28,2|2|0,0:1|0:1|0:0,0:0:0:0:
77,250,124538,86,0,B|165:231|148:321|244:297,1,168,4|0,1:2|0:0,0:0:0:0:
260,281,124897,1,0,1:0:0:0:
119,361,125077,1,0,1:0:0:0:
412,239,125256,6,0,P|369:243|315:231,1,83.9999974365235,8|0,1:0|0:0,0:0:0:0:
465,308,125616,1,2,1:0:0:0:
194,180,125795,2,0,P|235:175|288:177,1,83.9999974365235,10|0,1:0|0:0,0:0:0:0:
129,261,126155,1,10,1:0:0:0:
140,353,126334,1,0,1:0:0:0:
389,160,126514,85,2,1:0:0:0:
353,40,126693,1,10,1:0:0:0:
128,144,126873,5,4,0:3:0:0:
150,57,127053,1,10,1:0:0:0:
15,231,127232,85,0,1:0:0:0:
15,231,127322,1,0,1:0:0:0:
15,231,127412,2,0,P|97:231|173:310,1,168,4|0,1:3|0:0,0:0:0:0:
167,315,127771,1,0,1:0:0:0:
277,57,127951,1,2,1:0:0:0:
322,128,128130,6,0,B|281:138|281:138|228:127,1,83.9999974365235,10|0,1:0|0:0,0:0:0:0:
151,173,128490,1,0,1:0:0:0:
332,229,128669,2,0,P|379:215|444:221,1,83.9999974365235,10|0,1:0|0:0,0:0:0:0:
347,384,129029,2,0,P|311:350|284:291,1,83.9999974365235,8|0,1:0|0:0,0:0:0:0:
505,209,129388,1,10,1:0:0:0:
463,328,129568,1,10,1:0:0:0:
198,234,129747,85,4,1:3:0:0:
206,320,129927,1,10,1:0:0:0:
12,122,130107,5,0,1:0:0:0:
12,122,130196,1,0,1:0:0:0:
12,122,130286,2,0,B|99:104|77:194|210:163,1,168,4|0,1:3|0:0,0:0:0:0:
193,146,130645,1,0,1:0:0:0:
61,268,130825,1,0,1:0:0:0:
336,135,131005,86,0,P|339:88|334:41,1,83.9999974365235,10|0,1:0|0:0,0:0:0:0:
269,273,131364,1,4,1:2:0:0:
139,93,131544,2,0,P|136:46|141:-1,1,83.9999974365235,10|0,1:0|0:0,0:0:0:0:
156,334,131903,1,8,1:0:0:0:
220,180,132083,1,10,1:0:0:0:
367,296,132262,1,4,1:3:0:0:
290,282,132442,5,10,1:0:0:0:
163,259,132622,1,0,0:0:0:0:
337,384,132801,1,8,1:0:0:0:
413,177,132981,85,0,1:0:0:0:
413,177,133071,1,0,1:0:0:0:
413,177,133160,2,0,P|359:178|319:175,1,83.9999974365235,4|0,1:3|0:0,0:0:0:0:
488,225,133520,1,4,1:2:0:0:
339,95,133699,2,0,B|253:91|265:159|171:145,1,167.999994873047,4|4,1:3|1:2,0:0:0:0:
106,167,134238,1,4,1:3:0:0:
117,250,134418,1,2,1:0:0:0:
186,196,134598,5,4,1:3:0:0:
40,274,134777,1,8,1:0:0:0:
336,343,134957,1,4,1:2:0:0:
301,272,135136,85,0,1:0:0:0:
487,200,135316,1,4,1:3:0:0:
336,343,135496,85,4,1:2:0:0:
308,148,135675,1,8,1:0:0:0:
292,38,135855,1,2,1:0:0:0:
37,120,136035,6,0,B|130:106|95:190|220:169,1,168,4|0,1:2|0:0,0:0:0:0:
220,157,136394,1,0,1:0:0:0:
400,195,136574,1,0,1:0:0:0:
173,97,136753,6,0,P|170:59|173:8,1,83.9999974365235,10|0,1:0|0:0,0:0:0:0:
45,196,137113,1,2,1:0:0:0:
318,219,137292,2,0,P|321:181|317:122,1,83.9999974365235,10|0,1:0|0:0,0:0:0:0:
116,311,137651,2,0,P|113:273|117:221,1,83.9999974365235,10|8,1:0|1:0,0:0:0:0:
413,282,138011,1,0,0:0:0:0:
216,227,138190,1,10,1:0:0:0:
297,360,138370,1,4,1:3:0:0:
448,65,138550,1,8,1:0:0:0:
491,154,138729,85,0,1:0:0:0:
491,154,138819,1,0,1:0:0:0:
491,154,138909,2,0,P|409:147|325:210,1,168,4|0,1:3|0:0,0:0:0:0:
331,223,139268,1,0,1:0:0:0:
111,101,139448,1,0,1:0:0:0:
69,172,139627,6,0,B|113:181|113:181|161:170,1,83.9999974365235,10|0,1:0|0:0,0:0:0:0:
19,112,139987,1,0,1:0:0:0:
245,205,140166,2,0,L|250:91,1,83.9999974365235,10|0,1:0|0:0,0:0:0:0:
221,35,140526,1,0,1:0:0:0:
173,260,140705,2,0,L|179:349,1,83.9999974365235,10|8,1:0|1:0,0:0:0:0:
101,365,141065,1,4,1:2:0:0:
266,291,141244,1,4,1:3:0:0:
401,367,141424,1,10,1:0:0:0:
487,211,141604,85,2,1:0:0:0:
487,211,141693,1,0,1:0:0:0:
487,211,141783,2,0,B|408:200|411:271|329:256,1,168,4|0,1:3|0:0,0:0:0:0:
309,230,142142,1,0,1:0:0:0:
174,115,142322,1,0,1:0:0:0:
7,174,142502,2,0,P|5:219|5:266,1,83.9999974365235,8|0,1:0|0:0,0:0:0:0:
266,291,142861,5,4,1:2:0:0:
251,114,143041,1,10,1:0:0:0:
92,37,143221,2,0,P|58:67|25:100,1,83.9999974365235,0|2,1:0|1:0,0:0:0:0:
194,305,143580,85,8,1:0:0:0:
308,169,143760,1,4,1:3:0:0:
250,2,143939,2,0,P|205:0|157:0,1,83.9999974365235,10|0,1:0|1:0,0:3:0:0:
258,382,144298,2,0,P|303:384|350:384,1,83.9999974365235,4|0,1:3|1:0,0:0:0:0:
90,182,144657,6,4,P|89:283|149:342,1,167.999994873047,4|2,1:3|1:0,1:3:0:0:
422,202,145196,2,0,P|423:101|363:42,1,167.999994873047,8|8,1:0|1:0,0:0:0:0:
212,282,145735,1,4,1:2:0:0:
318,238,145915,1,0,0:0:0:0:
410,308,146095,1,2,1:0:0:0:
136,122,146274,85,10,1:0:0:0:
136,122,146364,1,0,1:0:0:0:
136,122,146454,1,0,1:0:0:0:
217,26,146633,1,8,1:0:0:0:
167,226,146813,1,4,1:3:0:0:
281,355,146993,5,0,0:0:0:0:
249,143,147173,1,8,1:0:0:0:
413,184,147352,85,8,1:0:0:0:
266,257,147532,85,4,1:3:0:0:
288,224,149687,5,4,1:0:0:0:
223,159,149867,1,0,1:0:0:0:
301,140,150047,5,4,1:3:0:0:
210,243,150226,1,0,1:0:0:0:
367,187,150406,6,0,B|433:177|426:244|518:228,1,140,4|2,1:2|0:3,0:0:0:0:
512,309,150945,1,2,0:0:0:0:
486,155,151125,1,8,1:0:0:0:
376,260,151304,1,0,0:0:0:0:
285,222,151484,2,0,P|284:173|283:132,1,70,2|2,0:3|0:0,0:0:0:0:
188,309,151843,6,0,P|221:347|260:365,1,70,4|0,1:2|0:0,0:0:0:0:
311,340,152202,1,8,1:0:0:0:
116,257,152382,2,0,P|65:267|31:291,1,70,4|0,1:2|0:0,0:0:0:0:
27,348,152741,1,0,0:0:0:0:
189,233,152921,2,2,P|205:184|187:111,1,105,14|0,1:0|0:0,1:0:0:0:
189,90,153280,85,4,1:2:0:0:
127,135,153460,1,2,0:0:0:0:
263,108,153639,1,2,0:3:0:0:
393,181,153819,5,2,0:0:0:0:
364,49,153999,1,8,1:0:0:0:
342,123,154178,1,2,1:0:0:0:
495,122,154358,85,0,1:2:0:0:
473,196,154537,1,2,1:2:0:0:
331,249,154717,6,0,P|362:263|412:271,1,70,4|10,1:3|1:0,0:0:0:0:
397,270,155077,1,0,0:0:0:0:
324,348,155256,2,0,B|246:361|257:315|175:330,1,140,2|0,1:0|0:0,0:0:0:0:
127,383,155795,1,4,1:3:0:0:
127,383,156154,85,4,1:2:0:0:
78,247,156334,1,2,0:0:0:0:
47,328,156514,1,2,0:3:0:0:
164,251,156693,1,2,0:0:0:0:
248,257,156873,2,0,P|265:179|248:117,1,140,8|0,1:0|0:0,0:0:0:0:
170,82,157412,1,2,0:0:0:0:
354,76,157592,6,0,L|341:168,1,70,4|0,1:2|0:0,0:0:0:0:
462,297,157951,1,8,1:0:0:0:
468,207,158130,2,0,B|401:202|406:250|333:241,1,140,4|0,1:2|0:0,0:0:0:0:
81,184,158669,1,14,1:0:0:0:
81,184,159029,85,4,1:2:0:0:
150,136,159208,1,2,0:0:0:0:
224,174,159388,1,2,0:3:0:0:
221,368,159568,5,2,0:0:0:0:
196,259,159747,1,10,1:0:0:0:
301,221,159927,1,2,1:0:0:0:
432,288,160107,85,2,0:3:0:0:
457,194,160286,1,10,1:0:0:0:
80,96,160466,5,4,1:3:0:0:
55,190,160645,1,4,1:3:0:0:
80,96,161005,85,4,1:3:0:0:
119,265,161185,1,4,1:3:0:0:
80,96,161544,5,4,1:3:0:0:
274,343,161903,85,4,1:2:0:0:
313,238,162083,1,2,0:1:0:0:
253,142,162262,1,2,0:3:0:0:
225,222,162442,5,2,0:1:0:0:
445,234,162622,1,10,1:0:0:0:
340,155,162801,1,0,0:0:0:0:
403,303,162981,85,2,0:3:0:0:
419,156,163160,1,2,0:0:0:0:
500,57,163340,6,0,P|452:96|366:85,1,140,4|8,1:2|1:0,0:0:0:0:
271,12,163879,2,0,L|250:157,1,140,4|2,1:2|0:0,0:0:0:0:
141,104,164418,2,2,L|151:34,1,70,6|0,1:0|0:0,1:0:0:0:
178,183,164777,85,4,1:2:0:0:
112,246,164957,1,2,0:1:0:0:
22,233,165136,1,2,0:3:0:0:
181,305,165316,2,0,P|220:299|274:302,1,70,2|10,0:1|1:0,0:0:0:0:
135,372,165675,1,0,0:0:0:0:
325,279,165855,2,0,P|336:229|330:185,1,70,2|2,0:3|0:0,0:0:0:0:
167,63,166214,5,4,1:3:0:0:
180,154,166394,1,0,0:0:0:0:
270,141,166574,1,0,0:0:0:0:
257,51,166753,2,0,L|88:42,1,140,2|0,1:0|0:0,0:0:0:0:
33,166,167292,2,2,L|102:169,1,70,6|0,1:0|0:0,1:0:0:0:
257,186,167651,85,4,1:2:0:0:
190,267,167831,1,2,0:1:0:0:
86,250,168011,1,2,0:3:0:0:
260,326,168190,2,0,P|305:313|373:310,1,70,2|10,0:1|1:0,0:0:0:0:
399,353,168550,1,0,0:0:0:0:
509,257,168729,2,0,P|516:300|503:340,1,70,2|2,0:3|0:0,0:0:0:0:
334,236,169089,6,0,P|317:165|349:90,1,140,4|8,1:2|1:0,0:0:0:0:
178,30,169627,2,0,L|197:191,1,140,4|0,1:2|0:0,0:0:0:0:
88,241,170166,2,2,L|79:171,1,70,6|0,1:0|0:0,1:0:0:0:
155,294,170526,86,0,P|119:318|72:324,1,70,4|2,1:2|0:1,0:0:0:0:
22,288,170885,1,2,0:3:0:0:
230,339,171065,2,0,L|248:230,1,70,2|10,0:1|1:0,0:0:0:0:
268,195,171424,1,0,0:0:0:0:
376,243,171604,1,2,1:0:0:0:
480,186,171783,1,2,1:0:0:0:
154,166,171963,5,4,1:3:0:0:
65,233,172143,1,0,1:0:0:0:
90,342,172322,1,0,1:0:0:0:
246,353,172592,85,0,1:0:0:0:
246,353,172681,1,4,1:3:0:0:
263,263,172861,1,8,1:0:0:0:
284,151,173041,1,8,1:0:0:0:
309,25,173220,1,0,1:0:0:0:
164,143,173400,6,0,L|51:152,2,112,2|2|2,0:0|0:0|0:0,0:0:0:0:
287,221,175556,2,0,B|269:274|269:274|290:334,1,112,2|4,0:0|0:0,0:0:0:0:
448,380,176993,85,2,0:0:0:0:
448,380,177352,5,0,0:0:0:0:
448,380,177711,85,4,1:2:0:0:
329,255,177891,1,8,1:0:0:0:
510,290,178071,5,8,1:0:0:0:
353,361,178251,1,0,0:3:0:0:
253,184,178430,85,8,1:1:0:0:
227,280,178610,1,8,1:1:0:0:
71,170,178789,5,8,1:1:0:0:
81,244,178969,1,8,1:1:0:0:
244,49,179148,86,0,P|185:100|80:80,1,167.999994873047,4|0,1:3|0:0,0:0:0:0:
41,29,179687,1,2,1:3:0:0:
41,29,179777,1,0,0:0:0:0:
41,29,179867,1,10,1:0:0:0:
289,142,180047,1,0,0:0:0:0:
194,180,180226,2,0,P|190:219|196:278,1,83.9999974365235,2|8,1:3|1:0,0:0:0:0:
388,191,180586,6,0,P|392:152|386:93,1,83.9999974365235,4|0,1:3|0:0,0:0:0:0:
332,44,180945,1,8,1:0:0:0:
500,210,181125,2,0,P|408:225|349:315,1,167.999994873047,0|0,1:0|0:0,0:0:0:0:
471,320,181663,1,8,1:0:0:0:
312,145,181843,1,0,1:0:0:0:
118,239,182023,86,0,L|300:228,1,167.999994873047,4|0,1:3|0:0,0:0:0:0:
86,341,182562,1,2,1:3:0:0:
86,341,182651,1,0,1:0:0:0:
86,341,182741,1,10,1:0:0:0:
163,158,182921,1,0,0:0:0:0:
86,126,183101,2,0,P|80:82|95:28,1,83.9999974365235,2|10,1:3|1:0,0:0:0:0:
242,4,183460,6,0,L|141:16,1,83.9999974365235,0|8,0:0|1:0,0:0:0:0:
357,98,183819,1,4,1:3:0:0:
341,0,183999,1,0,0:0:0:0:
262,152,184178,1,4,1:3:0:0:
262,152,184268,1,0,1:0:0:0:
262,152,184358,1,2,1:2:0:0:
262,152,184448,1,0,1:0:0:0:
262,152,184538,2,0,P|344:151|396:186,1,125.999996154785,4|0,1:2|0:0,0:0:0:0:
396,198,184897,85,4,1:2:0:0:
433,73,185077,1,10,1:0:0:0:
310,235,185256,5,0,0:0:0:0:
342,353,185436,1,2,1:3:0:0:
164,219,185616,86,0,P|162:136|168:32,1,167.999994873047,10|2,1:0|1:3,0:0:0:0:
62,64,186154,1,10,1:0:0:0:
256,134,186334,5,0,0:0:0:0:
333,83,186514,1,10,1:0:0:0:
418,119,186693,2,0,P|467:120|504:120,1,83.9999974365235,2|0,1:3|0:0,0:0:0:0:
313,250,187053,2,0,B|232:239|246:320|140:294,1,167.999994873047,10|2,1:0|1:0,0:0:0:0:
304,336,187592,1,2,1:3:0:0:
179,217,187771,1,2,1:0:0:0:
179,217,187951,1,10,1:0:0:0:
38,259,188130,1,0,0:0:0:0:
316,161,188310,85,2,1:3:0:0:
339,80,188490,1,10,1:0:0:0:
276,24,188669,1,0,0:0:0:0:
267,287,188849,5,2,1:3:0:0:
285,371,189029,1,10,1:0:0:0:
206,89,189388,85,10,1:0:0:0:
190,15,189568,1,2,1:3:0:0:
123,215,189927,5,4,1:2:0:0:
263,199,190107,1,0,1:0:0:0:
263,199,190196,1,0,1:0:0:0:
263,199,190286,1,4,1:3:0:0:
386,167,190466,1,8,1:0:0:0:
258,323,190645,85,4,1:2:0:0:
272,73,190825,1,10,1:0:0:0:
199,115,191184,5,4,1:2:0:0:
432,252,191364,1,10,1:0:0:0:
371,309,191723,85,4,1:2:0:0:
333,146,191903,1,10,1:0:0:0:
272,203,192262,5,4,1:2:0:0:
239,378,192442,1,10,1:0:0:0:
114,336,192622,1,2,1:0:0:0:
134,259,192801,1,4,1:3:0:0:
0,129,192981,1,4,1:2:0:0:
14,205,193160,2,0,P|71:194|121:181,1,83.9999974365235,10|0,1:0|0:0,0:0:0:0:
182,75,193520,85,4,1:2:0:0:
330,309,193699,1,10,1:0:0:0:
246,318,194059,5,4,1:2:0:0:
261,65,194239,1,10,1:0:0:0:
338,96,194598,85,4,1:2:0:0:
170,284,194777,1,10,1:0:0:0:
233,237,195136,5,4,1:2:0:0:
188,365,195316,1,4,1:3:0:0:
352,260,195496,1,2,1:0:0:0:
372,332,195675,1,8,1:0:0:0:
512,142,195855,1,4,1:3:0:0:
500,215,196035,2,0,L|411:205,1,83.9999974365235,4|0,1:2|0:0,0:0:0:0:
144,195,196394,85,4,1:2:0:0:
356,137,196574,1,10,1:0:0:0:
381,56,196933,5,4,1:2:0:0:
307,310,197113,1,8,1:0:0:0:
384,341,197472,85,4,1:2:0:0:
176,129,197652,1,10,1:0:0:0:
92,131,198011,5,4,1:2:0:0:
50,283,198190,1,10,1:0:0:0:
215,196,198370,1,2,1:0:0:0:
234,269,198550,1,4,1:3:0:0:
376,270,198729,1,10,1:0:0:0:
357,343,198909,2,0,L|262:335,1,83.9999974365235,4|0,1:2|0:0,0:0:0:0:
195,341,199268,85,4,1:2:0:0:
280,98,199448,1,10,1:0:0:0:
208,125,199807,5,4,1:2:0:0:
451,242,199987,1,10,1:0:0:0:
447,163,200346,85,4,1:2:0:0:
231,270,200526,1,10,1:0:0:0:
286,326,200884,5,4,1:2:0:0:
115,152,201064,1,10,1:0:0:0:
149,23,201244,1,2,1:0:0:0:
363,19,201423,85,4,1:3:0:0:
412,97,201603,1,10,1:0:0:0:
379,183,201783,1,4,1:3:0:0:
253,172,201963,5,0,1:0:0:0:
253,172,202053,1,0,1:0:0:0:
253,172,202142,1,2,0:0:0:0:
253,172,202502,85,2,0:0:0:0:
260,250,202681,1,0,0:0:0:0:
260,250,203041,5,2,0:0:0:0:
253,172,203220,1,0,0:0:0:0:
253,172,203580,70,0,L|259:211,3,28,8|2|2|2,0:0|0:0|0:0|0:0,0:0:0:0:
0,238,204298,86,0,B|90:222|71:302|185:282,1,168,4|0,1:2|0:0,0:0:0:0:
183,266,204657,1,0,1:0:0:0:
156,376,204836,1,0,1:0:0:0:
23,153,205016,6,0,B|13:110|13:110|34:43,1,83.9999974365235,10|0,1:0|0:0,0:0:0:0:
96,14,205375,1,2,1:0:0:0:
233,191,205555,2,0,L|143:181,1,83.9999974365235,10|0,1:0|0:0,0:0:0:0:
78,212,205914,1,0,1:0:0:0:
291,244,206094,1,10,1:0:0:0:
197,107,206274,1,0,0:0:0:0:
259,319,206453,85,10,1:0:0:0:
390,146,206633,1,4,1:3:0:0:
512,219,206812,1,10,1:0:0:0:
181,271,206992,5,8,1:0:0:0:
181,271,207082,1,0,1:0:0:0:
181,271,207172,2,0,P|81:259|24:182,1,168,4|0,1:3|0:0,0:0:0:0:
28,182,207531,1,0,1:0:0:0:
148,355,207711,1,0,1:0:0:0:
353,190,207890,86,0,P|354:142|351:93,1,83.9999974365235,10|0,1:0|0:0,0:0:0:0:
292,41,208250,1,2,1:0:0:0:
126,196,208429,2,0,B|166:204|166:204|213:192,1,83.9999974365235,10|0,1:0|0:0,0:0:0:0:
163,115,208789,1,2,1:0:0:0:
286,282,208968,2,0,P|285:330|288:379,1,83.9999974365235,10|0,1:0|0:0,0:0:0:0:
371,329,209327,1,4,1:3:0:0:
197,362,209507,1,8,1:0:0:0:
65,244,209687,1,10,1:0:0:0:
328,142,209866,5,0,1:0:0:0:
328,142,209956,1,0,1:0:0:0:
328,142,210046,2,0,B|405:166|412:89|487:110,1,168,4|0,1:3|0:0,0:0:0:0:
507,136,210405,1,0,1:0:0:0:
453,9,210585,1,0,1:0:0:0:
238,125,210765,86,0,P|254:192|292:220,1,83.9999974365235,10|0,1:0|0:0,0:0:0:0:
337,232,211124,1,4,1:2:0:0:
189,287,211303,2,0,P|147:284|105:285,1,83.9999974365235,10|0,1:0|0:0,0:0:0:0:
466,299,211663,1,2,1:0:0:0:
288,361,211842,1,10,1:0:0:0:
270,276,212022,1,4,1:3:0:0:
158,23,212202,5,2,1:0:0:0:
135,134,212382,1,0,1:0:0:0:
105,284,212561,1,10,1:0:0:0:
386,204,212741,85,0,1:0:0:0:
386,204,212830,1,0,1:0:0:0:
386,204,212920,2,0,P|331:206|297:202,1,83.9999974365235,4|0,1:3|0:0,0:0:0:0:
475,285,213280,1,4,1:2:0:0:
322,121,213459,2,0,B|236:109|241:184|138:158,1,167.999994873047,4|4,1:3|1:2,0:0:0:0:
95,113,213998,1,4,1:3:0:0:
109,30,214178,1,10,1:0:0:0:
302,202,214357,5,4,1:2:0:0:
205,292,214537,1,10,1:0:0:0:
205,292,214627,1,0,1:0:0:0:
205,292,214717,1,8,1:0:0:0:
268,351,214896,1,4,1:2:0:0:
188,373,215076,69,2,1:0:0:0:
335,280,215256,1,10,1:0:0:0:
148,185,215435,1,4,1:2:0:0:
376,38,215615,1,8,1:0:0:0:
47,62,215795,22,0,B|131:52|117:122|211:109,1,168,4|0,1:2|0:0,0:0:0:0:
227,87,216154,1,0,1:0:0:0:
84,244,216333,1,0,1:0:0:0:
324,207,216513,86,0,P|374:208|418:204,1,83.9999974365235,10|0,1:0|0:0,0:0:0:0:
472,102,216872,1,2,1:0:0:0:
247,255,217052,2,0,P|205:256|163:253,1,83.9999974365235,10|0,1:0|0:0,0:0:0:0:
321,359,217411,1,2,1:0:0:0:
246,178,217591,1,10,1:0:0:0:
309,129,217771,1,4,1:3:0:0:
319,284,217950,5,2,1:0:0:0:
178,130,218130,1,8,1:0:0:0:
2,179,218309,1,10,1:0:0:0:
32,259,218489,1,0,1:0:0:0:
185,57,218669,86,0,P|111:110|28:98,1,168,4|0,1:3|0:0,0:0:0:0:
10,83,219028,1,0,1:0:0:0:
93,209,219208,1,0,1:0:0:0:
348,152,219387,6,0,P|350:103|345:52,1,83.9999974365235,10|0,1:0|0:0,0:0:0:0:
261,338,219747,1,2,1:0:0:0:
178,245,219926,2,0,P|176:196|181:145,1,83.9999974365235,10|0,1:0|0:0,0:0:0:0:
273,30,220286,1,10,1:0:0:0:
261,254,220465,2,0,P|263:303|258:354,1,83.9999974365235,2|4,1:0|0:3,0:0:0:0:
150,344,220824,1,4,1:2:0:0:
350,201,221004,1,2,1:0:0:0:
503,261,221184,1,10,1:0:0:0:
458,338,221363,1,0,1:0:0:0:
483,120,221543,86,0,P|418:165|314:155,1,168,4|0,1:3|0:0,0:0:0:0:
300,144,221902,1,0,1:0:0:0:
136,181,222082,1,0,1:0:0:0:
173,345,222262,1,10,1:0:0:0:
337,307,222441,1,0,0:0:0:0:
86,280,222621,5,4,1:2:0:0:
269,376,222800,1,10,1:0:0:0:
293,227,222980,85,2,1:0:0:0:
206,242,223160,1,0,0:0:0:0:
305,113,223339,5,8,1:0:0:0:
512,221,223519,1,2,1:0:0:0:
453,66,223699,2,0,P|402:77|353:73,1,83.9999974365235,4|0,1:2|0:0,0:0:0:0:
168,99,224058,2,0,P|152:144|157:194,1,83.9999974365235,10|10,1:0|1:0,0:0:0:0:
406,332,224417,86,0,P|438:245|425:161,1,167.999994873047,4|0,1:2|1:0,0:0:0:0:
106,52,224956,2,0,P|74:139|87:223,1,167.999994873047,8|8,1:0|1:0,0:0:0:0:
322,221,225495,1,4,1:2:0:0:
228,201,225675,1,0,0:0:0:0:
287,138,225854,5,2,1:0:0:0:
266,288,226034,1,0,1:0:0:0:
266,288,226124,1,0,1:0:0:0:
266,288,226214,1,8,1:0:0:0:
370,151,226393,85,0,1:0:0:0:
274,0,226573,1,4,1:3:0:0:
274,0,226932,5,8,1:0:0:0:
257,175,227112,85,8,1:0:0:0:
240,350,227292,85,4,1:3:0:0:
256,192,230166,21,4,0:0:0:0:
233,163,233040,85,4,1:3:0:0:
304,207,233399,5,2,0:0:0:0:
375,251,233759,85,0,0:0:0:0:
446,295,234118,5,2,0:2:0:0:
446,295,234477,85,0,1:0:0:0:
370,342,234657,1,8,1:0:0:0:
327,208,234836,5,8,1:0:0:0:
267,313,235016,1,2,1:3:0:0:
178,169,235196,85,8,1:0:0:0:
161,321,235375,1,8,1:0:0:0:
22,178,235555,5,8,1:0:0:0:
61,357,235735,1,10,1:1:0:0:
303,193,235914,86,0,P|315:152|294:95,1,83.9999974365235,4|0,1:2|0:0,0:0:0:0:
83,98,236274,2,0,P|71:139|92:196,1,83.9999974365235,0|8,1:0|1:0,0:0:0:0:
323,221,236633,2,0,B|258:210|265:258|195:241,1,125.999996154785,8|0,1:1|0:0,0:0:0:0:
172,229,236992,1,0,1:0:0:0:
320,315,237172,1,8,1:0:0:0:
320,315,237531,5,4,1:3:0:0:
423,204,237711,1,8,1:0:0:0:
168,305,237891,1,0,0:0:0:0:
419,317,238070,85,0,0:0:0:0:
248,250,238250,1,8,1:0:0:0:
344,384,238429,1,4,1:3:0:0:
336,232,238609,1,8,1:0:0:0:
108,179,238789,6,0,P|203:180|266:121,1,167.999994873047,4|2,1:3|1:0,0:0:0:0:
104,75,239327,1,2,1:0:0:0:
331,154,239507,2,0,P|345:109|341:46,1,83.9999974365235,8|0,1:0|0:0,0:0:0:0:
180,105,239866,1,2,1:0:0:0:
425,105,240046,2,0,P|431:57|424:13,1,83.9999974365235,10|0,1:0|0:0,0:0:0:0:
282,21,240405,85,0,1:0:0:0:
252,178,240585,1,10,1:0:0:0:
374,280,240765,1,0,0:0:0:0:
471,255,240944,5,4,1:2:0:0:
316,233,241124,1,0,1:0:0:0:
316,233,241214,1,0,1:0:0:0:
316,233,241303,1,4,1:3:0:0:
214,304,241483,1,0,1:0:0:0:
94,307,241663,86,0,P|81:236|129:148,1,167.999994873047,4|2,1:2|1:0,0:0:0:0:
226,245,242202,1,2,1:0:0:0:
37,136,242381,2,0,P|65:102|116:74,1,83.9999974365235,8|0,1:0|0:0,0:0:0:0:
154,264,242741,1,2,1:0:0:0:
30,31,242920,2,0,P|79:7|134:8,1,83.9999974365235,10|0,1:0|0:0,0:0:0:0:
271,58,243280,5,0,1:0:0:0:
178,165,243459,1,10,1:0:0:0:
37,136,243639,1,8,1:0:0:0:
244,236,243818,85,4,1:3:0:0:
392,220,243998,1,10,1:0:0:0:
392,220,244088,1,0,1:0:0:0:
392,220,244178,1,2,1:0:0:0:
370,79,244357,1,8,1:0:0:0:
208,311,244537,6,0,P|252:321|307:302,1,83.9999974365235,4|0,1:3|0:0,0:0:0:0:
73,237,244896,2,0,P|64:279|79:333,1,83.9999974365235,2|0,1:0|0:0,0:0:0:0:
233,154,245256,2,0,P|166:103|111:123,1,125.999996154785,8|0,1:0|0:0,0:0:0:0:
106,131,245615,1,2,1:0:0:0:
246,235,245795,1,10,1:0:0:0:
246,235,246154,85,0,1:0:0:0:
338,177,246333,1,10,1:0:0:0:
431,233,246513,1,0,1:0:0:0:
335,384,246693,5,4,1:2:0:0:
312,278,246872,1,0,0:0:0:0:
500,94,247052,85,8,1:0:0:0:
485,173,247231,1,10,1:0:0:0:
278,127,247411,6,0,B|193:115|209:190|96:161,1,167.999994873047,4|2,1:3|1:0,0:0:0:0:
60,106,247950,1,2,1:0:0:0:
362,197,248130,2,0,L|376:43,1,83.9999974365235,10|0,1:0|0:0,0:0:0:0:
377,30,248489,1,0,1:0:0:0:
155,243,248669,85,10,1:0:0:0:
274,320,248848,1,0,0:0:0:0:
409,272,249028,1,0,1:0:0:0:
222,178,249208,5,4,1:2:0:0:
201,376,249387,1,0,1:0:0:0:
58,213,249567,85,8,1:0:0:0:
316,163,249747,1,4,1:3:0:0:
319,166,249836,1,0,1:0:0:0:
323,170,249926,1,8,1:0:0:0:
174,95,250106,1,8,1:0:0:0:
384,263,250286,6,0,P|428:160|409:97,1,146.999995513916,4|0,1:3|0:0,0:0:0:0:
423,129,250645,1,0,1:0:0:0:
146,311,250824,2,0,B|217:303|206:369|309:352,1,146.999995513916,4|0,1:3|0:0,0:0:0:0:
282,354,251184,1,0,1:0:0:0:
77,384,251363,1,2,1:0:0:0:
292,125,251543,86,0,L|267:287,1,146.999995513916,4|0,1:2|0:0,0:0:0:0:
269,270,251902,1,0,1:0:0:0:
45,37,252082,2,0,L|59:199,1,146.999995513916,4|0,1:3|0:0,0:0:0:0:
57,183,252441,1,0,1:0:0:0:
450,350,252621,2,0,L|436:188,1,146.999995513916,4|0,1:3|0:0,0:0:0:0:
438,204,252980,1,0,1:0:0:0:
162,318,253160,6,0,B|236:292|236:358|350:316,1,146.999995513916,4|0,1:2|0:0,0:0:0:0:
305,328,253519,1,0,1:0:0:0:
100,172,253699,2,0,P|143:91|233:68,1,146.999995513916,4|0,1:3|0:0,0:0:0:0:
190,68,254058,1,0,1:0:0:0:
58,267,254238,1,2,1:0:0:0:
350,155,254417,86,0,L|197:167,1,146.999995513916,4|0,1:2|0:0,0:0:0:0:
203,166,254777,1,0,1:0:0:0:
437,239,254956,2,0,L|503:100,1,146.999995513916,4|0,1:3|0:0,0:0:0:0:
500,106,255316,1,0,1:0:0:0:
308,263,255495,2,2,L|394:389,1,146.999995513916,4|0,1:2|0:0,1:0:0:0:
391,384,255855,1,10,1:0:0:0:
71,240,256034,6,0,P|58:154|95:83,1,146.999995513916,4|0,3:0|0:0,0:0:0:0:
80,100,256393,1,0,1:0:0:0:
384,128,256573,2,0,P|397:214|360:285,1,146.999995513916,4|0,1:3|0:0,0:0:0:0:
374,267,256932,1,0,1:0:0:0:
474,80,257112,1,2,1:0:0:0:
155,181,257292,86,0,L|318:197,1,146.999995513916,4|0,1:2|0:0,0:0:0:0:
301,195,257651,1,0,1:0:0:0:
105,378,257830,2,0,L|253:359,1,146.999995513916,4|0,1:3|0:0,0:0:0:0:
250,359,258190,1,0,1:0:0:0:
15,244,258369,2,0,P|5:166|40:105,1,146.999995513916,4|0,1:3|0:0,0:0:0:0:
36,108,258729,1,0,1:0:0:0:
247,178,258908,6,0,L|88:189,1,146.999995513916,4|0,1:2|0:0,0:0:0:0:
100,188,259268,1,0,1:0:0:0:
239,322,259447,2,0,L|398:333,1,146.999995513916,4|0,1:3|0:0,0:0:0:0:
385,332,259807,1,0,1:0:0:0:
165,360,259986,85,8,1:0:0:0:
352,184,260166,1,8,1:0:0:0:
164,35,260345,2,0,L|170:88,1,52.5,4|0,1:2|2:2,0:0:0:0:
448,159,263220,54,0,P|389:230|276:205,1,195.999994018555,4|8,1:2|1:0,0:0:0:0:
134,167,263759,1,8,1:0:0:0:
243,274,263938,1,0,1:3:0:0:
275,134,264118,1,0,1:0:0:0:
108,191,264297,2,0,P|106:242|106:302,1,97.9999970092774,8|8,1:0|1:0,0:0:0:0:
320,313,264657,5,4,1:2:0:0:
176,310,264836,1,0,1:0:0:0:
246,382,265016,1,8,1:0:0:0:
282,11,265286,85,0,1:0:0:0:
282,11,265375,1,4,1:2:0:0:
217,138,265555,1,0,1:0:0:0:
343,73,265735,1,8,1:0:0:0:
203,51,265914,1,8,1:0:0:0:
304,152,266094,6,0,P|380:154|439:89,1,146.999995513916,4|0,1:2|0:0,0:0:0:0:
509,237,266453,2,0,L|404:228,1,97.9999970092774,8|8,1:0|1:0,0:0:0:0:
199,297,266812,1,0,1:0:0:0:
330,255,266992,1,0,0:0:0:0:
330,255,267082,1,0,1:0:0:0:
330,255,267172,1,8,1:0:0:0:
435,341,267351,1,8,1:0:0:0:
225,369,267531,86,0,L|238:208,1,146.999995513916,4|0,1:2|0:0,0:0:0:0:
241,189,267890,1,8,1:0:0:0:
192,25,268070,1,8,1:0:0:0:
436,100,268250,5,4,0:2:0:0:
414,185,268429,1,0,0:0:0:0:
327,167,268609,1,4,0:3:0:0:
349,82,268788,1,8,0:0:0:0:
502,200,268968,86,0,B|427:217|427:217|409:241|409:241|299:267,1,195.999994018555,4|8,0:2|0:0,0:0:0:0:
161,315,269507,2,0,L|266:332,1,97.9999970092774,4|0,0:2|0:0,0:0:0:0:
65,283,269866,1,10,0:0:0:0:
80,373,270046,1,8,0:0:0:0:
240,237,270226,1,0,0:0:0:0:
56,187,270405,6,0,P|158:192|223:121,1,195.999994018555,4|8,0:2|0:0,0:0:0:0:
341,53,270944,2,0,L|316:175,1,97.9999970092774,4|0,0:2|0:0,0:0:0:0:
416,225,271303,2,0,L|455:32,1,195.999994018555,8|0,0:0|0:0,0:0:0:0:
321,149,271842,85,4,0:2:0:0:
235,83,272022,1,0,0:0:0:0:
134,121,272202,1,4,0:3:0:0:
306,233,272381,5,8,0:0:0:0:
205,271,272561,1,4,0:2:0:0:
399,291,272741,85,0,0:0:0:0:
317,316,272920,1,8,0:0:0:0:
494,220,273100,6,0,L|481:370,1,146.999995513916,4|0,0:3|0:0,0:0:0:0:
481,366,273459,1,0,0:0:0:0:
395,153,273639,1,0,0:0:0:0:
395,153,273729,1,0,0:0:0:0:
395,153,273818,1,8,0:0:0:0:
262,262,273998,1,8,0:0:0:0:
139,105,274178,86,0,B|175:115|175:115|208:108,1,70,4|0,0:2|1:0,0:0:0:0:
290,112,274627,1,0,1:0:0:0:
290,112,274717,6,0,P|250:178|159:178,1,146.999995513916,4|0,1:2|0:0,0:0:0:0:
154,182,275076,1,8,0:0:0:0:
299,357,275256,1,8,0:0:0:0:
11,296,275435,86,0,B|78:270|78:270|157:298,1,146.999995513916,0|0,0:0|0:0,0:0:0:0:
218,365,275795,2,0,L|238:245,1,97.9999970092774,8|8,0:0|0:0,0:0:0:0:
214,33,276154,5,4,0:2:0:0:
148,141,276333,1,0,0:0:0:0:
21,123,276513,1,8,0:0:0:0:
288,157,276783,85,0,0:0:0:0:
288,157,276872,1,4,0:3:0:0:
215,107,277052,1,0,0:0:0:0:
304,233,277232,1,8,0:0:0:0:
380,76,277411,1,4,0:3:0:0:
200,269,277591,6,0,P|288:267|382:351,1,195.999994018555,4|8,0:2|0:0,0:0:0:0:
439,196,278130,1,8,0:0:0:0:
439,196,278220,1,0,0:0:0:0:
439,196,278309,1,0,0:0:0:0:
338,162,278489,1,0,0:0:0:0:
338,58,278669,1,8,0:0:0:0:
499,110,278849,85,8,0:0:0:0:
439,26,279028,1,4,0:2:0:0:
74,154,279208,5,8,0:0:0:0:
97,63,279387,1,4,0:2:0:0:
439,217,279567,85,8,0:0:0:0:
424,144,279747,1,4,0:2:0:0:
145,222,279926,5,4,0:3:0:0:
200,303,280106,1,0,0:0:0:0:
234,299,280196,1,0,0:0:0:0:
268,295,280286,1,0,0:3:0:0:
301,291,280375,1,0,0:0:0:0:
335,289,280465,86,0,B|405:285|395:344|475:334,1,146.999995513916,4|0,0:3|0:0,0:0:0:0:
469,334,280824,1,8,0:0:0:0:
188,201,281004,6,0,B|118:197|128:256|48:246,1,146.999995513916,10|0,0:0|0:0,0:0:0:0:
53,246,281363,1,10,0:0:0:0:
247,265,281543,1,8,0:0:0:0:
50,23,281723,86,0,L|66:170,1,146.999995513916,4|0,0:2|0:0,0:0:0:0:
65,169,282082,1,10,0:0:0:0:
190,92,282262,1,10,0:0:0:0:
329,138,282441,1,8,0:0:0:0:
500,241,282621,5,4,0:3:0:0:
511,287,282710,1,0,0:0:0:0:
493,332,282800,1,0,0:0:0:0:
452,357,282890,1,0,0:0:0:0:
400,341,282980,85,4,0:3:0:0:
387,314,283070,1,0,0:0:0:0:
390,284,283160,1,8,0:0:0:0:
408,260,283250,1,0,0:0:0:0:
442,286,283339,6,0,L|287:265,1,146.999995513916,4|0,0:2|0:0,0:0:0:0:
267,277,283699,1,8,0:0:0:0:
94,337,283878,2,0,P|189:325|273:409,1,195.999994018555,10|2,0:0|0:0,0:0:0:0:
20,257,284417,1,10,0:0:0:0:
9,165,284597,1,0,0:0:0:0:
9,165,284687,1,0,0:0:0:0:
9,165,284777,1,2,0:0:0:0:
101,144,284956,1,0,0:0:0:0:
116,241,285135,1,10,0:0:0:0:
337,145,285315,86,0,P|243:192|201:176,1,146.999995513916,10|0,0:0|2:0,0:0:0:0:
184,161,285675,1,2,0:0:0:0:
370,274,285854,1,10,0:0:0:0:
254,108,286034,1,2,0:0:0:0:
452,2,286214,5,4,0:2:0:0:
481,115,286393,1,0,0:0:0:0:
481,115,286483,1,0,0:0:0:0:
481,115,286573,1,10,0:0:0:0:
398,199,286753,1,10,0:0:0:0:
433,340,286932,85,0,0:0:0:0:
374,111,287112,1,10,0:0:0:0:
165,268,287292,5,10,0:0:0:0:
184,161,287471,1,4,0:2:0:0:
97,206,287651,85,4,0:3:0:0:
252,227,287830,1,8,0:0:0:0:
252,227,287920,1,0,0:0:0:0:
256,231,288010,1,4,0:2:0:0:
341,362,288190,1,0,0:0:0:0:
302,151,288369,5,4,0:3:0:0:
99,91,288549,2,0,P|180:113|292:34,1,217.000001655579,4|8,0:2|0:0,0:0:0:0:
287,46,289088,86,0,L|283:121,1,73.4999977569581,4|0,2:3|0:0,0:0:0:0:
157,347,290525,54,0,L|153:273,1,73.4999977569581,0|0,2:0|0:0,0:0:0:0:
26,167,291962,86,0,L|84:171,1,56,0|0,2:0|0:0,0:0:0:0:
201,357,293579,5,0,1:0:0:0:
214,289,293759,1,8,1:0:0:0:
232,203,293938,1,8,1:0:0:0:
254,97,294118,1,0,1:0:0:0:
275,5,294297,69,8,1:0:0:0:
122,144,294477,1,8,1:0:0:0:
292,263,294657,1,8,1:0:0:0:
494,249,294836,6,0,L|483:57,1,167.999994873047,4|0,1:3|1:0,0:0:0:0:
436,0,295375,1,0,1:0:0:0:
307,83,295555,2,0,P|231:85|174:75,1,83.9999974365235,8|0,1:0|0:0,0:0:0:0:
23,129,295914,5,0,1:0:0:0:
115,226,296094,1,8,1:0:0:0:
246,197,296274,1,0,0:0:0:0:
51,282,296453,2,0,P|70:333|75:402,1,83.9999974365235,0|8,1:0|1:0,0:0:0:0:
119,92,296812,85,0,1:0:0:0:
119,92,296902,1,0,1:0:0:0:
119,92,296992,1,4,1:2:0:0:
39,204,297172,1,0,0:0:0:0:
140,297,297351,2,0,P|190:300|237:298,1,83.9999974365235,8|0,1:0|0:0,0:0:0:0:
377,283,297711,6,0,P|351:328|348:380,1,83.9999974365235,4|0,1:2|0:0,0:0:0:0:
292,248,298070,1,0,1:0:0:0:
377,143,298250,1,0,1:0:0:0:
335,15,298429,1,8,1:0:0:0:
292,248,298789,85,0,1:0:0:0:
377,143,298968,1,8,1:0:0:0:
335,15,299148,1,0,0:0:0:0:
98,74,299327,5,0,1:0:0:0:
253,132,299507,1,8,1:0:0:0:
96,164,299687,85,0,1:0:0:0:
96,164,299777,1,0,1:0:0:0:
96,164,299866,1,4,1:2:0:0:
171,114,300046,1,0,0:0:0:0:
9,154,300226,2,0,P|13:203|3:268,1,83.9999974365235,8|0,1:0|1:0,0:0:0:0:
206,314,300585,6,0,P|172:313|104:330,1,83.9999974365235,4|2,1:2|1:0,0:0:0:0:
275,369,300944,1,10,1:0:0:0:
375,189,301124,2,0,P|291:243|207:222,1,167.999994873047,2|0,1:0|0:0,0:0:0:0:
221,162,301663,85,0,1:0:0:0:
328,311,301842,1,10,1:0:0:0:
506,260,302022,1,2,1:0:0:0:
299,158,302202,2,0,P|296:203|299:246,1,83.9999974365235,2|8,1:0|1:0,0:0:0:0:
369,45,302561,5,0,1:0:0:0:
372,48,302651,1,0,1:0:0:0:
376,52,302741,1,10,1:0:0:0:
256,89,302920,1,2,1:0:0:0:
472,135,303100,2,0,P|485:92|511:55,1,83.9999974365235,10|0,1:0|0:0,0:0:0:0:
512,211,303459,85,4,1:2:0:0:
372,305,303639,1,2,1:0:0:0:
208,268,303818,1,10,1:0:0:0:
273,379,303998,5,2,1:0:0:0:
314,296,304178,1,8,1:0:0:0:
273,213,304357,1,0,0:0:0:0:
121,307,304537,85,4,1:2:0:0:
368,187,304717,1,10,1:0:0:0:
368,187,304806,1,0,1:0:0:0:
372,191,304896,1,2,1:0:0:0:
189,173,305076,1,10,1:0:0:0:
438,275,305256,5,4,1:3:0:0:
411,98,305435,1,0,1:0:0:0:
287,243,305615,85,8,1:0:0:0:
499,111,305795,1,4,1:3:0:0:
189,173,305974,85,4,1:2:0:0:
178,294,306333,6,0,P|140:283|84:278,1,83.9999974365235,4|0,1:2|0:0,0:0:0:0:
265,332,306693,1,0,1:0:0:0:
204,212,306872,1,0,1:0:0:0:
281,100,307052,1,8,1:0:0:0:
285,104,307232,1,0,0:0:0:0:
190,19,307411,5,0,1:0:0:0:
201,127,307591,1,8,1:0:0:0:
285,196,307771,1,0,0:0:0:0:
296,304,307951,1,0,1:0:0:0:
131,305,308130,2,0,P|182:292|223:295,1,83.9999974365235,8|0,1:0|0:0,0:0:0:0:
367,384,308489,85,4,1:2:0:0:
347,242,308669,1,0,1:0:0:0:
469,168,308848,1,8,1:0:0:0:
137,76,309208,6,0,P|93:76|36:98,1,83.9999974365235,4|0,1:2|0:0,0:0:0:0:
270,42,309567,1,0,1:0:0:0:
251,183,309747,1,0,1:0:0:0:
105,163,309926,1,8,1:0:0:0:
109,167,310106,1,0,0:0:0:0:
253,364,310286,85,0,1:0:0:0:
337,310,310465,1,8,1:0:0:0:
345,209,310645,1,0,0:0:0:0:
302,117,310824,1,0,1:0:0:0:
150,260,311004,2,0,P|204:262|257:251,1,83.9999974365235,8|0,1:0|0:0,0:0:0:0:
404,384,311363,5,4,1:2:0:0:
418,258,311543,1,0,1:0:0:0:
466,141,311723,1,4,1:3:0:0:
46,53,312082,85,4,1:2:0:0:
121,106,312262,1,2,1:0:0:0:
209,81,312441,1,2,1:0:0:0:
55,195,312621,5,2,1:0:0:0:
187,173,312800,1,8,1:0:0:0:
217,304,312980,1,0,0:0:0:0:
368,276,313160,86,0,P|320:259|270:264,1,83.9999974365235,2|10,1:0|1:0,0:0:0:0:
452,321,313519,1,2,1:0:0:0:
381,196,313699,1,2,1:0:0:0:
484,97,313878,1,8,1:0:0:0:
312,340,314058,5,0,1:0:0:0:
312,340,314148,1,0,1:0:0:0:
316,344,314238,1,2,1:0:0:0:
245,124,314417,1,10,1:0:0:0:
160,246,314597,2,0,P|114:253|68:255,1,83.9999974365235,4|0,1:3|0:0,0:0:0:0:
234,212,314956,85,4,1:2:0:0:
63,178,315136,1,2,1:0:0:0:
136,332,315315,1,4,1:2:0:0:
400,221,315495,5,2,1:0:0:0:
332,332,315675,1,8,1:0:0:0:
336,92,315854,1,8,1:0:0:0:
52,91,316034,85,4,1:2:0:0:
140,117,316214,1,10,1:0:0:0:
147,124,316303,1,0,1:0:0:0:
147,124,316393,1,2,1:0:0:0:
231,70,316573,5,8,1:0:0:0:
143,217,316753,1,8,1:0:0:0:
201,346,316932,1,8,1:0:0:0:
370,180,317112,85,4,1:3:0:0:
391,301,317292,1,10,1:0:0:0:
147,124,317471,85,4,1:3:0:0:
93,325,317651,1,4,1:3:0:0:
