osu file format v14

[General]
AudioFilename: audio.mp3
AudioLeadIn: 0
PreviewTime: 65008
Countdown: 1
SampleSet: Soft
StackLeniency: 0.7
Mode: 0
LetterboxInBreaks: 0
WidescreenStoryboard: 1

[Editor]
DistanceSpacing: 1.1
BeatDivisor: 4
GridSize: 8
TimelineZoom: 2

[Metadata]
Title:L50
TitleUnicode:L50
Artist:Liz Triangle
ArtistUnicode:Liz Triangle
Creator:Sagu
Version:Hard
Source:東方花映塚 ~ Phantasmagoria of Flower View.
Tags:Yuuma3 ponbot AdveNt 東方Project TH09 Touhou Kaeizuka ZUN Team Shanghai Alice liztora liz-tora c88 comic market comiket 88 LTCD-23 インモータル フィロソフィー Immortal Philosophy kaztora lily-an Pira まおう maou スグル suguru ジョイフル joyfull メディスン・メランコリー Medicine Melancholy ポイズンボディ ~ Forsaken Doll Poison Body Japanese J-rock Jrock Rock Video Game
BeatmapID:3274156
BeatmapSetID:1599126

[Difficulty]
HPDrainRate:4.5
CircleSize:4
OverallDifficulty:6.5
ApproachRate:8
SliderMultiplier:1.5
SliderTickRate:1

[Events]
//Background and Video events
0,0,"BG.jpg",0,0
//Break Periods
2,10314,11279
2,102695,103853
2,148493,151703
//Storyboard Layer 0 (Background)
//Storyboard Layer 1 (Fail)
//Storyboard Layer 2 (Pass)
//Storyboard Layer 3 (Foreground)
//Storyboard Layer 4 (Overlay)
//Storyboard Sound Samples

[TimingPoints]
540,319.148936170213,4,2,1,30,1,0
540,-200,4,2,1,30,0,0
5327,-133.333333333333,4,2,1,40,0,0
12029,-133.333333333333,4,2,1,65,0,0
16816,-100,4,2,1,80,0,0
17055,-100,4,2,1,5,0,0
17135,-100,4,2,1,80,0,0
27348,-100,4,2,1,70,0,0
32454,-111.111111111111,4,2,1,55,0,0
38837,-111.111111111111,4,2,1,60,0,0
40433,-111.111111111111,4,2,1,50,0,0
41391,-100,4,2,1,70,0,0
51603,-100,4,2,1,80,0,0
52880,-100,4,2,1,65,0,0
55433,-100,4,2,1,75,0,0
57986,-100,4,2,1,65,0,0
60220,-100,4,2,1,75,0,0
63252,-100,4,2,1,80,0,0
65646,319.148936170213,6,2,1,85,1,1
69475,319.148936170213,4,2,1,85,1,1
74581,319.148936170213,6,2,1,85,1,1
78410,319.148936170213,4,2,1,85,1,1
83516,-100,4,2,1,80,0,0
95005,-200,4,2,1,30,0,0
98835,322.58064516129,4,2,1,30,1,0
98835,-200,4,2,1,30,0,0
99480,-133.333333333333,4,2,1,45,0,0
99814,319.148936170213,6,2,1,60,1,0
100133,316.622691292876,4,2,1,60,1,0
100291,-100,4,2,1,65,0,0
100607,-100,4,2,1,70,0,0
100924,-100,4,2,1,75,0,0
101241,-100,4,2,1,80,0,0
102032,309.278350515464,4,2,1,85,1,0
102495,324.324324324324,6,2,1,60,1,0
104603,-100,4,2,1,70,0,0
104927,307.692307692308,4,2,1,70,1,0
105234,319.148936170213,4,2,1,70,1,0
114170,-100,4,2,1,80,0,0
115446,317.208564631245,4,2,1,75,1,0
115446,-100,4,2,1,75,0,0
117984,319.148936170213,4,2,1,75,1,0
124845,-100,4,2,1,80,0,0
126281,-133.333333333333,4,2,1,60,0,0
126920,319.148936170213,6,2,1,85,1,1
130749,319.148936170213,4,2,1,85,1,1
135855,319.148936170213,6,2,1,85,1,1
139684,319.148936170213,4,2,1,85,1,1
144790,493.827160493827,4,2,1,50,1,0
160592,-100,4,2,2,50,0,0
166518,576.923076923077,4,2,2,40,1,0
167671,555.555555555556,4,2,2,45,1,0
168226,504.201680672269,4,2,2,50,1,0
168732,319.14947368421,4,2,1,70,1,0
168732,-133.333333333333,4,2,1,70,0,0
174157,-100,4,2,3,70,0,1
174636,-100,4,2,1,85,0,1
175114,319.14947368421,6,2,1,85,1,1
178943,319.14947368421,4,2,1,85,1,1
184049,319.14947368421,6,2,1,85,1,1
185963,319.14947368421,4,2,1,85,1,1
187232,-100,4,2,1,90,0,1
188516,-100,4,2,1,85,0,1
196016,-100,4,2,1,80,0,0
203835,-100,4,2,1,90,0,0

[Colours]
Combo1 : 128,191,255
Combo2 : 255,255,64
Combo3 : 255,64,159
Combo4 : 223,223,223
Combo5 : 64,159,255
Combo6 : 255,255,128
Combo7 : 255,128,192
Combo8 : 233,233,233

[HitObjects]
58,311,540,6,0,P|92:315|136:284,1,75,2|0,0:0|0:0,0:0:0:0:
191,359,1178,2,0,P|211:331|206:277,1,75,2|0,0:0|0:0,0:0:0:0:
166,219,1816,2,0,P|168:182|189:153,1,75,2|0,0:0|0:0,0:0:0:0:
256,216,2454,2,0,P|288:199|324:203,1,75,2|0,0:0|0:0,0:0:0:0:
364,308,3093,6,0,P|330:312|286:281,1,75,2|0,0:0|0:0,0:0:0:0:
231,356,3731,2,0,P|211:328|216:274,1,75,2|0,0:0|0:0,0:0:0:0:
256,216,4369,2,0,P|253:179|232:150,1,75,2|0,0:0|0:0,0:0:0:0:
166,213,5008,2,0,P|133:196|97:200,1,75,2|0,0:0|0:0,0:0:0:0:
9,253,5646,6,0,P|18:279|23:307,3,56.2500021457673,2|0|0|0,0:0|0:0|0:0|0:0,0:0:0:0:
93,348,6284,2,0,P|102:322|107:294,3,56.2500021457673,2|0|0|0,0:0|0:0|0:0|0:0,0:0:0:0:
178,255,6922,2,0,P|187:281|192:309,3,56.2500021457673,2|0|0|0,0:0|0:0|0:0|0:0,0:0:0:0:
262,350,7561,2,0,P|271:324|276:296,3,56.2500021457673,2|0|0|0,0:0|0:0|0:0|0:0,0:0:0:0:
256,214,8199,6,0,P|265:188|270:160,3,56.2500021457673,2|0|0|0,0:0|0:0|0:0|0:0,0:0:0:0:
340,119,8837,2,0,P|349:145|354:173,3,56.2500021457673,2|0|0|0,0:0|0:0|0:0|0:0,0:0:0:0:
425,212,9476,2,0,P|434:186|439:158,3,56.2500021457673,2|0|0|0,0:0|0:0|0:0|0:0,0:0:0:0:
509,117,10114,1,2,0:0:0:0:
509,117,12029,6,0,P|479:111|444:106,2,56.2500021457673,2|2|0,0:0|0:0|0:0,0:0:0:0:
497,189,12508,2,0,P|423:176|374:171,1,112.500004291535,2|2,0:0|0:0,0:0:0:0:
374,243,12986,1,0,0:0:0:0:
374,243,13146,2,0,P|442:251|506:265,1,112.500004291535,2|2,0:0|0:0,0:0:0:0:
475,331,13625,1,0,0:0:0:0:
475,331,13784,2,0,P|400:318|354:315,1,112.500004291535,2|2,0:0|0:0,0:0:0:0:
298,347,14263,1,0,0:0:0:0:
251,291,14422,1,2,0:0:0:0:
297,220,14582,6,0,P|304:184|309:146,2,56.2500021457673,2|2|0,0:0|0:0|0:0,0:0:0:0:
223,213,15061,2,0,P|236:139|239:86,1,112.500004291535,2|2,0:0|0:0,0:0:0:0:
165,98,15540,1,0,0:0:0:0:
165,98,15699,2,0,P|156:175|146:218,2,112.500004291535,2|2|2,0:0|0:0|0:0,0:0:0:0:
73,197,16657,1,2,0:0:0:0:
39,130,16816,2,0,P|41:87|29:16,1,112.5,8|0,1:2|0:0,0:0:0:0:
28,7,17135,6,0,P|64:14|101:23,1,75,4|2,1:1|0:0,0:0:0:0:
156,85,17454,1,8,1:2:0:0:
156,85,17614,2,0,P|192:75|229:68,2,75,2|0|2,3:2|1:0|3:2,0:0:0:0:
107,152,18093,1,8,1:2:0:0:
107,152,18252,2,0,P|70:142|33:135,2,75,2|0|2,3:2|1:0|3:2,0:0:0:0:
160,216,18731,1,8,1:2:0:0:
160,216,18891,2,0,P|196:206|233:199,1,75,2|0,3:2|1:0,0:0:0:0:
299,242,19210,2,0,P|291:282|292:323,2,75,2|10|0,3:2|1:2|3:0,0:0:0:0:
285,138,19688,6,0,P|269:69|200:67,2,150,2|10|2,1:2|1:2|1:2,0:0:0:0:
355,180,20486,2,0,P|401:175|438:166,1,75,2|8,3:2|1:2,0:0:0:0:
477,91,20805,2,0,P|466:168|474:256,1,150,2|2,3:2|3:2,0:0:0:0:
394,271,21284,2,0,P|396:308|390:345,1,75,10|0,1:2|3:0,0:0:0:0:
317,257,21603,2,0,P|280:265|229:269,1,75,2|2,1:2|3:2,0:0:0:0:
200,339,21922,1,8,1:2:0:0:
37,260,22242,6,0,P|44:223|53:186,1,75,4|2,1:1|3:2,0:0:0:0:
117,134,22561,1,8,1:2:0:0:
117,134,22720,2,0,P|107:98|100:61,2,75,2|0|2,3:2|1:0|3:2,0:0:0:0:
170,196,23199,1,8,1:2:0:0:
170,196,23359,2,0,P|160:233|153:270,2,75,2|0|2,3:2|1:0|3:2,0:0:0:0:
233,143,23837,1,8,1:2:0:0:
233,143,23997,2,0,P|223:107|216:70,1,75,2|0,3:2|1:0,0:0:0:0:
263,1,24316,2,0,P|303:9|344:8,2,75,2|10|0,3:2|1:2|3:0,0:0:0:0:
159,9,24795,6,0,P|90:24|88:93,2,150,2|10|2,1:2|1:2|1:2,0:0:0:0:
216,70,25593,2,0,P|226:106|233:143,1,75,2|8,3:2|1:2,0:0:0:0:
172,209,25912,2,0,P|230:186|332:175,1,150,4|2,1:1|3:2,0:0:0:0:
319,91,26391,2,0,P|354:104|391:108,1,75,10|0,1:2|3:0,0:0:0:0:
472,122,26710,2,0,P|482:86|494:51,1,75,10|10,1:2|0:3,0:0:0:0:
421,186,27029,1,4,1:1:0:0:
348,320,27348,6,0,P|391:340|420:343,2,75,0|2|2,1:0|0:0|3:2,0:0:0:0:
289,263,27827,2,0,P|332:243|361:240,2,75,0|2|2,1:0|0:0|3:2,0:0:0:0:
231,321,28305,2,0,P|274:341|303:344,2,75,0|2|2,1:0|0:0|3:2,0:0:0:0:
172,264,28784,2,0,P|215:244|244:241,2,75,0|2|2,1:0|0:0|3:2,0:0:0:0:
94,291,29263,6,0,P|98:249|117:192,1,75,0|2,1:0|0:0,0:0:0:0:
29,187,29582,1,0,3:0:0:0:
72,35,29901,6,0,P|29:15|0:12,2,75,0|2|2,1:0|0:0|3:2,0:0:0:0:
132,92,30380,2,0,P|89:112|60:115,2,75,0|2|2,1:0|0:0|3:2,0:0:0:0:
189,34,30859,2,0,P|146:14|117:11,2,75,0|2|2,1:0|0:0|3:2,0:0:0:0:
248,91,31337,2,0,P|205:111|176:114,2,75,0|2|2,1:0|0:0|3:2,0:0:0:0:
307,32,31816,5,8,0:3:0:0:
307,32,31976,1,8,0:3:0:0:
325,112,32135,1,4,0:3:0:0:
421,242,32454,5,4,1:1:0:0:
421,242,32614,2,0,P|474:233|514:234,2,67.4999979400635,2|2|0,0:0|3:2|0:0,0:0:0:0:
353,210,33093,2,0,P|341:242|368:293,1,67.4999979400635,2|0,3:2|0:0,0:0:0:0:
410,315,33412,2,0,P|417:347|405:378,1,67.4999979400635,2|0,3:2|0:0,0:0:0:0:
338,347,33731,6,0,P|298:336|201:320,1,134.999995880127,2|2,3:2|3:2,0:0:0:0:
168,256,34210,2,0,P|136:249|97:259,1,67.4999979400635,2|0,0:0|3:0,0:0:0:0:
56,314,34529,1,2,0:0:0:0:
10,255,34688,1,8,3:2:0:0:
58,198,34848,6,0,P|58:151|48:104,1,67.4999979400635,2|0,0:0|3:0,0:0:0:0:
0,75,35167,1,2,0:0:0:0:
0,75,35327,1,2,3:2:0:0:
56,19,35486,2,0,P|102:34|126:47,1,67.4999979400635,0|2,0:0|3:2,0:0:0:0:
131,115,35805,2,0,P|177:100|201:87,1,67.4999979400635,0|2,0:0|1:2,0:0:0:0:
258,31,36125,6,0,P|228:76|267:144,1,134.999995880127,2|2,3:2|0:0,0:0:0:0:
335,128,36603,1,2,3:2:0:0:
384,183,36763,1,0,3:2:0:0:
452,155,36922,2,0,P|462:105|465:54,1,101.249996910095,2|0,3:2|0:0,0:0:0:0:
463,44,37242,1,8,3:2:0:0:
338,132,37561,5,0,1:0:0:0:
338,132,37720,1,2,0:0:0:0:
273,85,37880,2,0,P|233:75|177:69,1,67.4999979400635,2|0,3:2|0:0,0:0:0:0:
158,15,38199,1,2,3:2:0:0:
97,58,38359,1,0,0:0:0:0:
97,58,38518,1,2,1:2:0:0:
146,113,38678,1,0,3:2:0:0:
217,74,38837,5,2,1:2:0:0:
271,133,38997,2,0,P|257:180|252:222,1,67.4999979400635,0|2,0:0|3:2,0:0:0:0:
175,216,39316,1,10,0:2:0:0:
175,216,39396,1,8,0:2:0:0:
175,216,39476,2,0,P|189:263|192:310,1,67.4999979400635,8|2,0:2|0:0,0:0:0:0:
268,307,39795,2,0,P|254:354|251:401,1,67.4999979400635,6|0,1:2|0:0,0:0:0:0:
251,372,40114,1,4,1:1:0:0:
426,311,40433,6,0,P|386:258|321:246,2,134.999995880127,2|2|2,0:0|0:0|0:0,0:0:0:0:
426,311,41391,6,0,P|410:344|406:382,1,75,4|0,1:1|1:0,0:0:0:0:
321,246,41710,2,0,P|336:279|340:317,1,75,14|0,1:2|1:0,0:0:0:0:
419,154,42029,2,0,P|403:187|399:225,1,75,2|0,1:2|1:0,0:0:0:0:
398,225,42268,1,8,0:2:0:0:
399,225,42348,1,10,0:2:0:0:
245,260,42667,6,0,P|253:172|268:99,1,150,4|10,1:1|0:2,0:0:0:0:
333,77,43146,1,0,0:0:0:0:
333,77,43305,1,2,1:2:0:0:
263,39,43465,2,0,P|221:32|171:34,1,75,2|8,1:3|0:2,0:0:0:0:
115,50,43784,6,0,P|125:95|129:144,1,75,2|0,3:2|1:2,0:0:0:0:
199,148,44103,2,0,P|190:184|185:221,1,75,2|8,1:3|0:2,0:0:0:0:
182,296,44422,1,2,1:3:0:0:
107,260,44582,6,0,P|71:250|38:267,1,75,2|2,0:0|1:3,0:0:0:0:
47,341,44901,2,0,P|82:350|115:333,1,75,10|0,0:2|3:0,0:0:0:0:
182,296,45220,6,0,B|213:278|261:299|231:309|278:325|328:300,1,150,2|10,1:2|0:2,0:0:0:0:
285,234,45699,1,0,0:0:0:0:
285,234,45859,1,2,1:2:0:0:
332,176,46018,2,0,P|327:127|319:87,1,75,2|8,1:3|0:2,0:0:0:0:
256,63,46337,6,0,P|210:59|160:39,2,75,2|0|2,3:2|1:2|1:3,0:0:0:0:
322,101,46816,1,8,0:2:0:0:
258,139,46976,2,0,P|220:142|184:152,1,75,2|2,1:3|3:2,0:0:0:0:
123,104,47295,2,0,P|60:166|89:197,1,150,2|0,1:3|3:2,0:0:0:0:
160,236,47774,6,0,P|221:219|323:209,1,150,2|10,1:2|0:2,0:0:0:0:
373,171,48252,1,0,0:0:0:0:
373,171,48412,1,2,1:2:0:0:
302,135,48571,2,0,P|258:120|219:114,1,75,2|8,1:3|0:2,0:0:0:0:
149,108,48891,6,0,P|159:153|163:202,1,75,2|0,3:2|1:2,0:0:0:0:
236,189,49210,2,0,P|227:225|222:262,1,75,2|8,1:3|0:2,0:0:0:0:
213,337,49529,1,2,1:3:0:0:
288,301,49688,6,0,P|324:291|357:308,1,75,2|2,3:2|1:3,0:0:0:0:
348,378,50008,2,0,P|313:387|280:370,1,75,10|0,0:2|3:0,0:0:0:0:
212,337,50327,6,0,B|159:357|120:323|156:323|113:290|64:314,1,150,2|10,1:2|0:2,0:0:0:0:
8,347,50805,1,0,0:0:0:0:
4,271,50965,1,2,1:2:0:0:
69,230,51125,1,2,1:3:0:0:
69,230,51204,1,0,1:0:0:0:
69,230,51284,2,0,P|79:191|82:172,2,37.5,10|8|6,0:3|0:3|0:3,0:0:0:0:
4,166,51603,6,0,P|-2:123|97:127,1,150,4|10,1:1|0:2,0:0:0:0:
149,137,52082,2,0,B|196:116|238:144|200:146|252:183|318:147,1,150,4|2,1:1|1:3,0:0:0:0:
352,115,52561,1,8,0:2:0:0:
451,226,52880,6,0,P|444:270|439:315,1,75,0|0,1:0|1:0,0:0:0:0:
386,354,53199,1,8,0:2:0:0:
315,326,53359,1,4,1:1:0:0:
226,161,53678,5,2,1:2:0:0:
226,161,53837,2,0,P|155:177|76:199,1,150,8|2,3:2|3:0,0:0:0:0:
16,237,54316,1,2,1:2:0:0:
76,284,54476,2,0,P|117:268|149:261,1,75,10|2,3:2|0:0,0:0:0:0:
211,305,54795,1,2,1:3:0:0:
211,305,54954,1,2,1:2:0:0:
214,231,55114,2,0,P|224:188|240:155,1,75,2|2,1:3|0:0,0:0:0:0:
339,130,55433,6,0,P|267:142|242:73,1,150,4|8,1:1|0:2,0:0:0:0:
314,47,55912,2,0,B|360:31|407:62|376:60|413:87|469:64,1,150,4|2,1:1|1:2,0:0:0:0:
392,16,56391,1,8,3:2:0:0:
382,97,56550,2,0,P|375:173|378:264,1,150,4|2,1:1|1:2,0:0:0:0:
440,298,57029,2,0,P|360:268|291:267,1,150,8|2,3:2|1:2,0:0:0:0:
244,331,57508,1,8,0:2:0:0:
244,331,57587,1,8,0:2:0:0:
244,331,57667,1,10,0:3:0:0:
108,271,57986,6,0,P|75:281|27:312,1,75,4|0,1:1|1:2,0:0:0:0:
10,231,58305,1,8,0:2:0:0:
78,200,58465,1,4,1:1:0:0:
203,366,58784,5,2,1:2:0:0:
203,366,58944,2,0,P|239:348|359:321,1,150,8|0,3:2|1:0,0:0:0:0:
372,252,59422,2,0,P|411:262|451:280,2,75,2|10|2,1:2|3:2|0:0,0:0:0:0:
312,205,59901,2,0,P|273:215|233:233,1,75,2|2,1:3|1:2,0:0:0:0:
143,267,60220,6,0,L|131:196,3,37.5,10|8|8|8,0:2|0:2|0:2|0:2,0:0:0:0:
132,201,60540,2,0,P|127:164|217:103,1,150,4|8,1:1|0:2,0:0:0:0:
264,158,61018,2,0,P|308:161|413:176,1,150,2|2,3:2|1:2,0:0:0:0:
474,229,61497,1,8,0:2:0:0:
510,154,61657,6,0,B|537:112|516:71|509:95|487:58|511:9,1,150,4|0,1:1|1:2,0:0:0:0:
467,82,62135,1,10,3:2:0:0:
390,49,62295,1,8,0:0:0:0:
382,53,62375,1,10,0:0:0:0:
375,57,62454,2,0,P|358:49|342:40,3,37.5,10|8|8|8,1:2|0:2|0:2|0:2,0:0:0:0:
317,48,62774,2,0,P|300:55|284:64,3,37.5,10|8|4|4,0:3|0:3|0:3|0:3,0:0:0:0:
265,48,63093,5,2,1:2:0:0:
265,48,63252,2,0,P|218:58|112:83,1,150,4|0,1:1|1:0,0:0:0:0:
40,109,63731,2,0,P|87:119|193:144,1,150,4|0,1:1|1:0,0:0:0:0:
264,168,64210,2,0,P|217:178|111:203,1,150,4|0,1:1|1:0,0:0:0:0:
41,231,64688,2,0,P|64:236|117:248,1,75,4|0,1:2|0:0,0:0:0:0:
0,311,65008,5,8,0:2:0:0:
0,311,65167,2,0,P|9:354|13:385,2,75
91,352,65646,6,0,P|130:346|189:325,1,75,4|0,1:1|0:0,0:0:0:0:
146,239,65965,2,0,P|108:242|73:254,1,75,2|0,1:3|0:0,0:0:0:0:
215,278,66284,1,2,1:3:0:0:
215,278,66443,1,0,1:2:0:0:
286,319,66603,1,10,3:2:0:0:
322,244,66763,1,0,1:2:0:0:
248,206,66922,6,0,B|239:168|239:168|258:110,1,75,10|0,3:2|1:0,0:0:0:0:
320,89,67241,2,0,B|329:127|329:127|310:185,1,75,10|0,3:2|1:0,0:0:0:0:
322,244,67560,6,0,P|380:232|422:226,1,75,4|0,1:1|0:0,0:0:0:0:
476,209,67880,2,0,P|497:239|485:282,1,75,10|0,3:2|0:0,0:0:0:0:
483,282,68119,1,0,1:0:0:0:
474,287,68199,1,2,1:3:0:0:
393,303,68358,1,0,1:2:0:0:
343,369,68518,1,10,3:2:0:0:
281,315,68677,2,0,P|241:320|193:332,1,75,0|10,1:2|3:2,0:0:0:0:
127,350,68997,1,0,1:2:0:0:
141,268,69156,2,0,P|148:222|148:177,1,75,10|0,3:2|1:0,0:0:0:0:
72,132,69475,6,0,P|145:150|220:150,1,150,4|8,1:1|0:2,0:0:0:0:
272,87,69953,1,0,3:0:0:0:
338,136,70113,2,0,P|348:181|351:221,1,75,2|0,1:2|0:0,0:0:0:0:
420,254,70432,2,0,P|424:216|432:180,1,75,10|0,0:2|3:0,0:0:0:0:
480,304,70751,6,0,P|407:286|332:286,1,150,2|10,1:2|0:2,0:0:0:0:
280,349,71230,1,0,3:2:0:0:
214,300,71389,2,0,P|204:255|201:215,1,75,2|0,1:2|0:0,0:0:0:0:
190,145,71709,5,10,0:2:0:0:
190,145,71868,1,0,3:2:0:0:
281,178,72028,2,0,P|339:168|424:129,1,150,4|8,1:1|0:2,0:0:0:0:
453,207,72506,2,0,P|442:238|433:281,1,75,2|0,1:2|0:0,0:0:0:0:
472,353,72826,2,0,P|430:329|362:328,1,112.5,2|0,1:2|0:0,0:0:0:0:
357,325,73145,6,0,P|347:257|324:163,1,150,4|0,1:1|1:2,0:0:0:0:
247,162,73623,2,0,P|255:198|261:235,1,75,10|0,3:2|0:0,0:0:0:0:
175,201,73943,1,2,1:2:0:0:
103,241,74102,2,0,L|108:284,2,37.5,0|0|10,1:2|1:0|0:2,0:0:0:0:
28,191,74421,1,8,0:2:0:0:
26,174,74501,1,8,0:2:0:0:
24,158,74581,6,0,P|20:118|16:57,1,75,4|0,1:1|0:0,0:0:0:0:
111,102,74900,2,0,P|107:62|103:1,1,75,2|0,1:3|0:0,0:0:0:0:
202,120,75219,1,2,1:3:0:0:
202,120,75378,1,2,1:2:0:0:
249,52,75538,1,10,3:2:0:0:
249,52,75698,1,0,1:2:0:0:
317,97,75857,6,0,P|354:110|413:96,1,75,10|0,3:2|1:2,0:0:0:0:
437,40,76176,2,0,P|403:28|365:30,1,75,10|0,3:2|1:0,0:0:0:0:
317,97,76495,6,0,P|308:142|292:192,1,75,4|0,1:1|0:0,0:0:0:0:
241,249,76815,2,0,P|232:204|216:154,1,75,10|0,3:2|0:0,0:0:0:0:
217,168,77054,1,0,1:0:0:0:
210,162,77134,1,2,1:3:0:0:
158,225,77293,1,2,1:2:0:0:
95,171,77453,1,10,3:2:0:0:
95,171,77612,1,0,1:2:0:0:
22,211,77772,2,0,P|11:246|8:284,1,75,10|0,3:2|1:2,0:0:0:0:
62,343,78091,2,0,B|91:352|129:332|105:334|128:302|180:320,1,112.5,10|0,3:2|0:0,0:0:0:0:
174,320,78410,6,0,P|220:317|249:304,1,75,4|0,1:1|0:0,0:0:0:0:
302,244,78729,2,0,P|272:286|325:366,1,150,10|2,0:2|1:2,0:0:0:0:
380,318,79207,1,0,3:2:0:0:
447,365,79367,2,0,P|455:315|472:260,1,75,10|0,0:2|3:2,0:0:0:0:
477,206,79686,6,0,P|428:214|379:230,1,75,2|0,1:2|3:2,0:0:0:0:
370,122,80005,2,0,P|406:132|443:137,1,75,10|0,0:2|3:2,0:0:0:0:
410,37,80324,2,0,P|361:45|312:61,1,75,2|0,1:2|3:0,0:0:0:0:
292,121,80644,5,10,0:2:0:0:
292,121,80803,1,0,3:2:0:0:
231,44,80963,2,0,P|190:10|99:36,1,150,4|8,1:1|3:2,0:0:0:0:
75,109,81441,2,0,P|39:97|2:93,1,75,2|2,0:0|1:3,0:0:0:0:
119,176,81761,2,0,P|181:161|213:161,1,75,2|8,1:2|3:2,0:0:0:0:
273,147,82080,6,0,P|234:163|261:256,1,150,4|0,1:1|1:2,0:0:0:0:
321,215,82558,2,0,P|363:223|411:226,1,75,10|0,3:2|0:0,0:0:0:0:
463,273,82878,1,10,0:2:0:0:
451,354,83037,1,8,0:2:0:0:
451,354,83117,1,8,0:2:0:0:
451,354,83197,1,2,1:2:0:0:
361,369,83356,6,0,P|305:359|265:354,1,75,4|0,1:1|0:0,0:0:0:0:
227,299,83675,2,0,P|227:262|253:236,1,75,0|8,3:0|1:2,0:0:0:0:
331,261,83995,1,2,3:2:0:0:
331,261,84074,1,2,0:2:0:0:
331,261,84154,1,2,1:2:0:0:
406,223,84314,2,0,P|414:186|426:150,1,75,2|8,3:2|1:2,0:0:0:0:
343,151,84633,2,0,P|334:114|322:78,1,75,2|0,3:2|1:0,0:0:0:0:
405,75,84952,2,0,P|413:38|425:2,2,75,2|10|0,3:2|1:2|3:2,0:0:0:0:
310,3,85431,6,0,P|270:-2|234:27,1,75,2|0,1:2|0:0,0:0:0:0:
254,91,85750,2,0,P|294:96|330:67,1,75,10|0,1:2|0:0,0:0:0:0:
181,62,86069,6,0,B|142:55|98:75|122:86|71:108|32:84,1,150,2|8,1:2|1:2,0:0:0:0:
105,38,86548,1,2,3:2:0:0:
105,38,86628,1,2,0:2:0:0:
105,38,86707,1,2,1:2:0:0:
124,118,86867,2,0,P|115:154|103:190,1,75,2|8,3:2|1:2,0:0:0:0:
187,190,87186,2,0,P|195:226|207:262,1,75,2|0,3:2|1:0,0:0:0:0:
125,266,87505,2,0,P|116:302|104:338,2,75,2|10|0,3:2|1:2|3:2,0:0:0:0:
219,337,87984,6,0,P|259:342|295:313,1,75,2|0,1:2|3:2,0:0:0:0:
275,249,88303,2,0,P|235:244|199:273,1,75,10|0,1:2|3:2,0:0:0:0:
348,280,88622,6,0,P|391:294|422:213,1,150,4|8,1:1|1:2,0:0:0:0:
344,187,89101,1,2,3:2:0:0:
344,187,89181,1,2,0:2:0:0:
344,187,89261,1,2,1:2:0:0:
278,236,89420,2,0,P|241:244|205:256,1,75,2|8,3:2|1:2,0:0:0:0:
206,173,89739,2,0,P|169:164|133:152,1,75,2|0,3:2|1:0,0:0:0:0:
130,235,90058,2,0,P|93:243|57:255,2,75,2|10|0,3:2|1:2|3:2,0:0:0:0:
58,140,90537,6,0,P|53:100|82:64,1,75,2|0,1:2|3:2,0:0:0:0:
146,84,90856,2,0,P|151:124|122:160,1,75,10|0,1:2|3:2,0:0:0:0:
117,11,91175,6,0,B|165:-6|205:21|183:33|225:49|274:24,1,150,2|8,1:2|1:2,0:0:0:0:
337,3,91654,1,2,3:2:0:0:
337,3,91734,1,2,0:2:0:0:
337,3,91814,1,2,1:2:0:0:
409,41,91973,2,0,L|419:1,2,37.5,2|8|8,3:2|0:2|1:2,0:0:0:0:
463,103,92292,6,0,P|453:143|441:180,1,75,2|0,1:3|0:0,0:0:0:0:
372,218,92612,2,0,P|382:258|394:295,1,75,2|0,1:3|0:0,0:0:0:0:
410,372,92931,6,0,P|370:362|333:350,1,75,2|0,1:3|0:0,0:0:0:0:
295,281,93250,2,0,P|255:291|218:303,1,75,2|0,1:3|1:0,0:0:0:0:
143,320,93569,6,0,P|153:280|165:243,1,75,2|0,1:3|0:0,0:0:0:0:
234,205,93888,2,0,P|224:165|212:128,1,75,2|0,1:3|0:0,0:0:0:0:
203,51,94207,6,0,P|243:61|280:73,1,75,2|8,1:3|1:2,0:0:0:0:
318,142,94527,2,0,P|358:132|395:120,1,75,8|8,1:2|1:2,0:0:0:0:
468,93,94846,1,8,1:2:0:0:
468,93,95005,6,0,P|471:127|439:170,1,75,2|0,0:0|0:0,0:0:0:0:
512,225,95644,2,0,P|483:244|429:238,1,75,2|0,0:0|0:0,0:0:0:0:
372,198,96282,2,0,P|334:199|305:219,1,75,2|0,0:0|0:0,0:0:0:0:
368,287,96920,2,0,P|350:318|353:354,1,75,2|0,0:0|0:0,0:0:0:0:
249,353,97558,6,0,P|252:318|220:275,1,75,2|0,0:0|0:0,0:0:0:0:
293,221,98197,2,0,P|264:201|210:207,1,75,2|0,0:0|0:0,0:0:0:0:
153,248,98835,2,0,P|115:246|86:226,1,75,2|0,0:0|0:0,0:0:0:0:
149,159,99480,5,10,0:3:0:0:
138,142,99560,2,0,P|129:116|135:89,1,56.2500021457673,8|4,0:3|0:3,0:0:0:0:
147,75,99814,2,0,P|194:68|302:64,1,150,4|0,1:1|1:0,0:0:0:0:
356,110,100291,2,0,P|380:101|409:92,2,37.5,8|8|2,0:2|0:2|1:2,0:0:0:0:
289,159,100607,2,0,P|265:150|236:141,2,37.5,8|8|2,0:2|0:2|1:2,0:0:0:0:
356,219,100924,2,0,P|380:210|409:201,2,37.5,8|8|2,0:2|0:2|1:2,0:0:0:0:
276,275,101241,2,0,P|252:266|223:257,2,37.5,8|8|2,0:2|0:2|1:2,0:0:0:0:
360,337,101557,2,0,P|384:328|413:319,2,37.5,8|8|2,0:2|0:2|1:2,0:0:0:0:
257,383,101874,2,0,P|233:374|204:365,2,37.5,8|8|2,0:2|0:2|1:2,0:0:0:0:
151,346,102186,5,10,0:2:0:0:
142,342,102263,1,8,0:2:0:0:
133,339,102341,2,0,P|109:330|80:321,2,37.5,0|8|2,1:0|0:2|3:2,0:0:0:0:
96,328,104603,6,0,P|90:280|78:236,1,75,8|4,0:3|0:3,0:0:0:0:
78,244,104846,1,8,0:2:0:0:
73,235,104927,1,10,0:2:0:0:
221,207,105234,6,0,P|261:201|372:189,1,150,4|10,1:1|0:2,0:0:0:0:
436,233,105712,1,0,0:0:0:0:
436,233,105872,1,0,1:2:0:0:
412,304,106031,2,0,P|404:340|396:377,1,75,2|8,1:3|0:2,0:0:0:0:
327,302,106351,6,0,P|282:292|233:288,1,75,2|0,3:2|1:2,0:0:0:0:
229,218,106670,2,0,P|193:227|156:232,1,75,2|8,1:3|0:2,0:0:0:0:
83,241,106989,1,2,1:3:0:0:
119,316,107148,6,0,P|129:352|112:385,1,75,2|2,0:0|1:3,0:0:0:0:
38,376,107468,2,0,P|29:341|46:308,1,75,10|0,0:2|3:0,0:0:0:0:
83,241,107787,6,0,B|95:199|69:167|68:193|43:137|78:93,1,150,2|10,1:2|0:2,0:0:0:0:
137,146,108265,1,0,0:0:0:0:
137,146,108425,1,0,1:2:0:0:
194,194,108585,2,0,P|239:200|291:225,1,75,2|8,1:3|0:2,0:0:0:0:
351,256,108904,6,0,P|347:210|327:160,2,75,2|0|2,3:2|1:2|1:3,0:0:0:0:
427,258,109382,1,8,0:2:0:0:
427,258,109542,2,0,P|430:220|440:184,1,75,4|2,1:1|0:0,0:0:0:0:
493,132,109861,2,0,P|445:63|384:95,1,150,2|2,1:3|3:2,0:0:0:0:
326,111,110340,6,0,P|279:101|174:82,1,150,4|10,1:1|0:2,0:0:0:0:
113,174,110819,1,0,0:0:0:0:
113,174,110978,2,0,P|152:168|202:166,1,75,0|2,1:2|1:3,0:0:0:0:
216,340,111457,6,0,P|280:331|378:323,2,150,2|2|4,3:2|1:3|1:1,0:0:0:0:
266,277,112255,6,0,P|283:245|274:209,1,75,2|2,0:0|1:3,0:0:0:0:
199,200,112574,2,0,P|182:233|192:269,1,75,10|0,0:2|3:0,0:0:0:0:
216,340,112893,6,0,B|163:360|124:326|160:326|117:293|68:317,1,150,2|10,1:2|0:2,0:0:0:0:
12,350,113372,1,0,0:0:0:0:
8,274,113531,1,2,1:2:0:0:
73,233,113691,1,2,1:3:0:0:
73,233,113771,1,0,1:0:0:0:
73,233,113851,2,0,P|83:194|86:175,2,37.5,8|8|4,0:3|0:3|0:3,0:0:0:0:
4,166,114170,6,0,P|-2:123|97:127,1,150,4|10,1:1|0:2,0:0:0:0:
149,137,114648,2,0,B|196:116|238:144|200:146|252:183|318:147,1,150,4|2,1:1|1:3,0:0:0:0:
352,115,115127,1,8,0:2:0:0:
438,313,115446,6,0,P|471:323|519:354,2,75,4|0|8,1:1|1:0|0:2,0:0:0:0:
388,256,115921,1,4,1:1:0:0:
480,119,116239,6,0,P|447:109|399:78,2,75,2|8|0,1:2|0:2|0:0,0:0:0:0:
384,162,116714,2,0,P|351:172|240:223,1,150,10|10,0:3|0:2,0:0:0:0:
192,165,117190,2,0,P|186:109|203:69,1,75,2|0,0:0|1:0,0:0:0:0:
214,21,117507,5,2,1:2:0:0:
263,77,117666,1,8,0:2:0:0:
190,91,117825,2,0,P|134:97|94:80,1,75,2|0,0:0|1:0,0:0:0:0:
46,68,118143,5,2,1:2:0:0:
102,19,118303,1,10,0:2:0:0:
116,92,118462,2,0,P|122:148|105:188,1,75,4|0,1:1|0:0,0:0:0:0:
86,235,118781,6,0,P|53:245|5:276,2,75,2|10|0,1:2|0:2|0:0,0:0:0:0:
160,246,119260,2,0,P|210:239|232:175,1,112.5,10|2,0:3|1:2,0:0:0:0:
234,174,119579,1,10,0:2:0:0:
309,199,119739,2,0,P|371:193|469:175,1,150,2|2,0:0|1:2,0:0:0:0:
507,235,120218,2,0,L|499:288,3,37.5,8|8|10|8,0:2|0:2|0:2|0:2,0:0:0:0:
497,302,120537,2,0,P|489:349|487:381,2,75,2|0|10,1:2|1:2|0:2,0:0:0:0:
394,325,121015,6,0,P|320:311|253:305,1,112.5,4|0,1:1|0:0,0:0:0:0:
267,308,121335,2,0,P|275:355|277:387,2,75,2|10|0,1:2|0:2|0:0,0:0:0:0:
244,236,121813,1,10,0:3:0:0:
49,221,122132,5,2,1:2:0:0:
49,221,122292,2,0,P|122:207|190:201,1,112.5,4|0,1:1|0:0,0:0:0:0:
174,204,122611,2,0,P|166:251|164:283,2,75,2|10|0,1:2|0:2|0:0,0:0:0:0:
199,134,123090,1,10,0:3:0:0:
393,112,123409,5,2,1:2:0:0:
393,112,123569,2,0,P|319:98|252:92,1,112.5,4|0,1:1|0:0,0:0:0:0:
266,99,123888,2,0,P|274:146|274:170,2,37.5,2|0|8,1:2|1:0|0:2,0:0:0:0:
201,164,124207,2,0,P|193:211|193:235,2,37.5,2|8|8,1:2|0:2|0:3,0:0:0:0:
258,242,124526,2,0,P|266:289|266:313,2,37.5,10|8|8,0:2|0:2|0:2,0:0:0:0:
347,292,124845,6,0,P|396:281|437:278,1,75,4|0,1:1|0:0,0:0:0:0:
386,195,125164,2,0,P|337:184|296:181,1,75,4|0,1:1|0:0,0:0:0:0:
347,98,125484,2,0,P|396:87|437:84,1,75,4|0,1:1|0:0,0:0:0:0:
386,1,125803,1,10,1:2:0:0:
386,1,125962,1,10,1:2:0:0:
386,1,126122,1,10,1:2:0:0:
386,1,126281,6,0,P|349:6|253:23,1,112.500004291535,2|2,0:0|0:0,0:0:0:0:
124,102,126920,6,0,P|121:64|109:29,1,75,4|0,1:1|0:0,0:0:0:0:
11,46,127239,2,0,P|16:83|27:119,1,75,2|0,1:3|0:0,0:0:0:0:
88,171,127558,1,2,1:3:0:0:
88,171,127717,1,0,1:2:0:0:
43,242,127877,1,10,3:2:0:0:
118,278,128037,1,0,1:2:0:0:
156,204,128196,6,0,B|194:195|194:195|252:214,1,75,10|0,3:2|1:2,0:0:0:0:
264,272,128515,2,0,B|226:281|226:281|168:262,1,75,10|0,3:2|1:0,0:0:0:0:
228,206,128834,6,0,P|230:168|242:133,1,75,4|0,1:1|0:0,0:0:0:0:
342,151,129154,2,0,P|336:188|325:223,1,75,8|0,3:2|0:0,0:0:0:0:
269,276,129473,1,2,1:3:0:0:
269,276,129632,1,0,1:2:0:0:
310,347,129792,1,10,3:2:0:0:
235,383,129951,1,0,1:2:0:0:
197,309,130111,6,0,B|159:300|159:300|101:319,1,75,10|0,3:2|1:2,0:0:0:0:
133,228,130430,2,0,B|98:239|98:239|60:230,1,75,10|0,3:2|1:0,0:0:0:0:
2,147,130749,6,0,P|16:224|23:297,1,150,4|8,1:1|0:2,0:0:0:0:
21,377,131227,1,0,3:0:0:0:
93,341,131387,2,0,P|131:330|174:329,1,75,2|0,1:2|0:0,0:0:0:0:
246,349,131706,2,0,P|235:311|234:268,1,75,10|0,0:2|3:0,0:0:0:0:
238,193,132025,2,0,P|192:198|156:230,1,75,2|0,1:2|0:0,0:0:0:0:
144,292,132344,2,0,P|162:249|152:202,1,75,10|0,0:2|0:0,0:0:0:0:
106,162,132663,2,0,P|133:199|179:214,1,75,2|0,1:2|0:0,0:0:0:0:
243,196,132983,5,10,0:2:0:0:
243,196,133142,1,0,3:2:0:0:
321,169,133302,2,0,P|330:126|339:18,1,150,4|10,1:1|0:2,0:0:0:0:
256,42,133780,2,0,P|215:36|167:29,1,75,2|0,1:2|0:0,0:0:0:0:
98,30,134100,2,0,P|147:51|153:120,1,112.5,2|0,1:2|0:0,0:0:0:0:
154,123,134419,6,0,P|156:191|170:287,1,150,4|2,1:1|1:2,0:0:0:0:
242,212,134897,2,0,P|244:249|249:286,1,75,10|8,3:2|0:2,0:0:0:0:
323,233,135217,1,2,1:2:0:0:
402,255,135376,2,0,L|407:292,2,37.5,0|0|10,1:2|1:0|0:2,0:0:0:0:
481,212,135695,1,8,0:2:0:0:
480,196,135775,1,8,0:2:0:0:
479,180,135855,6,0,P|479:139|478:78,1,75,4|0,1:1|0:0,0:0:0:0:
395,118,136174,2,0,P|395:77|394:16,1,75,2|0,1:3|0:0,0:0:0:0:
302,73,136493,1,2,1:3:0:0:
302,73,136652,1,0,1:2:0:0:
227,109,136812,1,10,3:2:0:0:
227,109,136972,1,0,1:2:0:0:
152,143,137131,6,0,P|115:156|56:142,1,75,10|0,3:2|1:2,0:0:0:0:
32,86,137450,2,0,P|66:74|104:76,1,75,10|0,3:2|1:0,0:0:0:0:
152,143,137769,6,0,P|161:188|177:238,1,75,4|0,1:1|0:0,0:0:0:0:
228,295,138089,2,0,P|237:250|253:200,1,75,10|0,3:2|0:0,0:0:0:0:
252,214,138328,1,0,1:0:0:0:
259,208,138408,1,2,1:3:0:0:
334,241,138567,1,0,1:2:0:0:
399,190,138727,1,10,3:2:0:0:
399,190,138886,1,0,1:2:0:0:
478,211,139046,2,0,P|489:176|492:138,1,75,10|0,3:2|1:2,0:0:0:0:
439,84,139365,2,0,B|410:75|372:95|396:93|373:125|321:107,1,112.5,10|0,3:2|0:0,0:0:0:0:
324,109,139684,6,0,P|273:100|214:93,1,75,4|0,1:1|0:0,0:0:0:0:
168,84,140003,1,10,0:2:0:0:
168,84,140162,1,0,3:2:0:0:
87,104,140322,2,0,P|67:70|70:31,1,75,2|0,1:2|3:2,0:0:0:0:
150,15,140641,2,0,P|169:48|166:87,1,75,10|0,0:2|3:2,0:0:0:0:
153,169,140960,6,0,P|199:166|239:148,1,75,2|0,1:2|3:2,0:0:0:0:
191,255,141279,2,0,P|155:243|118:241,1,75,10|0,0:2|3:2,0:0:0:0:
170,333,141598,2,0,P|216:330|256:312,1,75,2|0,1:2|3:0,0:0:0:0:
304,264,141918,5,10,0:2:0:0:
304,264,142077,1,0,3:2:0:0:
386,317,142237,2,0,P|398:246|422:171,1,150,4|10,1:1|3:2,0:0:0:0:
476,107,142715,2,0,P|440:101|403:89,1,75,2|2,3:2|1:3,0:0:0:0:
304,33,143035,2,0,P|339:21|376:15,1,75,2|8,1:2|3:2,0:0:0:0:
328,109,143354,6,0,P|267:106|226:20,1,150,4|2,1:1|1:2,0:0:0:0:
211,124,143832,2,0,P|214:165|218:211,1,75,10|8,3:2|0:2,0:0:0:0:
219,208,144072,1,8,0:2:0:0:
221,216,144152,1,2,1:2:0:0:
298,231,144311,1,8,0:2:0:0:
298,231,144471,2,0,P|295:268|292:305,1,75,2|0,1:2|0:0,0:0:0:0:
234,354,144790,5,4,1:1:0:0:
234,354,152691,6,0,P|197:337|159:330,1,75,10|2,1:2|0:0,0:0:0:0:
84,260,153185,2,0,P|120:252|154:236,1,75,2|10,1:2|0:2,0:0:0:0:
227,160,153678,2,0,P|256:169|270:177,2,37.5,10|0|10,1:2|0:0|0:2,0:0:0:0:
324,119,154172,1,2,1:2:0:0:
395,195,154419,1,10,0:2:0:0:
489,149,154666,6,0,P|495:110|484:68,1,75,10|10,1:2|0:2,0:0:0:0:
372,39,155160,2,0,P|376:14|381:-4,2,37.5,2|0|10,1:2|0:0|0:0,0:0:0:0:
309,142,155654,2,0,B|267:144|235:116|259:107|222:82|169:95,1,150,2|2,1:2|1:2,0:0:0:0:
68,150,156394,1,8,0:2:0:0:
66,162,156518,1,8,0:2:0:0:
64,171,156641,5,10,1:2:0:0:
59,290,156888,1,2,0:0:0:0:
164,233,157135,2,0,P|199:221|254:213,1,75,2|10,1:2|0:0,0:0:0:0:
352,246,157629,2,0,P|363:216|378:195,2,37.5,10|0|10,1:2|0:0|0:2,0:0:0:0:
280,343,158123,2,0,P|229:329|190:322,1,75,2|10,1:2|0:2,0:0:0:0:
91,290,158617,6,0,P|75:255|71:200,1,75,10|10,1:2|0:2,0:0:0:0:
132,116,159110,2,0,P|162:105|183:90,2,37.5,2|0|10,1:2|0:0|0:0,0:0:0:0:
223,193,159604,1,10,1:2:0:0:
233,196,159728,1,8,0:0:0:0:
245,198,159851,2,0,P|272:205|300:214,2,37.5,8|8|2,0:2|0:2|1:2,0:0:0:0:
126,250,160345,5,8,0:2:0:0:
126,250,160469,1,8,0:2:0:0:
126,250,160592,2,0,P|131:296|127:351,1,75,10|10,1:1|0:2,0:0:0:0:
219,381,161086,2,0,P|256:353|305:329,1,75,2|10,1:1|0:2,0:0:0:0:
294,337,161456,1,10,0:2:0:0:
306,336,161580,2,0,P|361:333|352:262,1,112.5,10|10,1:1|0:2,0:0:0:0:
369,271,162073,2,0,P|364:228|370:170,1,75,2|10,1:1|0:2,0:0:0:0:
255,131,162567,6,0,P|260:85|256:30,1,75,10|10,1:1|0:2,0:0:0:0:
357,17,163061,2,0,P|394:44|443:68,1,75,2|10,1:1|0:2,0:0:0:0:
432,61,163431,1,10,0:2:0:0:
444,62,163555,2,0,P|499:65|490:136,1,112.5,10|10,1:1|0:2,0:0:0:0:
507,127,164049,2,0,P|502:170|508:228,1,75,2|10,1:1|0:2,0:0:0:0:
415,273,164543,6,0,P|376:278|319:294,1,75,10|10,1:1|0:2,0:0:0:0:
333,181,165036,2,0,P|294:176|237:160,1,75,2|10,1:1|0:2,0:0:0:0:
241,271,165530,2,0,P|202:276|145:292,1,75,10|10,1:1|0:2,0:0:0:0:
159,179,166024,2,0,P|120:174|63:158,1,75,2|10,1:1|0:2,0:0:0:0:
23,241,166518,6,0,P|-5:211|12:101,1,150,14|10,1:1|1:1,0:0:0:0:
141,91,167671,2,0,P|169:121|152:231,1,150,2|10,1:2|1:2,0:0:0:0:
85,165,168732,6,0,P|81:123|68:67,1,84.3750032186509,4|8,1:1|0:2,0:0:0:0:
68,63,169051,2,0,P|99:23|139:32,1,84.3750032186509,0|0,1:0|1:0,0:0:0:0:
145,36,169370,2,0,B|176:62|205:48|188:39|223:29|265:50,1,112.500004291535,0|0,1:0|1:0,0:0:0:0:
320,82,169849,1,8,0:2:0:0:
285,152,170008,2,0,P|292:195|292:273,1,112.500004291535,0|8,1:0|0:2,0:0:0:0:
233,315,170487,1,0,1:0:0:0:
233,315,170567,1,0,1:0:0:0:
233,315,170646,2,0,P|184:298|122:291,1,112.500004291535,8|8,0:2|0:2,0:0:0:0:
48,241,171125,5,0,1:0:0:0:
48,241,171205,1,0,1:0:0:0:
48,241,171285,2,0,P|43:188|38:164,1,56.2500021457673,4|0,1:1|1:0,0:0:0:0:
104,135,171604,2,0,P|109:82|114:58,1,56.2500021457673,0|8,1:0|0:2,0:0:0:0:
107,2,171923,5,0,1:0:0:0:
107,2,172003,1,0,1:0:0:0:
107,2,172083,1,0,1:0:0:0:
176,39,172242,2,0,P|223:34|257:33,1,56.2500021457673,0|0,1:0|1:0,0:0:0:0:
300,72,172561,1,0,1:0:0:0:
368,32,172721,2,0,P|345:101|337:161,1,112.500004291535,12|0,0:2|1:0,0:0:0:0:
402,186,173200,5,8,0:2:0:0:
472,154,173359,1,0,1:0:0:0:
472,154,173439,1,0,1:0:0:0:
472,154,173519,2,0,P|503:160|517:162,2,28.1250010728836,8|8|0,0:2|0:2|3:0,0:0:0:0:
327,217,174157,5,2,0:0:0:0:
417,34,174636,6,0,P|468:44|502:56,2,75
349,0,175114,6,0,P|310:6|251:27,1,75,4|0,1:1|0:0,0:0:0:0:
300,111,175433,2,0,P|338:108|373:96,1,75,2|0,1:3|0:0,0:0:0:0:
225,74,175752,1,2,1:3:0:0:
225,74,175911,1,0,1:2:0:0:
154,33,176071,1,10,3:2:0:0:
118,108,176231,1,0,1:2:0:0:
192,146,176390,6,0,B|201:184|201:184|182:242,1,75,10|0,3:2|1:2,0:0:0:0:
120,263,176709,2,0,B|111:225|111:225|130:167,1,75,10|0,3:2|1:0,0:0:0:0:
118,108,177028,6,0,P|63:115|8:131,1,112.5,4|0,1:1|0:0,0:0:0:0:
0,136,177348,2,0,P|25:107|6:41,1,112.5,10|0,3:2|0:0,0:0:0:0:
0,33,177667,1,2,1:3:0:0:
76,2,177826,1,0,1:2:0:0:
153,29,177986,1,10,3:2:0:0:
153,29,178145,1,0,1:2:0:0:
231,53,178305,6,0,P|249:91|242:133,1,75,10|0,3:2|1:2,0:0:0:0:
185,179,178624,2,0,P|166:140|173:98,1,75,10|0,3:2|1:0,0:0:0:0:
231,53,178943,6,0,P|302:62|404:80,1,150,4|8,1:1|0:2,0:0:0:0:
453,39,179421,1,0,3:0:0:0:
503,104,179581,2,0,P|491:156|484:208,1,75,2|0,1:2|0:0,0:0:0:0:
407,155,179900,2,0,P|419:207|426:259,1,75,10|0,0:2|3:0,0:0:0:0:
494,281,180219,6,0,P|429:252|378:301,1,150,2|10,1:2|0:2,0:0:0:0:
350,379,180698,1,0,3:2:0:0:
295,314,180857,2,0,P|253:317|212:325,1,75,2|0,1:2|0:0,0:0:0:0:
154,278,181177,5,10,0:2:0:0:
154,278,181336,1,0,3:2:0:0:
112,357,181496,2,0,P|110:282|92:209,1,150,4|10,1:1|0:2,0:0:0:0:
172,189,181974,2,0,P|173:114|191:41,1,150,2|2,1:2|1:2,0:0:0:0:
135,102,182453,1,8,3:2:0:0:
245,151,182613,6,0,P|299:159|324:71,1,150,4|2,1:1|1:2,0:0:0:0:
304,4,183091,2,0,P|269:14|252:47,1,75,10|8,3:2|0:2,0:0:0:0:
259,128,183411,1,2,1:2:0:0:
330,82,183570,5,0,1:2:0:0:
348,77,183650,1,0,1:0:0:0:
366,73,183730,2,0,L|414:61,2,37.5,10|8|8,0:2|0:2|0:2,0:0:0:0:
472,119,184049,6,0,P|466:158|464:216,1,75,4|0,1:1|0:0,0:0:0:0:
370,163,184368,2,0,P|376:202|378:260,1,75,2|0,1:3|0:0,0:0:0:0:
451,275,184687,1,2,1:3:0:0:
451,275,184846,1,0,1:2:0:0:
383,323,185006,1,10,3:2:0:0:
383,323,185166,1,0,1:2:0:0:
310,282,185325,6,0,P|270:282|220:315,1,75,10|0,3:2|1:2,0:0:0:0:
222,378,185644,2,0,P|258:377|293:362,1,75,10|0,3:2|1:0,0:0:0:0:
310,282,185963,6,0,B|323:253|314:218|306:239|289:202|309:156,1,112.5,4|0,1:1|1:0,0:0:0:0:
308,162,186282,6,0,P|332:153|348:149,3,37.5,10|8|8|8,0:2|0:2|0:2|0:2,0:0:0:0:
363,116,186601,2,0,P|387:125|403:129,3,37.5,10|8|8|8,0:3|0:3|0:3|0:3,0:0:0:0:
422,164,186920,2,0,P|446:155|462:151,3,37.5,6|4|4|4,0:3|0:3|0:3|0:3,0:0:0:0:
470,124,187239,1,2,1:2:0:0:
470,124,187877,6,0,P|412:137|353:173,1,112.5,4|0,1:1|0:0,0:0:0:0:
332,180,188197,2,0,P|274:167|215:131,1,112.5,4|0,1:1|0:0,0:0:0:0:
213,131,188516,2,0,P|174:141|133:162,1,75,4|0,1:1|0:0,0:0:0:0:
67,191,188835,6,0,P|120:189|129:252,1,112.5,10|0,0:2|0:0,0:0:0:0:
130,248,189154,2,0,P|119:287|114:337,1,75,2|0,1:2|3:2,0:0:0:0:
170,376,189473,1,10,0:2:0:0:
170,376,189633,1,0,3:2:0:0:
248,332,189792,2,0,P|268:282|260:247,1,75,2|0,1:2|0:0,0:0:0:0:
205,205,190111,2,0,P|151:212|125:237,1,75,10|0,0:2|0:0,0:0:0:0:
116,306,190431,2,0,P|149:348|183:358,1,75,2|0,1:2|0:0,0:0:0:0:
248,332,190750,5,10,0:2:0:0:
248,332,190909,1,0,3:2:0:0:
334,359,191069,2,0,P|372:349|496:326,1,150,4|10,1:1|0:2,0:0:0:0:
449,251,191548,2,0,P|440:207|424:179,1,75,2|0,1:3|0:0,0:0:0:0:
487,125,191867,2,0,P|496:81|512:53,1,75,2|8,1:3|0:2,0:0:0:0:
408,105,192186,6,0,P|369:110|356:17,1,150,4|10,1:1|0:2,0:0:0:0:
315,98,192665,2,0,P|266:88|220:71,1,75,2|8,1:3|0:0,0:0:0:0:
176,29,192984,2,0,P|171:67|169:88,3,37.5,2|0|8|8,1:2|1:0|0:2|0:2,0:0:0:0:
137,93,193303,2,0,P|142:131|144:152,3,37.5,10|8|4|4,0:3|0:3|0:3|0:3,0:0:0:0:
177,151,193622,6,0,P|170:193|166:248,1,75,4|0,1:1|0:0,0:0:0:0:
100,272,193941,1,10,0:2:0:0:
100,272,194101,2,0,P|96:310|90:347,1,75,2|8,1:3|0:2,0:0:0:0:
16,379,194420,1,2,1:3:0:0:
16,379,194580,1,8,0:2:0:0:
17,280,194739,6,0,P|23:205|32:131,1,150,4|10,1:1|0:2,0:0:0:0:
103,87,195218,1,8,0:2:0:0:
151,155,195377,2,0,P|184:148|220:145,2,37.5,10|8|0,0:2|0:2|1:2,0:0:0:0:
121,232,195697,2,0,P|88:225|52:222,2,37.5,2|0|8,1:2|1:0|0:2,0:0:0:0:
162,303,196016,5,4,1:1:0:0:
256,192,196095,12,10,198409,1:2:0:0:
256,192,198728,12,2,199846,3:2:0:0:
179,290,200165,5,10,0:2:0:0:
287,165,200484,2,0,P|324:174|361:200,2,75,10|6|2,0:3|0:3|1:2,0:0:0:0:
233,226,200963,1,10,1:2:0:0:
343,103,201282,1,4,1:1:0:0:
256,192,201361,12,10,203516,1:2:0:0:
339,50,203835,6,0,P|408:65|410:134,2,150,2|10|2,1:2|1:2|1:2,0:0:0:0:
282,111,204633,2,0,P|272:147|265:184,1,75,2|8,3:2|1:2,0:0:0:0:
326,250,204952,2,0,P|268:227|166:216,1,150,4|2,1:1|3:2,0:0:0:0:
170,133,205431,2,0,P|135:146|98:150,1,75,10|2,1:2|3:2,0:0:0:0:
28,194,205750,2,0,P|18:158|6:123,1,75,10|10,1:2|0:3,0:0:0:0:
101,229,206069,2,0,P|89:264|79:300,1,75,4|2,1:1|0:0,0:0:0:0:
150,361,206388,6,0,P|107:381|78:384,2,75,4|10|10,1:1|0:3|0:2,0:0:0:0:
209,304,206867,2,0,P|166:284|137:281,2,75,4|10|10,1:1|0:3|0:2,0:0:0:0:
267,362,207346,2,0,P|224:382|195:385,2,75,4|10|10,1:1|0:3|0:2,0:0:0:0:
326,305,207824,2,0,P|283:285|254:282,2,75,4|10|10,1:1|0:3|0:2,0:0:0:0:
407,321,208303,6,0,P|403:279|384:222,1,75,4|10,1:1|0:2,0:0:0:0:
469,211,208622,2,0,P|473:169|492:112,1,75,4|10,1:1|0:2,0:0:0:0:
426,76,208941,6,0,P|469:56|498:53,2,75,4|10|10,1:1|0:3|0:2,0:0:0:0:
366,133,209420,2,0,P|409:153|438:156,2,75,4|10|10,1:1|0:3|0:2,0:0:0:0:
309,75,209899,2,0,P|352:55|381:52,2,75,4|10|10,1:1|0:3|0:2,0:0:0:0:
250,132,210377,2,0,P|293:152|322:155,2,75,4|10|10,1:1|0:3|0:2,0:0:0:0:
191,73,210856,5,2,1:2:0:0:
191,73,211016,1,10,0:2:0:0:
111,51,211175,1,0,1:2:0:0:
17,24,211335,5,10,3:2:0:0:
