osu file format v14

[General]
AudioFilename: audio.mp3
AudioLeadIn: 0
PreviewTime: 65008
Countdown: 1
SampleSet: Soft
StackLeniency: 0.3
Mode: 0
LetterboxInBreaks: 0
WidescreenStoryboard: 1

[Editor]
DistanceSpacing: 1.1
BeatDivisor: 4
GridSize: 32
TimelineZoom: 2

[Metadata]
Title:L50
TitleUnicode:L50
Artist:Liz Triangle
ArtistUnicode:Liz Triangle
Creator:Sagu
Version:AdveNt's Lunatic
Source:東方花映塚 ~ Phantasmagoria of Flower View.
Tags:Yuuma3 ponbot AdveNt 東方Project TH09 Touhou Kaeizuka ZUN Team Shanghai Alice liztora liz-tora c88 comic market comiket 88 LTCD-23 インモータル フィロソフィー Immortal Philosophy kaztora lily-an Pira まおう maou スグル suguru ジョイフル joyfull メディスン・メランコリー Medicine Melancholy ポイズンボディ ~ Forsaken Doll Poison Body Japanese J-rock Jrock Rock Video Game
BeatmapID:3281493
BeatmapSetID:1599126

[Difficulty]
HPDrainRate:5.5
CircleSize:4
OverallDifficulty:7.5
ApproachRate:8.5
SliderMultiplier:2
SliderTickRate:1

[Events]
//Background and Video events
0,0,"BG.jpg",0,0
//Break Periods
2,12029,16141
2,95046,98805
2,148740,152016
//Storyboard Layer 0 (Background)
//Storyboard Layer 1 (Fail)
//Storyboard Layer 2 (Pass)
//Storyboard Layer 3 (Foreground)
//Storyboard Layer 4 (Overlay)
//Storyboard Sound Samples

[TimingPoints]
540,319.148936170213,4,2,1,30,1,0
540,-166.666666666667,4,2,1,30,0,0
5247,-166.666666666667,4,2,1,5,0,0
5327,-333.333333333334,4,2,1,40,0,0
5566,-166.666666666667,4,2,1,40,0,0
5646,-166.666666666667,4,2,1,40,0,0
16816,-333.333333333334,4,2,1,80,0,0
17055,-333.333333333334,4,2,1,5,0,0
17135,-100,4,2,1,80,0,0
27348,-100,4,2,1,70,0,0
32454,-125,4,2,1,55,0,0
38837,-125,4,2,1,60,0,0
41391,-125,4,2,1,70,0,0
42667,-100,4,2,1,70,0,0
51603,-100,4,2,1,80,0,0
52880,-100,4,2,1,65,0,0
55433,-100,4,2,1,75,0,0
57986,-100,4,2,1,65,0,0
59422,-200,4,2,1,65,0,0
60220,-200,4,2,1,75,0,0
60540,-100,4,2,1,75,0,0
63252,-100,4,2,1,80,0,0
65167,-200,4,2,1,80,0,0
65646,319.148936170213,6,2,1,85,1,1
65646,-80,6,2,1,85,0,1
69475,319.148936170213,4,2,1,85,1,1
74581,319.148936170213,6,2,1,85,1,1
74581,-80,6,2,1,85,0,1
78410,319.148936170213,4,2,1,85,1,1
78410,-200,4,2,1,85,0,1
78729,-80,6,2,1,85,0,1
82558,-200,6,2,1,85,0,1
82878,-100,6,2,1,85,0,1
83516,-100,6,2,1,80,0,1
84952,-100,6,2,1,80,0,0
92292,-125,6,2,1,80,0,0
95005,-125,6,2,1,30,0,0
98835,322.58064516129,4,2,1,30,1,0
99480,-125,4,2,1,45,0,0
99814,319.148936170213,6,2,1,60,1,0
99814,-125,6,2,1,60,0,0
100133,316.622691292876,4,2,1,60,1,0
100133,-125,4,2,1,60,0,0
100291,-125,4,2,1,65,0,0
100607,-125,4,2,1,70,0,0
100924,-125,4,2,1,75,0,0
101241,-125,4,2,1,80,0,0
102032,309.278350515464,4,2,1,85,1,0
102032,-125,4,2,1,85,0,0
102495,324.324324324324,6,2,1,60,1,0
102495,-125,6,2,1,60,0,0
102576,-125,6,2,1,5,0,0
104603,-125,6,2,1,70,0,0
104927,307.692307692308,4,2,1,70,1,0
104927,-125,4,2,1,70,0,0
105234,319.148936170213,4,2,1,70,1,0
114170,-100,4,2,1,80,0,0
115446,317.208564631245,4,2,1,75,1,0
117984,319.148936170213,4,2,1,75,1,0
118781,-200,6,2,1,75,0,0
119260,-100,6,2,1,75,0,0
124845,-100,6,2,1,80,0,0
126281,-100,6,2,1,60,0,0
126920,319.148936170213,6,2,1,85,1,1
126920,-80,6,2,1,85,0,1
130749,319.148936170213,4,2,1,85,1,1
135855,319.148936170213,6,2,1,85,1,1
135855,-80,6,2,1,85,0,1
139684,319.148936170213,4,2,1,85,1,1
139684,-200,4,2,1,85,0,1
140003,-80,6,2,1,85,0,1
144471,-125,6,2,1,85,0,1
144790,493.827160493827,4,2,1,50,1,0
152691,-125,4,2,1,50,0,0
160592,-125,4,2,2,50,0,0
166518,576.923076923077,4,2,2,40,1,0
167671,555.555555555556,4,2,2,45,1,0
168087,-100,4,2,2,5,0,0
168226,504.201680672269,4,2,2,50,1,0
168226,-166.666666666667,4,2,2,50,0,0
168604,-166.666666666667,4,2,2,5,0,0
168732,319.14947368421,4,2,1,70,1,0
174157,-66.6666666666667,4,2,3,70,0,0
174237,-66.6666666666667,4,2,1,5,0,0
175114,319.14947368421,6,2,1,85,1,1
175114,-80,6,2,1,85,0,1
178943,319.14947368421,4,2,1,85,1,1
184049,319.14947368421,6,2,1,85,1,1
184049,-80,6,2,1,85,0,1
185963,319.14947368421,4,2,1,85,1,1
185963,-80,6,2,1,85,0,1
187232,-80,6,2,1,90,0,1
188516,-80,6,2,1,85,0,1
196016,-80,6,2,1,80,0,1
198090,-100,4,2,1,80,0,0
203835,-100,4,2,1,90,0,0

[Colours]
Combo1 : 128,191,255
Combo2 : 255,255,64
Combo3 : 255,64,159
Combo4 : 223,223,223
Combo5 : 64,159,255
Combo6 : 255,255,128
Combo7 : 255,128,192
Combo8 : 233,233,233

[HitObjects]
383,120,540,5,2,0:0:0:0:
328,249,859,1,0,0:0:0:0:
383,120,1178,2,0,P|442:118|427:171,1,119.999996337891,2|0,0:0|0:0,0:0:0:0:
218,223,1816,5,2,0:0:0:0:
273,352,2135,1,0,0:0:0:0:
218,223,2454,2,0,P|159:221|174:274,1,119.999996337891,2|0,0:0|0:0,0:0:0:0:
362,256,3093,5,2,0:0:0:0:
491,311,3412,1,0,0:0:0:0:
362,256,3731,2,0,P|334:197|358:145,1,119.999996337891,2|0,0:0|0:0,0:0:0:0:
205,146,4369,5,2,0:0:0:0:
76,201,4688,1,0,0:0:0:0:
205,146,5007,2,0,P|233:87|219:55,1,89.9999972534181,2|0,0:0|0:0,0:0:0:0:
212,45,5327,2,0,P|193:38|162:38,1,44.999998626709
143,45,5646,6,0,P|121:72|122:97,3,59.9999981689454,2|0|0|0,0:0|0:0|0:0|0:0,0:0:0:0:
62,162,6284,6,0,P|65:196|83:213,1,59.9999981689454,2|0,0:0|0:0,0:0:0:0:
84,236,6603,2,0,P|111:258|136:257,1,59.9999981689454
266,200,6922,6,0,P|300:203|317:221,3,59.9999981689454,2|0|0|0,0:0|0:0|0:0|0:0,0:0:0:0:
414,218,7561,6,0,P|436:244|435:269,1,59.9999981689454,2|0,0:0|0:0,0:0:0:0:
450,285,7880,2,0,P|446:319|428:336,1,59.9999981689454
322,330,8199,6,0,P|295:308|270:309,3,59.9999981689454,2|0|0|0,0:0|0:0|0:0|0:0,0:0:0:0:
204,238,8838,6,0,P|169:241|152:259,1,59.9999981689454,2|0,0:0|0:0,0:0:0:0:
131,259,9157,2,0,P|109:286|110:311,1,59.9999981689454
241,356,9476,6,0,P|267:330|267:291,1,59.9999981689454,2|0,0:0|0:0,0:0:0:0:
204,238,9795,2,0,P|178:212|178:173,1,59.9999981689454
279,146,10114,1,2,0:0:0:0:
112,91,16816,6,0,L|118:145,1,44.999998626709,8|0,1:2|0:0,0:0:0:0:
123,164,17135,6,0,P|170:193|282:108,1,200,4|8,1:1|1:2,0:0:0:0:
334,50,17614,2,0,P|425:33|456:52,1,100,2|0,3:2|1:0,0:0:0:0:
499,92,17933,1,2,3:2:0:0:
499,92,18093,1,8,1:2:0:0:
471,234,18252,6,0,P|420:245|371:216,1,100,2|0,3:2|1:0,0:0:0:0:
307,155,18571,1,2,3:2:0:0:
307,155,18731,1,8,1:2:0:0:
239,76,18891,2,0,P|172:69|131:98,1,100,2|0,3:2|1:0,0:0:0:0:
75,124,19210,2,0,P|22:114|7:69,2,100,2|10|0,3:2|1:2|3:0,0:0:0:0:
239,76,19688,6,0,P|271:34|322:23,1,100,2|0,1:2|3:0,0:0:0:0:
127,242,20008,2,0,P|95:284|44:295,1,100,10|0,1:2|3:0,0:0:0:0:
183,159,20327,1,2,1:2:0:0:
269,210,20486,2,0,B|302:192|320:213|336:232|368:216,1,100,2|8,3:2|1:2,0:0:0:0:
449,201,20805,2,0,P|478:133|384:148,1,200,2|2,3:2|3:2,0:0:0:0:
334,293,21284,1,10,1:2:0:0:
334,293,21444,1,0,3:0:0:0:
402,365,21603,2,0,P|449:373|490:335,1,100,2|2,1:2|3:2,0:0:0:0:
269,210,21922,2,0,P|222:202|181:240,1,100,8|2,1:2|3:2,0:0:0:0:
81,363,22242,5,4,1:1:0:0:
166,320,22401,2,0,P|195:274|168:219,1,100,2|8,3:2|1:2,0:0:0:0:
117,156,22720,2,0,P|88:110|115:55,1,100,2|0,3:2|1:0,0:0:0:0:
160,14,23039,1,2,3:2:0:0:
160,14,23199,1,8,1:2:0:0:
240,47,23359,6,0,P|269:93|242:148,1,100,2|0,3:2|1:0,0:0:0:0:
196,211,23678,1,2,3:2:0:0:
196,211,23837,1,8,1:2:0:0:
117,156,23997,2,0,P|64:143|12:165,1,100,2|0,3:2|1:0,0:0:0:0:
264,269,24317,2,0,P|317:282|369:260,2,100,2|10|0,3:2|1:2|3:0,0:0:0:0:
96,246,24795,6,0,P|77:292|91:357,1,100,2|0,1:2|3:0,0:0:0:0:
345,362,25114,2,0,P|364:316|350:251,1,100,10|0,1:2|3:0,0:0:0:0:
317,186,25433,1,2,1:2:0:0:
226,290,25593,2,0,P|168:281|139:243,1,100,2|8,3:2|1:2,0:0:0:0:
47,144,25912,6,0,B|47:93|141:117|128:187|60:190|48:228|73:277,1,200,4|2,1:1|3:2,0:0:0:0:
86,345,26391,1,10,1:2:0:0:
86,345,26550,1,0,3:0:0:0:
226,290,26710,1,10,1:2:0:0:
372,242,26869,1,10,0:3:0:0:
372,242,26949,1,4,0:3:0:0:
372,242,27029,2,0,P|421:259|430:314,1,100,4|2,1:1|0:0,0:0:0:0:
226,290,27348,6,0,P|179:256|188:202,2,100,0|2|2,1:0|0:0|3:2,0:0:0:0:
272,132,27827,2,0,P|300:81|269:36,2,100,0|2|2,1:0|0:0|3:2,0:0:0:0:
226,290,28305,6,0,P|179:256|188:202,2,100,0|2|2,1:0|0:0|3:2,0:0:0:0:
272,132,28784,2,0,P|300:81|269:36,2,100,0|2|2,1:0|0:0|3:2,0:0:0:0:
226,290,29263,5,0,1:0:0:0:
178,218,29422,1,2,0:0:0:0:
272,132,29582,1,0,3:0:0:0:
284,45,29742,1,2,0:0:0:0:
187,76,29901,6,0,P|126:81|94:53,2,100,0|2|2,1:0|0:0|3:2,0:0:0:0:
376,136,30380,2,0,P|315:129|283:156,2,100,0|2|2,1:0|0:0|3:2,0:0:0:0:
187,76,30859,6,0,P|126:81|94:53,2,100,0|2|2,1:0|0:0|3:2,0:0:0:0:
376,136,31337,2,0,P|315:129|283:156,2,100,0|2|2,1:0|0:0|3:2,0:0:0:0:
97,58,31816,5,8,0:3:0:0:
187,76,31976,1,8,0:3:0:0:
286,151,32135,1,4,0:3:0:0:
376,136,32295,1,4,0:3:0:0:
464,73,32454,5,4,1:1:0:0:
464,73,32614,1,2,0:0:0:0:
386,16,32774,2,0,P|356:40|364:93,1,80,2|0,3:2|0:0,0:0:0:0:
404,161,33093,2,0,P|416:279|388:306,1,160,2|2,3:2|3:2,0:0:0:0:
308,339,33571,1,0,0:0:0:0:
308,339,33731,6,0,P|254:314|221:322,2,80,2|0|2,3:2|0:0|3:2,0:0:0:0:
420,303,34210,1,2,0:0:0:0:
420,303,34290,1,0,3:0:0:0:
420,303,34369,2,0,P|459:261|428:195,1,120,0|0,3:0|0:0,0:0:0:0:
415,176,34688,2,0,P|389:134|401:98,1,80,8|2,3:2|0:0,0:0:0:0:
282,176,35008,6,0,P|253:209|178:199,1,120,0|0,3:0|0:0,0:0:0:0:
154,176,35327,2,0,P|112:152|71:165,1,80,2|0,3:2|0:0,0:0:0:0:
6,198,35646,1,2,3:2:0:0:
6,198,35805,1,0,0:0:0:0:
100,316,35965,2,0,P|100:264|72:233,1,80,2|2,1:2|3:2,0:0:0:0:
6,198,36284,6,0,P|6:122|59:91,1,120,0|0,1:0|0:0,0:0:0:0:
66,83,36603,1,2,3:2:0:0:
152,207,36763,1,0,3:2:0:0:
235,126,36922,2,0,L|363:100,1,120,2|0,3:2|0:0,0:0:0:0:
417,61,37242,2,0,P|427:13|399:54,1,120,8|0,3:2|0:0,0:0:0:0:
352,102,37561,6,0,P|342:155|366:185,1,80,0|2,1:0|0:0,0:0:0:0:
492,356,37880,2,0,P|502:303|478:273,1,80,2|0,3:2|0:0,0:0:0:0:
442,224,38199,1,2,3:2:0:0:
442,224,38359,1,0,0:0:0:0:
391,285,38518,2,0,P|338:295|308:271,1,80,2|0,1:2|3:2,0:0:0:0:
164,207,38837,5,2,1:2:0:0:
64,273,38997,1,0,0:0:0:0:
172,326,39157,1,2,3:2:0:0:
270,261,39316,5,10,0:2:0:0:
270,261,39396,1,8,0:2:0:0:
270,261,39476,1,8,0:2:0:0:
66,184,39635,1,2,0:0:0:0:
251,164,39795,2,0,P|270:103|246:73,1,80,6|0,1:2|0:0,0:0:0:0:
156,104,40114,5,4,1:1:0:0:
156,104,41391,6,0,P|137:165|161:195,1,80,4|0,1:1|1:0,0:0:0:0:
300,268,41710,2,0,P|256:221|218:226,1,80,14|0,1:2|1:0,0:0:0:0:
33,226,42029,1,2,1:2:0:0:
89,311,42188,1,0,1:0:0:0:
89,311,42268,1,8,0:2:0:0:
89,311,42348,2,0,P|151:296|165:261,1,80,10|0,0:2|0:0,0:0:0:0:
264,113,42667,6,0,P|330:74|403:117,1,150,4|0,1:1|0:0,0:0:0:0:
416,123,42986,2,0,P|469:118|491:72,1,100,10|0,0:2|0:0,0:0:0:0:
420,19,43305,1,2,1:2:0:0:
334,166,43465,2,0,L|355:369,1,200,2|2,1:3|3:2,0:0:0:0:
456,313,43944,5,0,1:2:0:0:
364,274,44103,1,2,1:3:0:0:
269,308,44263,1,8,0:2:0:0:
171,286,44422,1,2,1:3:0:0:
83,335,44582,6,0,P|47:282|74:227,1,100,2|2,0:0|1:3,0:0:0:0:
73,340,44901,6,0,P|37:287|64:232,1,100,10|0,0:2|3:0,0:0:0:0:
147,184,45220,6,0,P|181:104|141:43,1,150,2|0,1:2|0:0,0:0:0:0:
127,44,45540,2,0,P|91:73|93:136,1,100,10|0,0:2|0:0,0:0:0:0:
157,272,45859,1,2,1:2:0:0:
236,221,46018,2,0,P|308:191|427:247,1,200,2|2,1:3|3:2,0:0:0:0:
419,359,46497,5,0,1:2:0:0:
378,267,46657,1,2,1:3:0:0:
441,190,46816,5,8,0:2:0:0:
422,91,46976,1,2,1:3:0:0:
338,146,47135,6,0,L|240:118,1,100,2|2,3:2|1:3,0:0:0:0:
348,136,47454,6,0,L|250:108,1,100,10|0,0:2|3:2,0:0:0:0:
120,16,47774,6,0,P|103:87|163:77,1,150,2|0,1:2|0:0,0:0:0:0:
178,76,48093,2,0,P|230:78|231:136,1,100,10|0,0:2|0:0,0:0:0:0:
158,174,48412,1,2,1:2:0:0:
241,117,48571,2,0,L|216:352,1,200,2|2,1:3|3:2,0:0:0:0:
111,286,49050,5,0,1:2:0:0:
206,255,49210,1,2,1:3:0:0:
295,298,49369,1,8,0:2:0:0:
394,283,49529,1,2,1:3:0:0:
466,351,49688,6,0,P|502:298|475:243,1,100,2|2,3:2|1:3,0:0:0:0:
476,356,50007,6,0,P|512:303|485:248,1,100,10|0,0:2|3:0,0:0:0:0:
439,236,50327,6,0,P|406:163|451:104,1,150,2|0,1:2|0:0,0:0:0:0:
462,99,50646,2,0,P|500:50|476:3,1,100,10|0,0:2|0:0,0:0:0:0:
397,36,50965,1,2,1:2:0:0:
286,144,51125,1,2,1:3:0:0:
244,170,51204,1,0,1:0:0:0:
195,155,51284,2,0,P|168:104|201:54,1,100,10|6,0:3|0:3,0:0:0:0:
254,24,51603,5,4,1:1:0:0:
298,226,51763,1,0,0:0:0:0:
195,155,51922,1,10,0:2:0:0:
377,177,52082,2,0,P|374:272|289:318,1,200,4|2,1:1|1:3,0:0:0:0:
202,267,52561,2,0,P|149:236|90:262,1,100,8|0,0:2|0:0,0:0:0:0:
27,355,52880,5,0,1:0:0:0:
27,355,53040,1,0,1:0:0:0:
141,311,53199,1,8,0:2:0:0:
38,229,53359,6,0,P|17:166|38:129,1,100,4|0,1:1|0:0,0:0:0:0:
99,66,53678,1,2,1:2:0:0:
176,128,53837,2,0,L|384:98,1,200,8|2,3:2|3:0,0:0:0:0:
489,45,54316,5,2,1:2:0:0:
462,31,54476,1,10,3:2:0:0:
423,42,54635,1,2,0:0:0:0:
394,83,54795,1,2,1:3:0:0:
388,142,54954,1,2,1:2:0:0:
357,205,55114,1,2,1:3:0:0:
279,226,55274,1,2,0:0:0:0:
193,174,55433,6,0,P|127:122|47:167,1,150,4|0,1:1|0:0,0:0:0:0:
49,156,55752,1,8,0:2:0:0:
259,43,55912,2,0,L|275:202,1,150,4|0,1:1|0:0,0:0:0:0:
279,226,56231,2,0,P|345:278|425:233,1,150,2|0,1:2|0:0,0:0:0:0:
426,249,56550,6,0,B|356:224|345:277|322:320|245:298,1,200,4|2,1:1|1:2,0:0:0:0:
153,259,57029,1,8,3:2:0:0:
153,259,57188,1,0,0:0:0:0:
279,226,57348,1,2,1:2:0:0:
181,356,57508,1,8,0:2:0:0:
181,356,57587,1,8,0:2:0:0:
181,356,57667,2,0,P|118:360|79:329,1,100,10|0,0:3|0:0,0:0:0:0:
37,243,57986,5,4,1:1:0:0:
37,243,58146,1,0,1:2:0:0:
88,341,58305,1,8,0:2:0:0:
153,259,58465,2,0,P|222:225|257:234,1,100,4|0,1:1|0:0,0:0:0:0:
332,269,58784,1,2,1:2:0:0:
430,250,58944,2,0,P|471:199|456:159,1,100,8|0,3:2|0:0,0:0:0:0:
401,50,59263,5,0,1:0:0:0:
315,150,59422,2,0,L|315:214,4,50,2|10|2|2|2,1:2|3:2|0:0|1:3|1:2,0:0:0:0:
240,66,60220,1,10,0:2:0:0:
220,50,60299,1,8,0:2:0:0:
196,43,60379,1,8,0:2:0:0:
172,47,60459,1,8,0:2:0:0:
151,60,60540,6,0,P|128:129|172:212,1,150,4|0,1:1|0:0,0:0:0:0:
178,215,60859,1,8,0:2:0:0:
109,320,61018,2,0,P|38:317|8:343,1,100,2|2,3:2|1:3,0:0:0:0:
235,342,61337,2,0,P|306:345|336:319,1,100,2|8,1:2|0:2,0:0:0:0:
420,153,61657,6,0,P|364:140|335:254,1,200,4|0,1:1|1:2,0:0:0:0:
402,297,62135,1,10,3:2:0:0:
233,262,62295,1,8,0:0:0:0:
233,262,62375,1,10,0:0:0:0:
233,262,62454,1,10,1:2:0:0:
199,245,62533,1,8,0:2:0:0:
178,215,62613,1,8,0:2:0:0:
174,178,62693,1,8,0:2:0:0:
188,144,62774,2,0,P|241:106|277:112,1,100,10|4,0:3|0:3,0:0:0:0:
386,211,63093,5,2,1:2:0:0:
274,327,63252,2,0,P|221:294|294:303,1,200,4|0,1:1|1:0,0:0:0:0:
406,235,63731,2,0,P|459:202|386:211,1,200,4|0,1:1|1:0,0:0:0:0:
245,146,64210,2,0,P|192:113|265:122,1,200,4|0,1:1|1:0,0:0:0:0:
418,79,64688,2,0,P|471:46|398:55,1,200,4|8,1:2|0:2,0:0:0:0:
326,184,65167,6,0,L|336:256,2,50
286,74,65646,6,0,P|210:77|196:195,1,187.5,4|0,1:1|0:0,0:0:0:0:
189,195,65965,2,0,P|146:286|46:256,1,187.5,2|0,1:3|0:0,0:0:0:0:
46,266,66284,1,2,1:3:0:0:
31,93,66443,1,0,1:2:0:0:
31,93,66603,2,0,P|110:97|141:145,1,125,10|0,3:2|1:2,0:0:0:0:
237,265,66922,2,0,P|281:306|342:300,1,125,10|0,3:2|1:0,0:0:0:0:
415,261,67241,2,0,B|463:183|507:268|435:262,1,125,10|0,3:2|1:0,0:0:0:0:
165,297,67560,6,0,P|168:221|286:207,1,187.5,4|0,1:1|0:0,0:0:0:0:
286,200,67879,2,0,P|377:157|347:57,1,187.5,10|0,3:2|1:0,0:0:0:0:
357,57,68198,1,2,1:3:0:0:
184,42,68357,1,0,1:2:0:0:
184,42,68517,2,0,P|188:121|236:152,1,125,10|0,3:2|1:2,0:0:0:0:
356,248,68837,2,0,P|397:292|391:353,1,125,10|0,3:2|1:2,0:0:0:0:
305,363,69156,2,0,B|218:392|237:298|289:348,1,125,10|0,3:2|1:0,0:0:0:0:
462,251,69475,5,4,1:1:0:0:
490,155,69634,1,0,3:0:0:0:
443,66,69794,2,0,P|389:24|341:29,1,100,8|0,0:2|3:0,0:0:0:0:
50,133,70113,5,2,1:2:0:0:
22,229,70272,1,0,3:0:0:0:
69,318,70432,2,0,P|123:360|171:355,1,100,10|0,0:2|3:0,0:0:0:0:
337,242,70751,6,0,B|366:196|366:196|330:132,1,100,2|0,1:2|3:0,0:0:0:0:
175,142,71070,2,0,B|146:188|146:188|182:252,1,100,10|0,0:2|3:2,0:0:0:0:
253,192,71389,1,2,1:2:0:0:
253,192,71709,1,10,0:2:0:0:
243,290,71868,1,0,3:2:0:0:
228,109,72028,6,0,P|295:111|320:135,1,100,4|0,1:1|1:0,0:0:0:0:
461,251,72347,1,8,0:2:0:0:
360,340,72506,2,0,P|331:300|333:251,1,100,2|0,1:2|0:0,0:0:0:0:
493,110,72826,2,0,P|473:154|429:177,1,100,2|8,1:2|3:2,0:0:0:0:
228,109,73145,6,0,B|144:75|133:117|116:175|17:110,1,200,4|0,1:1|1:2,0:0:0:0:
277,40,73623,2,0,P|315:94|299:151,1,100,10|0,3:2|0:0,0:0:0:0:
254,197,73943,1,2,1:2:0:0:
178,322,74102,1,0,1:2:0:0:
158,288,74182,1,0,1:0:0:0:
162,249,74262,1,10,0:2:0:0:
352,215,74421,1,8,0:2:0:0:
372,249,74501,1,8,0:2:0:0:
359,294,74581,6,0,P|283:291|269:173,1,187.5,4|0,1:1|0:0,0:0:0:0:
262,173,74900,2,0,P|219:82|119:112,1,187.5,2|0,1:3|0:0,0:0:0:0:
119,102,75219,1,2,1:3:0:0:
104,275,75378,1,2,1:2:0:0:
104,275,75538,2,0,P|183:271|214:223,1,125,10|0,3:2|1:2,0:0:0:0:
310,103,75857,2,0,P|354:62|415:68,1,125,10|0,3:2|1:2,0:0:0:0:
482,124,76176,2,0,B|550:182|459:212|476:145,1,125,10|0,3:2|1:0,0:0:0:0:
258,48,76495,6,0,P|182:51|168:169,1,187.5,4|0,1:1|0:0,0:0:0:0:
161,169,76814,2,0,P|118:260|18:230,1,187.5,10|0,3:2|1:0,0:0:0:0:
18,240,77133,1,2,1:3:0:0:
3,67,77292,1,2,1:2:0:0:
3,67,77452,2,0,P|82:71|113:119,1,125,10|0,3:2|1:2,0:0:0:0:
209,239,77772,2,0,P|253:280|314:274,1,125,10|0,3:2|1:2,0:0:0:0:
407,237,78091,2,0,P|410:163|324:191,1,187.5,10|0,3:2|0:0,0:0:0:0:
313,274,78410,6,0,L|326:359,1,75,4|0,1:1|0:0,0:0:0:0:
327,370,78729,6,0,L|191:354,1,125,10|0,0:2|3:0,0:0:0:0:
129,321,78968,1,0,1:0:0:0:
129,321,79048,2,0,P|92:259|138:205,1,125,2|0,1:2|3:2,0:0:0:0:
251,44,79367,2,0,P|288:106|242:160,1,125,10|0,0:2|3:2,0:0:0:0:
113,217,79686,5,2,1:2:0:0:
25,170,79846,1,0,3:2:0:0:
40,77,80005,1,10,0:2:0:0:
137,60,80165,1,0,3:2:0:0:
179,147,80324,2,0,P|196:221|155:276,1,125,2|0,1:2|3:0,0:0:0:0:
14,369,80644,2,0,P|69:317|137:325,1,125,10|0,0:2|3:2,0:0:0:0:
190,338,80963,6,0,P|261:379|391:294,1,250,4|8,1:1|3:2,0:0:0:0:
325,137,81441,2,0,P|305:219|339:255,1,125,2|2,0:0|1:3,0:0:0:0:
500,274,81761,2,0,P|438:215|390:227,1,125,2|8,1:2|3:2,0:0:0:0:
204,250,82080,2,0,B|115:281|46:229|46:229|98:194|161:222,1,250,4|0,1:1|1:2,0:0:0:0:
241,98,82558,6,0,L|256:177,1,75,10|8,3:2|0:0,0:0:0:0:
330,226,82878,2,0,P|384:194|437:206,1,100,10|8,0:2|0:2,0:0:0:0:
442,212,83117,1,8,0:2:0:0:
442,212,83197,1,2,1:2:0:0:
282,313,83356,1,4,1:1:0:0:
256,192,83436,12,2,84952,3:2:0:0:
154,156,85112,5,10,1:2:0:0:
154,156,85271,1,0,3:2:0:0:
203,234,85431,2,0,P|261:268|336:232,1,150,2|0,1:2|0:0,0:0:0:0:
347,214,85750,2,0,P|400:169|445:188,1,100,10|0,1:2|0:0,0:0:0:0:
466,86,86069,6,0,L|456:294,1,200,2|8,1:2|1:2,0:0:0:0:
375,355,86548,1,2,3:2:0:0:
375,355,86628,1,2,0:2:0:0:
375,355,86707,2,0,P|299:335|255:340,1,100,2|2,1:2|3:2,0:0:0:0:
216,285,87027,1,8,1:2:0:0:
148,356,87186,6,0,P|80:358|70:237,1,200,2|2,3:2|3:2,0:0:0:0:
124,174,87665,1,10,1:2:0:0:
124,174,87824,1,0,3:2:0:0:
218,206,87984,2,0,P|274:208|302:167,1,100,2|0,1:2|3:2,0:0:0:0:
333,38,88303,2,0,P|277:36|249:77,1,100,10|0,1:2|3:2,0:0:0:0:
299,176,88622,6,0,P|377:238|344:337,1,200,4|8,1:1|1:2,0:0:0:0:
249,355,89101,1,2,3:2:0:0:
249,355,89181,1,2,0:2:0:0:
249,355,89261,2,0,P|226:292|236:240,1,100,2|2,1:2|3:2,0:0:0:0:
167,181,89580,1,8,1:2:0:0:
246,121,89739,6,0,P|246:36|131:33,1,200,2|2,3:2|3:2,0:0:0:0:
55,54,90218,1,10,1:2:0:0:
55,54,90378,1,0,3:2:0:0:
75,157,90537,2,0,P|128:185|172:178,1,100,2|0,1:2|3:2,0:0:0:0:
246,121,90856,2,0,P|299:93|343:100,1,100,10|0,1:2|3:2,0:0:0:0:
474,179,91175,6,0,P|441:244|390:164,1,200,2|8,1:2|1:2,0:0:0:0:
439,100,91654,1,2,3:2:0:0:
439,100,91734,1,2,0:2:0:0:
439,100,91814,2,0,P|472:51|468:8,2,100,2|2|8,1:2|3:2|1:2,0:0:0:0:
295,224,92292,6,0,L|126:208,1,160,2|2,1:3|1:3,0:0:0:0:
229,140,92771,1,0,0:0:0:0:
300,229,92931,6,0,L|131:213,1,160,2|2,1:3|1:3,0:0:0:0:
234,145,93410,1,0,1:0:0:0:
305,234,93569,6,0,L|136:218,1,160,2|2,1:3|1:3,0:0:0:0:
234,145,94048,1,0,0:0:0:0:
287,304,94207,1,2,1:3:0:0:
148,206,94367,1,8,1:2:0:0:
318,203,94527,1,8,1:2:0:0:
182,306,94686,1,8,1:2:0:0:
236,231,94846,1,8,1:2:0:0:
149,224,99480,6,0,L|101:206,2,40,10|8|8,0:3|0:3|3:0,0:0:0:0:
221,272,99722,5,4,0:3:0:0:
221,272,99814,2,0,L|359:254,1,120,4|0,1:1|0:0,0:0:0:0:
372,253,100133,6,0,P|401:216|391:172,1,80,0|8,1:0|0:2,0:0:0:0:
361,83,100449,1,2,1:2:0:0:
281,134,100607,1,8,0:2:0:0:
281,134,100687,1,8,0:2:0:0:
281,134,100766,2,0,P|234:128|210:90,1,80,2|8,1:2|0:2,0:0:0:0:
171,40,101003,1,8,0:2:0:0:
171,40,101082,2,0,P|124:45|100:83,1,80,2|8,1:2|0:2,0:0:0:0:
40,139,101320,1,8,0:2:0:0:
40,139,101399,6,0,L|68:245,1,80,2|8,1:2|0:2,0:0:0:0:
371,326,101716,1,2,1:2:0:0:
355,362,101795,1,0,1:0:0:0:
322,383,101874,1,8,0:2:0:0:
282,382,101953,1,8,0:2:0:0:
250,360,102032,2,0,P|237:334|240:307,3,40,2|0|10|8,1:2|1:0|0:2|0:2,0:0:0:0:
149,293,102341,1,0,1:0:0:0:
149,293,102418,1,8,0:2:0:0:
149,293,102495,2,0,L|99:308,1,40,2|0,3:2|0:0,0:0:0:0:
452,162,104603,5,8,3:3:0:0:
362,215,104765,1,4,3:3:0:0:
362,215,104846,1,8,3:2:0:0:
362,215,104927,2,0,P|336:177|358:128,1,80,10|8,0:2|0:3,0:0:0:0:
282,79,105234,6,0,P|222:29|146:51,1,150,4|0,1:1|0:0,0:0:0:0:
131,60,105553,2,0,P|78:55|56:9,1,100,10|0,0:2|0:0,0:0:0:0:
5,115,105872,1,0,1:2:0:0:
96,165,106031,2,0,L|75:368,1,200,2|2,1:3|3:2,0:0:0:0:
50,263,106510,5,0,1:2:0:0:
136,313,106670,1,2,1:3:0:0:
233,289,106829,1,8,0:2:0:0:
326,323,106989,1,2,1:3:0:0:
425,311,107148,6,0,P|461:258|434:203,1,100,2|2,0:0|1:3,0:0:0:0:
464,231,107468,6,0,P|467:279|435:316,1,100,10|0,0:2|3:0,0:0:0:0:
301,235,107787,6,0,P|267:155|307:94,1,150,2|0,1:2|0:0,0:0:0:0:
323,101,108106,2,0,P|359:130|357:193,1,100,10|0,0:2|0:0,0:0:0:0:
375,269,108425,1,0,1:2:0:0:
240,163,108585,2,0,P|142:131|49:189,1,200,2|2,1:3|3:2,0:0:0:0:
15,267,109063,5,0,1:2:0:0:
113,287,109223,1,2,1:3:0:0:
15,267,109382,1,8,0:2:0:0:
113,287,109542,1,4,1:1:0:0:
89,185,109702,6,0,L|61:87,1,100,2|2,0:0|1:3,0:0:0:0:
51,98,110021,6,0,L|79:195,1,100,10|2,0:2|3:2,0:0:0:0:
362,28,110340,6,0,P|341:100|267:86,1,150,4|0,1:1|0:0,0:0:0:0:
258,79,110659,2,0,P|205:74|171:128,1,100,10|0,0:2|0:0,0:0:0:0:
156,185,110978,1,0,1:2:0:0:
279,277,111139,2,0,L|254:42,1,200,2|2,1:3|3:2,0:0:0:0:
188,38,111616,5,0,1:2:0:0:
137,124,111776,1,2,1:3:0:0:
179,214,111936,1,8,0:2:0:0:
154,311,112095,1,4,1:1:0:0:
63,352,112255,6,0,P|27:299|54:244,1,100,2|2,0:0|1:3,0:0:0:0:
23,272,112574,6,0,P|20:320|53:357,1,100,10|0,0:2|3:0,0:0:0:0:
87,225,112893,6,0,P|120:152|66:95,1,150,2|0,1:2|0:0,0:0:0:0:
54,96,113212,2,0,P|27:47|59:6,1,100,10|0,0:2|0:0,0:0:0:0:
124,0,113531,1,2,1:2:0:0:
226,144,113691,1,2,1:3:0:0:
268,170,113771,1,0,1:0:0:0:
317,155,113851,2,0,P|364:119|362:62,1,100,8|4,0:3|0:3,0:0:0:0:
312,21,114170,5,4,1:1:0:0:
186,51,114329,1,0,0:0:0:0:
312,21,114489,1,10,0:2:0:0:
186,51,114648,2,0,P|125:112|163:217,1,200,4|2,1:1|1:3,0:0:0:0:
266,252,115127,2,0,P|319:221|378:247,1,100,8|0,0:2|0:0,0:0:0:0:
469,317,115446,5,4,1:1:0:0:
381,269,115604,1,0,1:0:0:0:
357,171,115763,1,8,0:2:0:0:
429,101,115921,2,0,L|397:331,1,200,4|2,1:1|1:2,0:0:0:0:
310,355,116397,1,8,0:2:0:0:
247,279,116556,1,0,0:0:0:0:
247,279,116635,1,8,0:2:0:0:
247,279,116714,6,0,P|194:255|136:282,2,100,10|0|10,0:3|1:0|0:2,0:0:0:0:
138,279,117190,2,0,P|68:292|43:273,1,100,2|0,0:0|1:0,0:0:0:0:
31,179,117507,1,2,1:2:0:0:
51,101,117666,1,8,0:2:0:0:
119,59,117825,2,0,P|195:52|218:73,1,100,2|0,0:0|1:0,0:0:0:0:
316,163,118143,1,2,1:2:0:0:
296,241,118303,1,10,0:2:0:0:
228,283,118462,2,0,P|152:290|129:269,1,100,4|0,1:1|0:0,0:0:0:0:
42,227,118781,2,0,L|30:178,2,50,2|10|0,1:2|0:2|0:0,0:0:0:0:
81,105,119260,6,0,P|134:73|223:117,1,150,10|2,0:3|1:2,0:0:0:0:
226,118,119579,1,10,0:2:0:0:
318,167,119739,2,0,P|365:166|402:105,1,100,2|0,0:0|1:0,0:0:0:0:
308,66,120058,1,2,1:2:0:0:
231,205,120218,1,8,0:2:0:0:
232,217,120297,1,8,0:2:0:0:
233,229,120377,1,10,0:2:0:0:
234,242,120457,1,8,0:2:0:0:
235,254,120537,6,0,P|184:274|145:256,2,100,2|0|10,1:2|1:2|0:2,0:0:0:0:
376,320,121015,2,0,P|425:308|489:337,1,100,4|0,1:1|0:0,0:0:0:0:
303,290,121335,1,2,1:2:0:0:
415,155,121494,2,0,P|375:182|353:227,1,100,10|0,0:2|0:0,0:0:0:0:
245,346,121813,6,0,P|171:352|128:321,1,100,10|0,0:3|3:0,0:0:0:0:
32,253,122132,1,2,1:2:0:0:
125,220,122292,2,0,L|142:7,1,200,4|2,1:1|1:2,0:0:0:0:
140,20,122771,1,10,0:2:0:0:
50,89,122930,1,0,0:0:0:0:
167,138,123090,6,0,P|229:150|272:123,1,100,10|0,0:3|3:0,0:0:0:0:
402,36,123409,1,2,1:2:0:0:
310,54,123569,2,0,P|279:124|332:242,1,200,4|2,1:1|1:2,0:0:0:0:
369,328,124047,1,8,0:2:0:0:
452,275,124207,1,2,1:2:0:0:
452,275,124287,1,8,0:2:0:0:
452,275,124366,2,0,P|485:208|480:171,1,100,8|10,0:3|0:2,0:0:0:0:
476,157,124606,1,8,0:2:0:0:
476,157,124686,1,8,0:2:0:0:
321,233,124845,6,0,P|260:227|206:235,1,100,4|0,1:1|0:0,0:0:0:0:
52,149,125164,2,0,P|109:129|164:126,1,100,4|0,1:1|0:0,0:0:0:0:
361,58,125484,2,0,P|289:20|142:24,1,200,4|10,1:1|1:2,0:0:0:0:
94,44,125963,1,10,1:2:0:0:
94,44,126122,1,10,1:2:0:0:
94,44,126920,6,0,P|77:115|187:149,1,187.5,4|0,1:1|0:0,0:0:0:0:
191,150,127239,2,0,P|284:178|276:269,1,187.5,2|0,1:3|0:0,0:0:0:0:
273,287,127558,1,2,1:3:0:0:
92,306,127717,1,0,1:2:0:0:
92,306,127877,2,0,P|82:235|152:189,1,125,10|0,3:2|1:2,0:0:0:0:
259,110,128196,2,0,P|294:61|281:2,1,125,10|0,3:2|1:2,0:0:0:0:
329,168,128515,2,0,B|404:196|426:181|392:140|344:174,1,125,10|0,3:2|1:0,0:0:0:0:
60,319,128834,6,0,P|69:226|162:215,1,187.5,4|0,1:1|0:0,0:0:0:0:
171,218,129154,2,0,P|240:211|251:100,1,187.5,8|0,3:2|0:0,0:0:0:0:
238,91,129473,1,2,1:3:0:0:
77,64,129632,1,0,1:2:0:0:
77,64,129792,2,0,P|72:138|105:169,1,125,10|0,3:2|1:2,0:0:0:0:
242,264,130111,2,0,P|282:310|270:369,1,125,10|0,3:2|1:2,0:0:0:0:
319,212,130430,2,0,B|373:152|426:193|372:236|331:209,1,125,10|0,3:2|1:0,0:0:0:0:
152,378,130749,5,4,1:1:0:0:
65,330,130908,1,0,3:0:0:0:
35,234,131068,2,0,P|43:166|81:136,1,100,8|0,0:2|3:0,0:0:0:0:
360,3,131387,5,2,1:2:0:0:
448,51,131546,1,0,3:0:0:0:
478,148,131706,2,0,P|469:216|432:246,1,100,10|0,0:2|3:0,0:0:0:0:
176,242,132025,6,0,B|147:196|147:196|183:132,1,100,2|0,1:2|3:0,0:0:0:0:
338,142,132344,2,0,B|367:188|367:188|331:252,1,100,10|0,0:2|3:0,0:0:0:0:
260,334,132663,1,2,1:2:0:0:
260,334,132983,1,10,0:2:0:0:
272,218,133142,1,0,3:2:0:0:
285,109,133302,6,0,P|218:111|193:135,1,100,4|0,1:1|1:0,0:0:0:0:
59,256,133621,1,10,0:2:0:0:
153,340,133780,2,0,P|182:300|180:251,1,100,2|0,1:2|0:0,0:0:0:0:
20,110,134100,2,0,P|40:154|84:177,1,100,2|8,1:2|3:2,0:0:0:0:
285,109,134419,6,0,B|369:75|380:117|397:175|496:110,1,200,4|2,1:1|1:2,0:0:0:0:
236,40,134897,2,0,P|198:94|214:151,1,100,10|8,3:2|0:2,0:0:0:0:
258,191,135137,1,8,0:2:0:0:
258,191,135217,2,0,L|318:175,3,50,2|0|0|0,1:2|1:0|1:2|1:0,0:0:0:0:
175,261,135536,2,0,L|115:245,3,50,10|8|8|8,0:2|0:2|0:2|0:2,0:0:0:0:
244,342,135855,6,0,P|320:339|334:221,1,187.5,4|0,1:1|0:0,0:0:0:0:
341,221,136174,2,0,P|384:130|484:160,1,187.5,2|0,1:3|0:0,0:0:0:0:
484,150,136493,1,2,1:3:0:0:
499,323,136652,1,0,1:2:0:0:
499,323,136812,2,0,P|420:319|389:271,1,125,10|0,3:2|1:2,0:0:0:0:
293,151,137131,2,0,P|249:110|188:116,1,125,10|0,3:2|1:2,0:0:0:0:
105,151,137450,2,0,B|19:176|26:122|59:115|90:134,1,125,10|0,3:2|1:0,0:0:0:0:
240,23,137769,6,0,P|316:26|330:144,1,187.5,4|0,1:1|0:0,0:0:0:0:
337,144,138089,2,0,P|380:235|480:205,1,187.5,10|0,3:2|1:0,0:0:0:0:
480,215,138407,1,2,1:3:0:0:
495,42,138566,1,0,1:2:0:0:
495,42,138727,2,0,P|416:46|385:94,1,125,10|0,3:2|1:2,0:0:0:0:
289,214,139046,2,0,P|245:255|184:249,1,125,10|0,3:2|1:2,0:0:0:0:
91,212,139365,2,0,P|88:138|174:166,1,187.5,10|0,3:2|0:0,0:0:0:0:
185,249,139684,6,0,L|172:334,1,75,4|0,1:1|0:0,0:0:0:0:
162,347,140003,6,0,L|290:334,1,125,10|0,0:2|3:2,0:0:0:0:
384,321,140242,1,0,1:0:0:0:
384,321,140322,2,0,P|421:259|375:205,1,125,2|0,1:2|3:2,0:0:0:0:
262,44,140641,2,0,P|225:106|271:160,1,125,10|0,0:2|3:2,0:0:0:0:
400,217,140960,5,2,1:2:0:0:
488,170,141120,1,0,3:2:0:0:
473,77,141279,1,10,0:2:0:0:
376,60,141439,1,0,3:2:0:0:
334,147,141598,2,0,P|317:221|358:276,1,125,2|0,1:2|3:0,0:0:0:0:
499,369,141918,2,0,P|444:317|376:325,1,125,10|0,0:2|3:2,0:0:0:0:
323,338,142237,6,0,P|252:379|122:294,1,250,4|10,1:1|3:2,0:0:0:0:
188,137,142715,2,0,P|208:219|174:255,1,125,2|2,3:2|1:3,0:0:0:0:
13,274,143035,2,0,P|75:215|123:227,1,125,2|8,1:2|3:2,0:0:0:0:
310,250,143354,2,0,B|399:281|468:229|468:229|416:194|353:222,1,250,4|2,1:1|1:2,0:0:0:0:
250,181,143832,5,10,3:2:0:0:
279,351,143992,1,8,0:2:0:0:
279,351,144072,1,8,0:2:0:0:
279,351,144152,2,0,P|324:292|305:244,1,125,2|8,1:2|0:2,0:0:0:0:
235,66,144471,2,0,P|197:133|267:180,1,160,2|4,1:2|1:1,0:0:0:0:
256,192,144913,12,0,146765,0:0:0:0:
382,143,152691,6,0,P|328:122|291:143,1,80,10|2,1:2|0:0,0:0:0:0:
280,156,153061,1,8,0:2:0:0:
245,176,153185,2,0,P|208:187|162:158,1,80,2|10,1:2|0:2,0:0:0:0:
75,93,153678,2,0,P|91:50|139:64,1,80,10|10,1:2|0:2,0:0:0:0:
158,59,154049,1,8,0:2:0:0:
178,93,154172,2,0,P|174:164|157:191,1,80,2|10,1:2|0:2,0:0:0:0:
79,348,154666,6,0,P|57:315|111:259,1,120,10|8,1:2|0:2,0:0:0:0:
134,259,155160,2,0,P|206:270|220:255,1,80,2|10,1:2|0:0,0:0:0:0:
408,125,155654,2,0,P|378:153|377:193,1,80,2|8,1:2|0:2,0:0:0:0:
396,224,156024,1,10,0:2:0:0:
411,261,156148,2,0,P|408:299|378:326,1,80,2|8,1:2|0:2,0:0:0:0:
46,183,156641,6,0,P|74:142|126:135,1,80,10|2,1:2|0:0,0:0:0:0:
141,139,157012,1,8,0:2:0:0:
180,146,157135,2,0,P|227:138|251:87,1,80,2|10,1:2|0:0,0:0:0:0:
367,38,157629,2,0,P|415:29|449:58,1,80,10|10,1:2|0:2,0:0:0:0:
453,82,157999,1,8,0:2:0:0:
449,121,158123,2,0,P|433:187|450:227,1,80,2|10,1:2|0:2,0:0:0:0:
431,363,158617,6,0,P|470:324|456:250,1,120,10|8,1:2|0:2,0:0:0:0:
439,230,159110,2,0,P|394:219|352:238,1,80,2|10,1:2|0:0,0:0:0:0:
171,313,159604,2,0,P|114:293|107:269,1,80,10|8,1:2|0:2,0:0:0:0:
101,239,159975,1,8,0:2:0:0:
112,200,160098,2,0,P|91:141|67:128,1,80,2|8,1:2|0:2,0:0:0:0:
38,306,160592,5,10,1:1:0:0:
246,225,160839,1,10,0:2:0:0:
266,208,160962,1,8,0:2:0:0:
281,186,161086,1,2,1:1:0:0:
287,160,161209,1,2,0:2:0:0:
285,134,161332,1,10,0:2:0:0:
273,110,161456,1,10,0:2:0:0:
255,91,161580,2,0,P|193:93|160:130,1,80,10|10,1:1|0:2,0:0:0:0:
152,131,161950,2,0,P|113:142|49:96,1,120,10|10,0:2|0:2,0:0:0:0:
120,20,162567,5,10,1:1:0:0:
172,231,162814,1,10,0:2:0:0:
180,256,162937,1,10,0:2:0:0:
196,277,163060,1,2,1:1:0:0:
218,292,163184,1,2,0:2:0:0:
243,298,163307,1,10,0:2:0:0:
270,296,163431,1,10,0:2:0:0:
294,284,163555,2,0,P|341:270|385:288,1,80,10|10,1:1|0:2,0:0:0:0:
396,293,163925,2,0,P|450:278|444:202,1,120,10|10,0:2|0:2,0:0:0:0:
294,69,164543,5,10,1:1:0:0:
200,134,164790,2,0,P|181:179|192:214,1,80,10|2,0:2|1:1,0:0:0:0:
312,250,165283,2,0,P|331:205|320:170,1,80,10|10,0:2|1:1,0:0:0:0:
174,47,165777,1,10,0:2:0:0:
125,110,166024,1,2,1:1:0:0:
92,36,166271,1,10,0:2:0:0:
208,125,166518,6,0,P|231:176|161:305,1,200,14|10,1:1|1:1,0:0:0:0:
53,351,167671,2,0,P|63:236|76:233,1,150,2|8,1:2|0:2,0:0:0:0:
93,227,168226,2,0,P|135:254|145:312,1,89.9999972534181,10|8,1:2|0:2,0:0:0:0:
149,331,168730,5,4,1:1:0:0:
274,314,168891,1,0,1:0:0:0:
274,314,168971,1,8,0:2:0:0:
274,314,169051,2,0,P|301:294|312:268,3,50,0|0|8|0,1:0|1:0|0:2|1:0,0:0:0:0:
377,215,169370,2,0,P|397:228|410:249,3,50,0|0|0|0,1:0|1:0|1:0|1:0,0:0:0:0:
433,340,169689,1,0,1:0:0:0:
207,252,169849,6,0,P|169:219|177:174,1,100,8|0,0:2|1:0,0:0:0:0:
198,157,170088,2,0,P|232:109|212:61,1,100,8|0,0:2|1:0,0:0:0:0:
199,46,170327,1,8,0:2:0:0:
61,149,170487,1,0,1:0:0:0:
61,149,170567,1,0,1:0:0:0:
61,149,170646,2,0,L|43:204,3,50,8|0|0|0,0:2|1:0|1:0|1:0,0:0:0:0:
104,266,170966,2,0,L|122:321,3,50,8|0|0|0,0:2|1:0|1:0|1:0,0:0:0:0:
34,359,171285,5,4,1:1:0:0:
197,277,171444,1,0,1:0:0:0:
197,277,171524,1,8,0:2:0:0:
197,277,171604,2,0,P|227:269|263:278,3,50,0|0|8|0,1:0|1:0|0:2|1:0,0:0:0:0:
282,349,171923,2,0,P|312:357|348:348,3,50,0|0|0|0,1:0|1:0|1:0|1:0,0:0:0:0:
375,287,172242,5,0,1:0:0:0:
377,262,172321,1,0,1:0:0:0:
380,237,172401,1,0,1:0:0:0:
382,212,172481,1,0,1:0:0:0:
385,187,172561,2,0,L|391:124,3,50,0|0|12|0,1:0|1:0|0:2|1:0,0:0:0:0:
307,58,172880,2,0,L|301:121,3,50,0|0|0|0,1:0|1:0|1:0|1:0,0:0:0:0:
239,171,173200,5,8,0:2:0:0:
213,187,173279,1,0,1:0:0:0:
182,193,173359,1,0,1:0:0:0:
152,186,173439,1,0,1:0:0:0:
127,167,173519,1,8,0:2:0:0:
111,140,173598,1,8,0:2:0:0:
108,110,173678,1,0,3:0:0:0:
116,80,173758,1,0,3:0:0:0:
136,56,173838,1,0,3:0:0:0:
258,256,174157,6,0,B|257:294|280:294|273:313|258:320|244:310|241:294|263:275,1,75.0000028610231,2|0,0:0|0:0,0:0:0:0:
47,216,175114,6,0,P|92:142|179:172,1,187.5,4|0,1:1|0:0,0:0:0:0:
190,183,175433,2,0,P|251:231|333:167,1,187.5,2|0,1:3|0:0,0:0:0:0:
336,154,175752,1,2,1:3:0:0:
331,45,175911,1,0,1:2:0:0:
331,45,176071,2,0,P|263:63|238:125,1,125,10|0,3:2|1:2,0:0:0:0:
153,270,176390,2,0,P|120:321|60:332,1,125,10|0,3:2|1:2,0:0:0:0:
71,202,176709,1,10,3:2:0:0:
234,335,176869,1,0,1:0:0:0:
392,304,177028,6,0,P|452:235|391:172,1,187.5,4|0,1:1|0:0,0:0:0:0:
375,170,177348,2,0,P|317:115|364:35,1,187.5,10|0,3:2|0:0,0:0:0:0:
389,27,177667,1,2,1:3:0:0:
512,69,177826,1,0,1:2:0:0:
512,69,177986,2,0,P|502:132|447:155,1,125,10|0,3:2|1:2,0:0:0:0:
299,191,178305,2,0,P|245:217|237:277,1,125,10|0,3:2|1:2,0:0:0:0:
335,293,178624,1,10,3:2:0:0:
264,93,178784,1,0,1:0:0:0:
39,192,178943,5,4,1:1:0:0:
42,291,179102,1,0,3:0:0:0:
119,354,179262,2,0,P|175:364|217:339,1,100,8|0,0:2|3:0,0:0:0:0:
473,192,179581,5,2,1:2:0:0:
470,93,179740,1,0,3:0:0:0:
393,30,179900,2,0,P|337:20|295:45,1,100,10|0,0:2|3:0,0:0:0:0:
232,264,180219,5,2,1:2:0:0:
317,237,180379,1,0,3:0:0:0:
317,147,180538,1,10,0:2:0:0:
232,119,180698,1,0,3:2:0:0:
179,192,180857,1,2,1:2:0:0:
179,192,181177,5,10,0:2:0:0:
275,216,181336,1,0,3:2:0:0:
373,235,181496,2,0,P|402:215|394:138,1,100,4|0,1:1|1:0,0:0:0:0:
275,216,181815,1,10,0:2:0:0:
214,40,181974,2,0,P|216:75|287:106,1,100,2|0,1:2|0:0,0:0:0:0:
464,16,182294,2,0,P|432:0|369:46,1,100,2|8,1:2|3:2,0:0:0:0:
312,253,182613,6,0,B|223:214|201:300|114:256,1,200,4|2,1:1|1:2,0:0:0:0:
69,190,183091,2,0,P|60:165|90:193,1,100,10|8,3:2|0:2,0:0:0:0:
123,262,183331,1,8,0:0:0:0:
123,262,183411,2,0,L|105:330,2,50,2|0|0,1:2|1:0|1:2,0:0:0:0:
193,167,183730,2,0,L|175:49,1,100,10|8,0:2|0:2,0:0:0:0:
464,167,184049,6,0,P|419:242|336:216,1,187.5,4|0,1:1|0:0,0:0:0:0:
321,200,184368,2,0,P|248:152|180:207,1,187.5,2|0,1:3|0:0,0:0:0:0:
176,230,184687,1,2,1:3:0:0:
181,339,184846,1,0,1:2:0:0:
181,339,185006,2,0,P|240:327|273:276,1,125,10|0,3:2|1:2,0:0:0:0:
359,113,185325,2,0,P|392:62|451:51,1,125,10|0,3:2|1:2,0:0:0:0:
441,182,185644,1,10,3:2:0:0:
278,49,185804,1,0,1:0:0:0:
242,240,185963,5,4,1:1:0:0:
167,160,186122,1,0,0:0:0:0:
167,160,186202,1,0,1:0:0:0:
167,160,186282,2,0,P|98:127|36:161,1,125,10|8,0:2|0:2,0:0:0:0:
315,320,186601,2,0,P|384:353|446:319,1,125,10|8,0:3|0:3,0:0:0:0:
282,167,186920,1,6,0:3:0:0:
195,319,187080,1,4,0:3:0:0:
242,240,187239,5,2,1:2:0:0:
282,167,187877,6,0,P|368:144|405:164,1,125,4|0,1:1|0:0,0:0:0:0:
195,319,188197,2,0,P|108:341|71:321,1,125,4|0,1:1|0:0,0:0:0:0:
22,104,188516,6,0,P|120:90|127:190,1,187.5,4|0,1:1|0:0,0:0:0:0:
134,182,188835,2,0,P|143:245|256:228,1,187.5,10|0,0:2|0:0,0:0:0:0:
261,225,189154,1,2,1:2:0:0:
341,50,189314,1,0,3:2:0:0:
341,50,189473,2,0,P|274:87|282:160,1,125,10|0,0:2|3:2,0:0:0:0:
395,263,189792,5,2,1:2:0:0:
467,239,189952,1,0,3:0:0:0:
467,164,190111,1,10,0:2:0:0:
395,140,190271,1,0,3:0:0:0:
351,201,190431,2,0,P|323:252|250:258,1,125,2|0,1:2|3:0,0:0:0:0:
31,177,190750,2,0,P|59:126|132:120,1,125,10|0,0:2|3:2,0:0:0:0:
207,170,191069,6,0,L|183:355,1,187.5,4|0,1:1|0:0,0:0:0:0:
182,355,191388,1,10,0:2:0:0:
151,208,191548,2,0,L|16:173,1,125,2|0,1:3|0:0,0:0:0:0:
233,314,191867,2,0,L|391:266,1,125,2|8,1:3|0:2,0:0:0:0:
456,76,192186,6,0,P|362:72|330:192,1,187.5,4|0,1:1|0:0,0:0:0:0:
318,144,192505,1,10,0:2:0:0:
411,221,192665,2,0,P|436:296|396:353,1,125,2|8,1:3|0:0,0:0:0:0:
334,352,192904,1,8,0:2:0:0:
334,352,192984,2,0,P|291:345|249:283,1,62.5,2|0,1:2|1:0,0:0:0:0:
211,272,193143,1,8,0:2:0:0:
211,272,193223,1,8,0:2:0:0:
211,272,193303,2,0,P|138:262|97:301,1,125,10|4,0:3|0:3,0:0:0:0:
35,357,193622,6,0,L|18:152,1,187.5,4|0,1:1|0:0,0:0:0:0:
19,170,193941,1,10,0:2:0:0:
172,56,194101,1,2,1:3:0:0:
129,157,194260,1,8,0:2:0:0:
59,72,194420,2,0,P|111:42|177:60,1,125,2|8,1:3|0:2,0:0:0:0:
304,173,194739,6,0,P|404:186|449:84,1,187.5,4|8,1:1|0:2,0:0:0:0:
449,97,195058,2,0,P|423:63|376:53,1,62.5,10|0,0:2|0:0,0:0:0:0:
236,82,195218,1,8,0:2:0:0:
209,99,195298,1,8,0:2:0:0:
196,127,195377,2,0,P|191:171|208:209,1,62.5,10|8,0:2|0:2,0:0:0:0:
276,302,195537,1,0,1:2:0:0:
303,285,195617,1,0,0:0:0:0:
316,257,195696,2,0,P|321:213|304:175,1,62.5,2|0,1:2|1:0,0:0:0:0:
297,120,195856,5,8,0:2:0:0:
215,264,196016,1,4,1:1:0:0:
256,192,196095,12,0,198090,1:0:0:0:
426,155,198409,6,0,P|351:168|339:241,1,150,10|0,1:2|0:0,0:0:0:0:
346,252,198728,2,0,P|392:279|453:253,1,100,2|0,1:2|3:0,0:0:0:0:
299,108,199048,2,0,P|253:81|192:107,1,100,10|0,1:2|3:0,0:0:0:0:
133,173,199367,1,2,1:2:0:0:
133,173,199526,2,0,L|126:303,1,100,2|8,3:2|1:2,0:0:0:0:
187,368,199846,6,0,P|223:314|112:295,1,200,2|10,3:2|0:2,0:0:0:0:
103,295,200244,1,8,0:2:0:0:
103,295,200324,1,8,0:3:0:0:
234,196,200484,1,10,0:3:0:0:
98,116,200643,1,6,0:3:0:0:
98,116,200723,1,4,0:3:0:0:
98,116,200803,1,2,1:2:0:0:
234,196,200963,2,0,P|292:174|298:115,1,100,10|10,1:2|0:3,0:0:0:0:
331,65,201202,1,4,0:3:0:0:
331,65,201282,6,0,P|381:36|428:53,1,100,4|2,1:1|3:2,0:0:0:0:
485,105,201601,1,8,1:2:0:0:
396,160,201760,2,0,L|412:365,1,200,2|2,3:2|3:2,0:0:0:0:
411,359,202239,1,8,1:2:0:0:
317,308,202399,6,0,P|245:263|122:319,1,200,2|2,3:2|3:2,0:0:0:0:
37,235,202877,1,8,1:2:0:0:
37,235,203037,1,2,3:2:0:0:
139,180,203197,2,0,P|169:149|177:77,1,100,0|2,1:0|3:2,0:0:0:0:
32,1,203516,2,0,P|40:49|73:86,1,100,10|0,1:2|3:0,0:0:0:0:
180,94,203835,6,0,P|236:49|298:63,1,100,2|0,1:2|3:0,0:0:0:0:
397,134,204154,2,0,P|341:179|279:165,1,100,10|0,1:2|3:0,0:0:0:0:
251,122,204473,1,2,1:2:0:0:
315,179,204633,2,0,L|311:295,1,100,2|8,3:2|1:2,0:0:0:0:
275,349,204952,6,0,B|225:383|159:327|159:327|202:294|248:294,1,200,4|2,1:1|3:2,0:0:0:0:
387,238,205431,2,0,B|416:218|449:240|449:240|430:262|399:268,1,100,10|2,1:2|3:2,0:0:0:0:
223,296,205750,5,10,1:2:0:0:
194,272,205829,1,8,0:0:0:0:
179,238,205909,1,10,0:3:0:0:
180,201,205989,1,4,0:3:0:0:
198,168,206069,2,0,P|227:112|197:53,1,100,4|2,1:1|0:0,0:0:0:0:
121,9,206388,5,4,1:1:0:0:
55,84,206548,2,0,L|-12:74,2,50,10|8|10,0:3|0:3|0:2,0:0:0:0:
126,154,206867,5,4,1:1:0:0:
185,234,207026,2,0,L|252:224,2,50,10|8|10,0:3|0:3|0:2,0:0:0:0:
134,321,207346,5,4,1:1:0:0:
75,241,207505,2,0,L|8:251,2,50,10|8|10,0:3|0:3|0:2,0:0:0:0:
160,187,207824,5,4,1:1:0:0:
219,107,207984,2,0,L|286:117,2,50,10|8|10,0:3|0:3|0:2,0:0:0:0:
145,37,208303,5,4,1:1:0:0:
82,116,208463,1,10,0:2:0:0:
82,116,208542,1,8,0:0:0:0:
82,116,208622,2,0,B|58:167|58:167|76:217,1,100,4|10,1:1|0:2,0:0:0:0:
212,350,208941,5,4,1:1:0:0:
332,255,209101,1,10,0:3:0:0:
356,260,209180,1,8,0:3:0:0:
377,273,209260,1,10,0:2:0:0:
392,293,209340,1,8,0:0:0:0:
398,318,209420,2,0,P|377:352|340:367,1,50,4|0,1:1|1:0,0:0:0:0:
269,199,209580,5,10,0:3:0:0:
261,175,209659,1,8,0:3:0:0:
262,151,209739,1,10,0:2:0:0:
271,128,209819,1,8,0:0:0:0:
290,110,209899,2,0,P|329:110|361:135,1,50,4|0,1:1|1:0,0:0:0:0:
249,278,210058,5,10,0:3:0:0:
232,296,210137,1,8,0:3:0:0:
210,307,210217,1,10,0:2:0:0:
186,310,210298,1,8,0:0:0:0:
161,303,210377,2,0,P|141:268|147:228,1,50,4|0,1:1|1:0,0:0:0:0:
150,156,210537,5,10,0:3:0:0:
362,228,210697,1,10,0:2:0:0:
378,107,210856,5,2,1:2:0:0:
295,164,211016,1,10,0:2:0:0:
212,221,211175,1,0,1:2:0:0:
129,278,211335,1,10,3:2:0:0:
