osu file format v14

[General]
AudioFilename: When Love Becomes a Lie (Nightcore Mix).mp3
AudioLeadIn: 0
PreviewTime: 46819
Countdown: 0
SampleSet: Normal
StackLeniency: 0.2
Mode: 0
LetterboxInBreaks: 0
EpilepsyWarning: 1
WidescreenStoryboard: 0

[Editor]
DistanceSpacing: 0.5
BeatDivisor: 4
GridSize: 4
TimelineZoom: 1

[Metadata]
Title:When Love Becomes a Lie (Nightcore Mix)
TitleUnicode:When Love Becomes a Lie (Nightcore Mix)
Artist:Liz Kay
ArtistUnicode:Liz Kay
Creator:Sun Rainbow
Version:Insane
Source:
Tags:remix Short version smallboat yf_bmp
BeatmapID:917216
BeatmapSetID:145052

[Difficulty]
HPDrainRate:8
CircleSize:4
OverallDifficulty:7
ApproachRate:8
SliderMultiplier:1.8
SliderTickRate:1

[Events]
//Background and Video events
0,0,"BG.jpg",0,0
//Break Periods
//Storyboard Layer 0 (Background)
//Storyboard Layer 1 (Fail)
//Storyboard Layer 2 (Pass)
//Storyboard Layer 3 (Foreground)
//Storyboard Sound Samples
Sample,62840,0,"normal-hitwhistle.wav",70
Sample,65596,0,"normal-hitwhistle.wav",70
Sample,67147,0,"normal-hitclap.wav",70
Sample,70937,0,"normal-hitwhistle.wav",70
Sample,72659,0,"normal-hitclap.wav",70

[TimingPoints]
23417,344.530577088717,4,1,1,70,1,0
44778,-100,4,2,1,70,0,0
46845,-100,4,1,1,70,0,1
57181,-100,4,1,1,70,0,0
57870,-100,4,1,1,70,0,1
67517,-100,4,1,1,70,0,0
68895,-100,4,1,1,70,0,1
77164,-100,4,1,1,60,0,0
77681,-100,4,1,1,50,0,0
78198,-100,4,1,1,40,0,0
78715,-100,4,1,1,30,0,0
79231,-100,4,1,1,20,0,0
79576,-100,4,1,1,10,0,0
79920,-100,4,1,1,60,0,0
80006,-100,4,2,1,5,0,0

[Colours]
Combo1 : 0,255,0
Combo2 : 255,255,0
Combo3 : 255,128,0
Combo4 : 255,0,0
Combo5 : 255,0,255
Combo6 : 0,128,255

[HitObjects]
88,44,24795,6,0,P|76:92|96:160,1,90,4|0,0:0|0:0,0:0:0:0:
156,208,25139,1,0,0:0:0:0:
232,132,25311,2,0,P|292:116|416:144,2,180
320,248,26173,5,0,0:0:0:0:
405,138,26345,1,0,0:0:0:0:
232,132,26517,1,0,0:0:0:0:
320,248,26690,1,0,0:0:0:0:
324,28,26862,1,0,0:0:0:0:
320,248,27034,1,0,0:0:0:0:
324,28,27206,1,0,0:0:0:0:
320,248,27379,1,0,0:0:0:0:
388,340,27551,6,0,P|428:292|420:172,1,180
320,248,28068,2,0,L|128:256,2,180
84,336,28929,2,0,P|48:296|40:248,1,90
88,68,29274,2,0,L|84:176,1,90
84,176,29532,1,0,0:0:0:0:
84,176,29618,1,0,0:0:0:0:
176,120,29790,1,0,0:0:0:0:
88,68,29963,1,0,0:0:0:0:
84,176,30135,1,0,0:0:0:0:
256,64,30307,6,0,L|352:68,1,90
432,140,30652,1,8,0:0:0:0:
432,140,30824,2,0,P|448:236|416:328,1,180
336,368,31341,1,8,0:0:0:0:
264,296,31513,2,0,L|76:304,1,180
32,216,32030,6,0,P|24:156|32:112,1,90,8|0,0:0|0:0,0:0:0:0:
100,32,32374,2,0,L|200:36,1,90
308,40,32719,1,8,0:0:0:0:
308,40,32891,2,0,B|404:28|404:28|500:76,1,180
448,152,33408,2,0,L|460:268,1,90,8|0,0:0|0:0,0:0:0:0:
336,352,33752,2,0,L|344:256,1,90
256,188,34097,2,0,P|192:188|152:220,1,90,8|0,0:0|0:0,0:0:0:0:
104,288,34441,6,0,L|-20:284,2,90,0|0|8,0:0|0:0|0:0,0:0:0:0:
196,360,34958,1,0,0:0:0:0:
196,360,35044,1,0,0:0:0:0:
196,360,35131,1,0,0:0:0:0:
256,188,35303,1,0,0:0:0:0:
384,316,35475,1,8,0:0:0:0:
384,316,35647,6,0,P|480:288|508:196,1,180
408,92,36164,2,0,P|392:152|404:208,1,90,8|0,0:0|0:0,0:0:0:0:
200,232,36509,2,0,P|248:276|300:292,1,90
40,340,36853,2,0,P|112:352|144:344,1,90,8|0,0:0|0:0,0:0:0:0:
144,344,37112,1,0,0:0:0:0:
144,344,37198,1,0,0:0:0:0:
240,128,37370,1,0,0:0:0:0:
92,264,37542,1,8,0:0:0:0:
192,48,37715,1,0,0:0:0:0:
328,168,37887,6,0,L|448:152,1,90
500,296,38231,2,0,L|408:308,1,90,8|0,0:0|0:0,0:0:0:0:
384,312,38490,1,0,0:0:0:0:
384,312,38576,2,0,L|376:376,1,45
304,376,38748,1,0,0:0:0:0:
180,272,38920,1,8,0:0:0:0:
72,364,39093,6,0,P|52:316|64:184,1,180
152,96,39609,2,0,P|156:36|136:0,1,90,8|0,0:0|0:0,0:0:0:0:
48,68,39954,1,0,0:0:0:0:
160,228,40126,1,0,0:0:0:0:
296,76,40298,2,0,L|408:92,1,90,8|0,0:0|0:0,0:0:0:0:
452,212,40643,6,0,P|456:268|432:328,1,90
428,332,40901,1,0,0:0:0:0:
400,352,40988,2,0,L|292:348,1,90,8|0,0:0|0:0,0:0:0:0:
208,296,41332,6,0,L|28:304,1,180,0|8,0:0|0:0,0:0:0:0:
72,216,41849,2,0,P|100:160|56:28,1,180
168,24,42366,2,0,L|268:32,1,90,8|0,0:0|0:0,0:0:0:0:
456,52,42710,6,0,L|440:256,1,180,0|8,0:0|0:0,0:0:0:0:
312,356,43227,2,0,P|272:312|276:172,1,180
376,112,43744,1,8,0:0:0:0:
424,344,43916,1,0,0:0:0:0:
188,256,44088,1,0,0:0:0:0:
156,260,44174,1,0,0:0:0:0:
128,264,44261,1,0,0:0:0:0:
96,268,44347,1,0,0:0:0:0:
60,276,44433,2,0,L|48:332,3,45,8|0|0|0,0:0|0:0|0:0|0:0,0:0:0:0:
88,180,44777,6,0,L|80:144,17,22.5
72,28,46672,5,0,0:0:0:0:
72,28,46845,2,0,P|48:96|76:208,1,180,0|8,0:0|0:0,0:0:0:0:
200,292,47361,2,0,P|224:224|196:112,1,180
60,340,47878,1,8,0:0:0:0:
156,40,48050,5,0,0:0:0:0:
472,120,48395,1,0,0:0:0:0:
256,352,48739,1,0,0:0:0:0:
152,208,48912,6,0,L|192:296,1,90
360,208,49256,2,0,L|320:296,1,90,8|0,0:0|0:0,0:0:0:0:
212,144,49601,6,0,P|160:120|64:212,1,180,0|8,0:0|0:0,0:0:0:0:
324,288,50118,2,0,L|508:284,1,180
272,356,50634,2,0,P|240:308|256:248,1,90,8|0,0:0|0:0,0:0:0:0:
296,208,50979,5,0,0:0:0:0:
152,24,51323,1,8,0:0:0:0:
104,132,51496,1,0,0:0:0:0:
184,224,51668,6,0,L|176:336,1,90,2|2,0:0|0:0,0:0:0:0:
344,356,52013,2,0,L|448:348,1,90,2|2,0:0|0:0,0:0:0:0:
296,208,52357,6,0,P|316:132|272:0,1,180,6|8,0:0|0:0,0:0:0:0:
152,132,52874,2,0,B|24:128|24:128|24:152|64:168,1,180
136,228,53391,2,0,L|144:336,1,90,8|0,0:0|0:0,0:0:0:0:
56,164,53735,2,0,P|28:96|64:-12,1,180,0|8,0:0|0:0,0:0:0:0:
224,84,54252,5,0,0:0:0:0:
224,84,54338,1,0,0:0:0:0:
224,84,54424,1,2,0:0:0:0:
284,324,54597,1,2,0:0:0:0:
480,172,54769,1,2,0:0:0:0:
224,84,54941,1,2,0:0:0:0:
284,324,55113,6,0,P|360:344|456:296,1,180,0|8,0:0|0:0,0:0:0:0:
352,196,55630,2,0,L|168:184,2,180
112,248,56491,6,0,L|8:252,1,90
192,92,56836,2,0,L|296:88,1,90,8|0,0:0|0:0,0:0:0:0:
424,28,57180,2,0,P|440:80|424:136,1,90
362,282,57525,2,0,P|346:230|362:174,1,90
464,332,57870,6,0,P|388:380|272:360,1,180,4|8,0:0|0:0,0:0:0:0:
212,308,58386,2,0,L|24:324,1,180
80,144,58903,2,0,L|200:160,1,90,8|0,0:0|0:0,0:0:0:0:
344,184,59248,6,0,P|384:128|376:8,2,180,0|8|2,0:0|0:0|0:0,0:0:0:0:
240,272,60109,2,0,L|256:376,1,90,2|2,0:0|0:0,0:0:0:0:
180,132,60454,1,2,0:0:0:0:
312,212,60626,6,0,L|492:192,1,180,4|8,0:0|0:0,0:0:0:0:
197,300,61143,2,0,P|162:219|180:132,1,180
308,56,61659,1,8,0:0:0:0:
328,348,61832,6,0,P|228:316|136:348,2,180
452,276,62693,2,0,L|460:160,1,90,2|2,0:0|0:0,0:0:0:0:
272,36,63038,2,0,L|296:128,1,90,2|2,0:0|0:0,0:0:0:0:
196,228,63382,6,0,P|128:244|8:192,1,180,0|8,0:0|0:0,0:0:0:0:
102,17,63899,2,0,P|170:1|290:53,1,180
416,160,64416,2,0,L|396:252,1,90,8|0,0:0|0:0,0:0:0:0:
215,315,64760,6,0,L|195:223,1,90
184,176,65019,1,0,0:0:0:0:
184,176,65105,1,8,0:0:0:0:
400,248,65277,1,0,0:0:0:0:
180,352,65449,6,0,P|124:364|56:344,1,90,2|2,0:0|0:0,0:0:0:0:
128,88,65794,2,0,P|184:76|252:96,1,90,2|2,0:0|0:0,0:0:0:0:
376,208,66138,6,0,L|364:388,1,180,4|8,0:0|0:0,0:0:0:0:
272,180,66655,2,0,P|304:128|436:116,2,180
200,276,67516,2,0,L|16:264,2,180
296,344,68378,5,0,0:0:0:0:
472,272,68550,1,0,0:0:0:0:
320,148,68722,1,0,0:0:0:0:
325,319,68895,6,0,P|345:251|317:143,1,180,4|8,0:0|0:0,0:0:0:0:
236,88,69411,2,0,L|16:112,2,180
360,16,70273,2,0,L|476:28,1,90
476,28,70531,1,0,0:0:0:0:
476,28,70617,1,8,0:0:0:0:
408,120,70789,1,0,0:0:0:0:
360,16,70962,5,2,0:0:0:0:
476,28,71134,1,2,0:0:0:0:
352,208,71306,1,2,0:0:0:0:
240,188,71479,1,2,0:0:0:0:
160,272,71651,6,0,P|128:216|172:92,1,180,4|8,0:0|0:0,0:0:0:0:
260,68,72168,2,0,L|452:80,2,180
240,188,73029,6,0,L|256:280,1,90
424,167,73373,2,0,L|440:75,1,90,8|0,0:0|0:0,0:0:0:0:
448,36,73632,1,0,0:0:0:0:
448,36,73718,1,2,0:0:0:0:
280,16,73890,1,2,0:0:0:0:
348,208,74062,2,0,P|384:248|452:248,1,90,2|2,0:0|0:0,0:0:0:0:
264,144,74407,6,0,L|68:152,1,180,4|0,0:0|0:0,0:0:0:0:
237,263,74924,2,0,L|433:255,1,180
392,136,75441,2,0,P|384:72|336:32,1,90
248,16,75785,5,0,0:0:0:0:
44,180,76130,1,0,0:0:0:0:
144,256,76302,1,0,0:0:0:0:
280,208,76474,2,0,L|400:216,1,90
464,352,76819,2,0,L|344:344,1,90
280,208,77163,6,0,L|272:136,3,45
336,96,77508,2,0,L|344:40,3,45
380,20,77852,5,0,0:0:0:0:
342,51,77938,1,0,0:0:0:0:
296,56,78025,1,0,0:0:0:0:
248,40,78111,1,0,0:0:0:0:
208,16,78197,6,0,L|136:24,3,45
104,88,78541,2,0,L|48:84,3,45
24,104,78886,6,0,L|28:168,1,45
76,204,79058,2,0,L|68:272,1,45
120,304,79230,1,0,0:0:0:0:
104,324,79317,1,0,0:0:0:0:
88,344,79403,1,0,0:0:0:0:
72,360,79489,1,0,0:0:0:0:
72,360,79575,6,0,L|120:352,1,45
196,352,79747,2,0,L|252:352,1,45
272,360,79920,6,0,P|312:324|328:172,1,180
