osu file format v13

[General]
AudioFilename: When Love Becomes a Lie (Nightcore Mix).mp3
AudioLeadIn: 0
PreviewTime: 46819
Countdown: 0
SampleSet: Normal
StackLeniency: 0.2
Mode: 0
LetterboxInBreaks: 0
EpilepsyWarning: 1
WidescreenStoryboard: 0

[Editor]
DistanceSpacing: 1
BeatDivisor: 4
GridSize: 4
TimelineZoom: 1

[Metadata]
Title:When Love Becomes a Lie (Nightcore Mix)
TitleUnicode:When Love Becomes a Lie (Nightcore Mix)
Artist:Liz Kay
ArtistUnicode:Liz Kay
Creator:Sun Rainbow
Version:Hard
Source:
Tags:remix Short version smallboat yf_bmp
BeatmapID:359963
BeatmapSetID:145052

[Difficulty]
HPDrainRate:6
CircleSize:4
OverallDifficulty:7
ApproachRate:7
SliderMultiplier:1.6
SliderTickRate:1

[Events]
//Background and Video events
0,0,"BG.jpg",0,0
//Break Periods
//Storyboard Layer 0 (Background)
//Storyboard Layer 1 (Fail)
//Storyboard Layer 2 (Pass)
//Storyboard Layer 3 (Foreground)
//Storyboard Sound Samples
Sample,62840,0,"normal-hitwhistle.wav",70
Sample,65596,0,"normal-hitwhistle.wav",70
Sample,67147,0,"normal-hitclap.wav",70
Sample,70937,0,"normal-hitwhistle.wav",70
Sample,72659,0,"normal-hitclap.wav",70
//Background Colour Transformations
3,100,163,162,255

[TimingPoints]
23417,344.530577088717,4,1,1,70,1,0
44778,-100,4,2,1,70,0,0
46845,-100,4,1,1,70,0,1
57181,-100,4,1,1,70,0,0
57870,-100,4,1,1,70,0,1
67517,-100,4,1,1,70,0,0
68895,-100,4,1,1,70,0,1
77164,-100,4,1,1,60,0,0
77681,-100,4,1,1,50,0,0
78198,-100,4,1,1,40,0,0
78715,-100,4,1,1,30,0,0
79231,-100,4,1,1,20,0,0
79576,-100,4,1,1,10,0,0
79920,-100,4,1,1,60,0,0

[Colours]
Combo1 : 0,255,0
Combo2 : 255,255,0
Combo3 : 255,128,0
Combo4 : 255,0,0
Combo5 : 255,0,255
Combo6 : 0,128,255

[HitObjects]
84,152,24795,6,0,P|104:112|208:112,1,160,4|2,0:0|0:0,0:0:0:0:
256,168,25312,2,0,L|256:280,2,80,0|2|0,0:0|0:0|0:0,0:0:0:0:
316,116,25828,1,0,0:0:0:0:
396,112,26000,2,0,P|424:140|432:184,1,80,0|2,0:0|0:0,0:0:0:0:
360,176,26346,6,0,L|360:260,1,80,0|2,0:0|0:0,0:0:0:0:
316,320,26690,1,0,0:0:0:0:
256,268,26863,1,2,0:0:0:0:
196,320,27035,1,0,0:0:0:0:
152,252,27207,2,0,L|152:172,1,80,2|0,0:0|0:0,0:0:0:0:
200,112,27552,6,0,P|125:94|76:152,1,160,2|2,0:0|0:0,0:0:0:0:
29,214,28069,2,0,P|103:231|152:173,1,160
200,112,28585,1,2,0:0:0:0:
256,56,28758,2,0,B|336:56|336:56|420:88,1,160
456,148,29274,1,2,0:0:0:0:
412,216,29447,2,0,B|337:244|337:244|257:244,1,160
200,303,29963,6,0,P|176:264|196:200,1,80,2|0,0:0|0:0,0:0:0:0:
228,172,30307,1,0,0:0:0:0:
200,96,30479,6,0,P|192:48|216:8,1,80,0|8,0:0|0:0,0:0:0:0:
307,20,30824,2,0,P|321:57|312:96,1,80
308,176,31168,2,8,L|324:264,1,80,0|8,0:0|0:0,0:0:0:0:
308,336,31513,1,0,0:0:0:0:
392,340,31685,1,0,0:0:0:0:
392,340,31858,1,0,0:0:0:0:
452,280,32031,6,0,B|496:264|496:264|516:232,1,80,8|0,0:0|0:0,0:0:0:0:
512,148,32375,2,0,B|496:120|496:120|452:104,1,80,2|0,0:0|0:0,0:0:0:0:
376,76,32720,1,8,0:0:0:0:
300,48,32891,6,0,P|223:43|177:104,1,160
176,184,33409,1,8,0:0:0:0:
176,264,33581,2,0,P|225:327|308:314,1,160
256,252,34098,1,8,0:0:0:0:
256,252,34270,2,0,L|256:152,1,80,0|2,0:0|0:0,0:0:0:0:
336,156,34615,2,0,L|336:244,2,80,0|8|0,0:0|0:0|0:0,0:0:0:0:
361,77,35131,2,0,P|393:101|416:136,1,80,2|0,0:0|0:0,0:0:0:0:
444,204,35476,2,0,P|484:168|484:120,1,80,8|0,0:0|0:0,0:0:0:0:
464,68,35820,6,0,B|432:40|432:40|304:40,1,160,4|8,0:0|0:0,0:0:0:0:
236,40,36337,2,0,B|118:40|118:40|86:68,1,160
24,116,36854,1,8,0:0:0:0:
32,196,37026,6,0,P|40:240|76:260,1,80,0|2,0:0|0:0,0:0:0:0:
112,324,37371,2,0,P|140:298|131:225,1,80,0|8,0:0|0:0,0:0:0:0:
192,192,37715,2,0,B|240:192|240:192|256:164,1,80,0|2,0:0|0:0,0:0:0:0:
256,84,38060,1,0,0:0:0:0:
319,192,38232,2,0,B|271:192|271:192|255:164,1,80,8|0,0:0|0:0,0:0:0:0:
400,192,38577,6,0,B|472:192|472:192|512:304,1,160,4|8,0:0|0:0,0:0:0:0:
452,340,39094,2,0,L|292:340,1,160
256,268,39610,1,8,0:0:0:0:
216,340,39783,6,0,L|124:340,1,80,0|2,0:0|0:0,0:0:0:0:
56,348,40127,2,0,P|64:300|110:267,1,80,0|8,0:0|0:0,0:0:0:0:
48,200,40472,2,0,P|125:198|172:264,1,160
256,268,40988,1,8,0:0:0:0:
340,256,41161,1,0,0:0:0:0:
340,256,41332,6,0,P|386:194|463:196,1,160,0|8,0:0|0:0,0:0:0:0:
424,272,41850,2,0,L|460:352,2,80,0|2|0,0:0|0:0|0:0,0:0:0:0:
340,256,42367,1,8,0:0:0:0:
256,268,42539,2,0,B|176:268|176:268|96:216,1,160
52,168,43056,1,8,0:0:0:0:
108,112,43228,2,0,B|175:68|175:68|255:68,1,160
256,148,43745,1,8,0:0:0:0:
328,184,43917,1,0,0:0:0:0:
396,227,44089,6,0,P|366:254|312:264,1,80
183,264,44433,2,0,P|145:253|116:227,1,80,8|0,0:0|0:0,0:0:0:0:
184,184,44777,2,0,L|204:144,3,40
168,80,45122,2,0,L|152:52,8,20
184,57,46845,6,0,P|108:79|90:168,1,160,4|8,0:0|0:0,0:0:0:0:
168,140,47362,2,0,B|228:192|228:192|316:192,1,160
368,136,47879,1,8,0:0:0:0:
369,136,48051,2,0,P|390:204|336:269,1,160
276,320,48568,1,8,0:0:0:0:
256,244,48740,1,0,0:0:0:0:
176,244,48913,6,0,L|92:244,2,80,0|2|8,0:0|0:0|0:0,0:0:0:0:
256,244,49429,1,0,0:0:0:0:
336,244,49602,6,0,P|404:227|428:146,1,160,4|8,0:0|0:0,0:0:0:0:
348,164,50118,2,0,B|288:112|288:112|204:112,1,160
148,56,50635,1,8,0:0:0:0:
96,116,50808,6,0,L|96:288,1,160
148,336,51324,1,8,0:0:0:0:
216,292,51497,1,0,0:0:0:0:
256,360,51669,6,0,P|296:360|332:328,1,80,2|2,0:0|0:0,0:0:0:0:
408,332,52013,2,0,P|396:294|352:260,1,80,10|2,0:0|0:0,0:0:0:0:
296,232,52358,6,0,L|296:64,1,160,4|8,0:0|0:0,0:0:0:0:
216,72,52875,2,0,L|216:232,1,160
136,252,53391,1,8,0:0:0:0:
136,252,53563,2,0,P|156:292|200:308,1,80
256,336,53908,1,0,0:0:0:0:
325,307,54080,2,0,P|360:287|376:252,1,80
432,192,54425,5,2,0:0:0:0:
408,324,54597,1,2,0:0:0:0:
368,140,54770,2,0,P|400:112|456:112,1,80,2|2,0:0|0:0,0:0:0:0:
458,262,55114,6,0,P|456:223|432:192,1,80,4|0,0:0|0:0,0:0:0:0:
368,140,55459,1,2,0:0:0:0:
376,252,55631,2,0,P|296:240|256:312,1,160
255,298,56148,1,8,0:0:0:0:
256,298,56320,6,0,P|215:237|134:250,1,160
127,370,56837,2,0,B|172:360|180:316,1,80,8|0,0:0|0:0,0:0:0:0:
72,200,57180,2,0,B|27:210|19:254,1,80,0|0,0:0|0:0,0:0:0:0:
256,256,57525,2,0,L|255:147,1,80
208,56,57870,1,4,0:0:0:0:
208,56,58215,6,0,P|170:52|131:88,1,80,8|0,0:0|0:0,0:0:0:0:
125,151,58559,2,0,P|164:154|196:132,1,80,0|0,0:0|0:0,0:0:0:0:
256,176,58904,1,8,0:0:0:0:
256,176,59076,2,0,L|256:344,2,160
304,56,59937,6,0,P|342:52|381:88,1,80,2|2,0:0|0:0,0:0:0:0:
386,151,60281,2,0,P|347:154|316:132,1,80,2|0,0:0|0:0,0:0:0:0:
232,88,60627,6,0,B|144:88|144:88|76:144,1,160,4|8,0:0|0:0,0:0:0:0:
88,212,61143,2,0,B|143:257|143:257|231:257,1,160
256,336,61660,1,8,0:0:0:0:
336,336,61833,6,0,P|416:336|416:272,1,160
360,216,62349,1,8,0:0:0:0:
360,216,62522,1,0,0:0:0:0:
335,96,62694,2,0,P|407:88|416:160,1,160,2|2,0:0|0:0,0:0:0:0:
360,216,63211,1,2,0:0:0:0:
280,212,63382,6,0,P|238:215|200:180,1,80,4|0,0:0|0:0,0:0:0:0:
190,115,63727,2,0,P|232:112|270:147,1,80,8|0,0:0|0:0,0:0:0:0:
280,212,64072,2,0,B|264:292|264:292|304:364,1,160,0|8,0:0|0:0,0:0:0:0:
384,364,64589,2,0,B|400:284|400:284|360:212,1,160
320,144,65106,2,0,P|377:131|416:164,1,80,8|0,0:0|0:0,0:0:0:0:
468,164,65450,6,0,P|436:128|448:24,1,160,2|2,0:0|0:0,0:0:0:0:
368,8,65967,1,2,0:0:0:0:
312,64,66139,6,0,B|228:64|228:64|160:116,1,160,4|8,0:0|0:0,0:0:0:0:
136,184,66656,2,0,L|136:352,2,160
256,192,67517,12,4,68895,0:0:0:0:
128,144,69240,5,8,0:0:0:0:
168,76,69412,2,0,P|206:145|168:212,1,160
96,244,69929,1,8,0:0:0:0:
140,312,70101,2,0,B|188:312|188:312|220:328,1,80
372,312,70446,2,0,B|324:312|324:312|292:328,1,80,0|8,0:0|0:0,0:0:0:0:
256,256,70790,2,0,L|256:72,1,160,0|2,0:0|0:0,0:0:0:0:
208,32,71307,2,0,P|180:72|184:120,1,80,2|2,0:0|0:0,0:0:0:0:
136,172,71652,6,0,P|135:89|44:52,1,160,4|8,0:0|0:0,0:0:0:0:
4,88,72168,2,0,P|5:171|96:208,2,160
76,52,73030,6,0,B|164:52|164:52|224:108,1,160,0|8,0:0|0:0,0:0:0:0:
256,172,73547,1,0,0:0:0:0:
308,112,73719,6,0,P|344:96|396:112,1,80,2|2,0:0|0:0,0:0:0:0:
427,172,74063,2,0,P|392:187|353:179,1,80,2|2,0:0|0:0,0:0:0:0:
300,240,74408,6,0,B|300:284|300:284|296:328,1,80,4|0,0:0|0:0,0:0:0:0:
215,319,74752,2,0,B|212:284|212:284|212:240,1,80,8|0,0:0|0:0,0:0:0:0:
256,88,75269,5,0,0:0:0:0:
256,88,75614,5,0,0:0:0:0:
256,88,75958,5,0,0:0:0:0:
256,88,76303,5,0,0:0:0:0:
188,48,76475,6,0,P|176:92|192:136,1,80,2|2,0:0|0:0,0:0:0:0:
327,124,76820,2,0,P|335:85|324:48,1,80,2|2,0:0|0:0,0:0:0:0:
256,88,77164,5,0,0:0:0:0:
256,88,77336,2,0,L|256:256,2,160
188,48,78198,1,0,0:0:0:0:
188,48,78370,2,0,P|224:16|328:56,1,160
256,88,78887,1,0,0:0:0:0:
324,132,79059,2,0,P|288:164|184:124,1,160
256,88,79576,1,0,0:0:0:0:
256,88,79748,1,0,0:0:0:0:
256,88,79920,5,4,0:0:0:0:
