osu file format v14

[General]
AudioFilename: audio.mp3
AudioLeadIn: 0
PreviewTime: 53267
Countdown: 0
SampleSet: Drum
StackLeniency: 0.7
Mode: 0
LetterboxInBreaks: 0
WidescreenStoryboard: 0

[Editor]
Bookmarks: 54017,78017,102017,114017,126017,138017,150017,162017
DistanceSpacing: 1
BeatDivisor: 4
GridSize: 8
TimelineZoom: 1.9

[Metadata]
Title:Labyrinth -Black Trance Mix- v2.0
TitleUnicode:Labyrinth -Black Trance Mix- v2.0
Artist:Lix
ArtistUnicode:Lix
Creator:Matrix
Version:Six King Labyrinth
Source:Ragnarök Online
Tags:reflex levo lution instrumental electronic trance mithew lmt rrtyui ラグナロクオンライン video game
BeatmapID:2334483
BeatmapSetID:1075788

[Difficulty]
HPDrainRate:5
CircleSize:5
OverallDifficulty:8
ApproachRate:9
SliderMultiplier:1.9
SliderTickRate:1

[Events]
//Background and Video events
0,0,"amazing-dark-background-1.jpg",0,0
//Break Periods
//Storyboard Layer 0 (Background)
//Storyboard Layer 1 (Fail)
//Storyboard Layer 2 (Pass)
//Storyboard Layer 3 (Foreground)
//Storyboard Layer 4 (Overlay)
//Storyboard Sound Samples

[TimingPoints]
1517,375,4,1,1,48,1,0
54017,-100,4,1,1,80,0,0
54392,-100,4,1,1,70,0,0
54767,-100,4,1,1,60,0,0
55142,-100,4,1,1,50,0,0
55517,-100,4,1,1,48,0,0
78017,-90.9090909090909,4,3,1,65,0,0
81017,-90.9090909090909,4,3,1,48,0,0
84017,-90.9090909090909,4,3,1,65,0,0
87017,-90.9090909090909,4,3,1,48,0,0
90017,-90.9090909090909,4,3,1,65,0,0
93017,-90.9090909090909,4,3,1,48,0,0
96017,-90.9090909090909,4,3,1,65,0,0
99017,-90.9090909090909,4,3,1,70,0,0
100517,-90.9090909090909,4,3,1,75,0,0
101454,-66.6666666666667,4,3,1,75,0,0
102017,-83.3333333333333,4,2,1,80,0,0
125454,-66.6666666666667,4,2,1,80,0,0
125829,-83.3333333333333,4,2,1,80,0,0
126017,-83.3333333333333,4,3,1,80,0,1
137454,-66.6666666666667,4,3,1,80,0,1
137642,-83.3333333333333,4,3,1,80,0,1
138017,-83.3333333333333,4,2,1,80,0,0
150017,-90.9090909090909,4,2,1,80,0,0
156017,-90.9090909090909,4,3,1,80,0,0
156204,-90.9090909090909,4,3,1,50,0,0
156767,-80,4,3,1,50,0,0
156954,-90.9090909090909,4,3,1,50,0,0
157517,-90.9090909090909,4,3,1,80,0,0
158079,-90.9090909090909,4,3,1,60,0,0
159767,-90.9090909090909,4,3,1,70,0,0
160517,-90.9090909090909,4,3,1,80,0,0
161267,-90.9090909090909,4,3,1,85,0,0
162017,-90.9090909090909,4,3,1,90,0,0
163798,-90.9090909090909,4,3,1,5,0,0

[Colours]
Combo1 : 0,121,210
Combo2 : 128,128,255
Combo3 : 124,0,249
Combo4 : 0,128,128

[HitObjects]
256,192,53267,12,0,53829,2:2:0:0:
115,226,54017,6,0,L|101:326,1,95,4|0,0:2|0:2,0:0:0:0:
203,162,54392,2,0,L|189:262,1,95,8|0,0:2|0:2,0:0:0:0:
99,114,54767,6,0,L|-13:146,1,95,0|0,0:2|0:2,0:0:0:0:
187,34,55142,2,0,L|299:2,1,95,8|0,0:2|0:2,0:0:0:0:
490,53,55517,6,0,B|446:69|446:69|434:132,1,95,0|0,0:2|0:2,0:0:0:0:
296,158,55892,2,0,B|338:140|338:140|350:77,1,95,8|0,0:2|0:2,0:0:0:0:
419,317,56267,6,0,L|405:222,1,95,0|0,0:2|0:2,0:0:0:0:
499,277,56642,2,0,L|513:377,1,95,8|0,0:2|0:2,0:0:0:0:
328,320,57017,5,0,1:2:0:0:
240,296,57204,1,2,2:2:0:0:
160,280,57392,1,8,2:2:0:0:
96,208,57579,1,2,2:2:0:0:
160,280,57767,2,0,L|137:377,1,95,0|0,1:2|2:2,0:0:0:0:
224,216,58142,1,8,2:2:0:0:
160,280,58329,1,0,2:2:0:0:
224,216,58517,2,0,L|240:112,1,95,0|2,1:2|2:2,0:0:0:0:
132,148,58892,5,8,2:2:0:0:
132,52,59079,1,0,2:2:0:0:
23,9,59267,2,0,B|53:109,1,95,0|2,1:2|2:2,0:0:0:0:
132,148,59642,1,8,2:2:0:0:
217,107,59829,1,2,2:2:0:0:
248,199,60017,6,0,L|264:319,1,95,4|0,0:2|0:2,0:0:0:0:
345,134,60392,2,0,L|318:252,1,95,8|0,0:2|0:2,0:0:0:0:
456,119,60767,2,0,L|391:221,1,95,0|0,0:2|0:2,0:0:0:0:
504,314,61142,6,0,L|488:194,1,95,8|0,0:2|0:2,0:0:0:0:
408,378,61517,2,0,L|435:260,1,95,0|0,0:2|0:2,0:0:0:0:
297,384,61892,6,0,L|362:282,1,95,8|0,0:2|0:2,0:0:0:0:
210,235,62267,2,0,L|265:342,1,95,0|0,0:2|0:2,0:0:0:0:
381,240,62642,2,0,L|260:233,1,95,8|0,0:2|0:2,0:0:0:0:
133,235,63017,5,0,1:2:0:0:
157,147,63204,1,2,2:2:0:0:
181,59,63392,1,8,2:2:0:0:
269,27,63579,1,2,2:2:0:0:
181,59,63767,2,0,P|125:50|84:27,1,95,0|0,1:2|2:2,0:0:0:0:
248,111,64142,1,8,2:2:0:0:
224,199,64329,1,0,2:2:0:0:
67,120,64517,2,0,P|123:128|163:152,1,95,0|2,1:2|2:2,0:0:0:0:
374,330,64892,5,8,2:2:0:0:
414,242,65079,1,0,2:2:0:0:
510,242,65267,2,0,L|486:138,1,95,0|2,1:2|2:2,0:0:0:0:
398,122,65642,1,8,2:2:0:0:
462,58,65829,1,2,2:2:0:0:
398,122,66017,6,0,L|286:138,1,95,4|0,0:2|0:2,0:0:0:0:
222,146,66392,2,0,P|206:226|174:250,1,95,8|0,0:2|0:2,0:0:0:0:
126,74,66767,2,0,L|150:186,1,95,0|0,0:2|0:2,0:0:0:0:
46,74,67142,2,0,P|88:4|126:-8,1,95,8|0,0:2|0:2,0:0:0:0:
182,18,67517,6,0,L|310:-6,1,95,0|0,0:2|0:2,0:0:0:0:
113,244,67892,2,0,L|-15:268,1,95,8|0,0:2|0:2,0:0:0:0:
198,122,68267,2,0,B|188:159|188:159|232:215,1,95,0|0,0:2|0:2,0:0:0:0:
81,145,68642,2,0,B|91:108|91:108|47:52,1,95,8|0,0:2|0:2,0:0:0:0:
214,308,69017,5,0,1:2:0:0:
310,292,69204,1,2,2:2:0:0:
406,276,69392,1,8,2:2:0:0:
441,185,69579,1,2,2:2:0:0:
406,276,69767,2,0,L|427:386,1,95,0|0,1:2|2:2,0:0:0:0:
342,137,70142,5,8,2:2:0:0:
250,159,70329,1,0,2:2:0:0:
342,137,70517,2,0,L|321:247,1,95,0|2,1:2|2:2,0:0:0:0:
415,20,70892,5,8,2:2:0:0:
507,42,71079,1,0,2:2:0:0:
415,20,71267,2,0,L|436:130,1,95,0|2,1:2|2:2,0:0:0:0:
256,256,71642,5,8,2:2:0:0:
256,128,71829,1,2,2:2:0:0:
216,192,72017,6,0,L|136:256,1,95,4|0,0:2|0:2,0:0:0:0:
296,192,72392,2,0,L|376:128,1,95,8|0,0:2|0:2,0:0:0:0:
176,184,72767,2,0,L|72:184,1,95,0|0,0:2|0:2,0:0:0:0:
336,199,73142,2,0,L|440:200,1,95,8|0,0:2|0:2,0:0:0:0:
128,152,73517,2,0,L|40:96,1,95,0|0,0:2|0:2,0:0:0:0:
384,232,73892,2,0,L|472:288,1,95,8|0,0:2|0:2,0:0:0:0:
136,264,74267,2,0,L|80:360,1,95,0|0,0:2|0:2,0:0:0:0:
376,120,74642,2,0,L|432:24,1,95,8|0,0:2|0:2,0:0:0:0:
88,88,75017,5,0,1:2:0:0:
168,168,75204,1,2,2:2:0:0:
88,248,75392,1,8,2:2:0:0:
168,328,75579,1,2,2:2:0:0:
88,248,75767,2,0,L|63:367,1,95,0|0,1:2|2:2,0:0:0:0:
168,168,76142,5,8,2:2:0:0:
88,248,76329,1,0,2:2:0:0:
168,168,76517,2,0,L|192:49,1,95,0|2,1:2|2:2,0:0:0:0:
59,139,76892,5,8,2:2:0:0:
88,248,77079,1,0,2:2:0:0:
240,272,77267,6,0,P|304:272|344:304,1,95,6|0,1:2|2:2,0:0:0:0:
384,336,77548,1,2,2:2:0:0:
376,352,77642,1,12,2:2:0:0:
160,280,77829,1,2,2:2:0:0:
160,240,77923,1,2,2:2:0:0:
187,210,78017,6,0,L|82:167,1,104.500003189087,4|0,1:2|3:2,0:0:0:0:
247,142,78298,1,0,3:2:0:0:
247,142,78391,2,0,L|352:185,1,104.500003189087,8|0,3:2|3:2,0:0:0:0:
373,157,78673,2,0,P|353:225|368:270,1,104.500003189087,0|0,3:2|3:2,0:0:0:0:
396,293,78954,1,0,3:2:0:0:
313,357,79142,1,8,3:2:0:0:
206,304,79329,5,0,3:2:0:0:
184,321,79422,1,0,3:2:0:0:
250,207,79610,1,0,3:2:0:0:
272,190,79703,1,0,3:2:0:0:
296,335,79891,1,8,3:2:0:0:
313,357,79984,1,0,3:2:0:0:
139,200,80172,1,0,3:2:0:0:
122,178,80267,6,0,B|108:148|108:148|79:137|79:137|77:109|37:87,1,104.500003189087,2|0,0:2|3:2,0:0:0:0:
14,56,80548,1,2,3:2:0:0:
35,40,80641,1,8,3:2:0:0:
160,48,80829,1,2,3:2:0:0:
200,64,80923,1,2,3:2:0:0:
240,48,81017,5,0,1:2:0:0:
360,112,81204,1,2,2:2:0:0:
272,17,81392,1,8,2:2:0:0:
327,142,81579,1,2,2:2:0:0:
316,14,81767,1,0,1:2:0:0:
283,145,81954,1,0,2:2:0:0:
304,320,82142,5,8,2:2:0:0:
344,224,82329,1,0,2:2:0:0:
440,184,82517,2,0,L|432:304,1,104.500003189087,0|2,1:2|2:2,0:0:0:0:
344,224,82892,1,8,2:2:0:0:
304,128,83079,1,0,2:2:0:0:
192,88,83267,6,0,B|216:120|216:120|208:208,1,104.500003189087,2|0,1:2|2:2,0:0:0:0:
152,239,83548,1,2,2:2:0:0:
160,256,83642,1,8,2:2:0:0:
40,176,83829,1,2,2:2:0:0:
32,160,83923,1,2,2:2:0:0:
24,144,84017,6,0,L|168:96,1,104.500003189087,4|0,1:2|3:2,0:0:0:0:
160,72,84298,1,0,3:2:0:0:
160,72,84392,2,0,P|176:136|247:153,1,104.500003189087,8|0,3:2|3:2,0:0:0:0:
270,119,84673,2,0,P|254:55|183:38,1,104.500003189087,0|0,3:2|3:2,0:0:0:0:
206,154,84954,1,0,3:2:0:0:
206,154,85048,2,0,L|198:274,1,104.500003189087,0|0,3:2|3:2,0:0:0:0:
160,320,85329,5,0,3:2:0:0:
136,328,85423,1,0,3:2:0:0:
288,368,85610,1,0,3:2:0:0:
312,360,85704,1,0,3:2:0:0:
112,248,85892,1,8,3:2:0:0:
88,256,85986,1,0,3:2:0:0:
240,296,86173,1,0,3:2:0:0:
264,288,86267,6,0,P|288:280|336:288,3,52.2500015945435,0|2|2|2,1:2|2:2|3:2|3:2,0:0:0:0:
352,288,86642,1,8,2:2:0:0:
392,292,86735,1,2,2:2:0:0:
428,274,86829,1,2,3:2:0:0:
448,240,86923,1,2,3:2:0:0:
448,200,87017,5,0,1:2:0:0:
407,139,87204,1,2,2:2:0:0:
427,68,87392,1,8,2:2:0:0:
496,45,87579,1,2,2:2:0:0:
310,20,87767,5,0,1:2:0:0:
351,81,87954,1,0,2:2:0:0:
285,269,88142,5,8,2:2:0:0:
331,174,88329,1,0,2:2:0:0:
273,88,88517,1,0,1:2:0:0:
169,94,88704,1,2,2:2:0:0:
180,279,88892,5,8,2:2:0:0:
122,193,89080,1,0,2:2:0:0:
477,334,89267,5,2,2:2:0:0:
256,264,89548,1,2,2:2:0:0:
35,334,89829,1,2,2:2:0:0:
39,319,89923,1,2,2:2:0:0:
44,304,90017,6,0,L|116:384,1,104.500003189087,4|0,1:2|0:2,0:0:0:0:
120,268,90298,1,0,0:2:0:0:
128,280,90392,2,0,L|200:200,1,104.500003189087,8|0,0:2|0:2,0:0:0:0:
208,152,90673,2,0,P|232:212|304:224,1,104.500003189087,0|0,0:2|0:2,0:0:0:0:
322,246,90954,1,0,0:2:0:0:
316,232,91048,2,0,B|304:200|304:200|356:124,1,104.500003189087,0|0,0:2|0:2,0:0:0:0:
396,88,91329,5,0,0:2:0:0:
416,76,91423,1,0,0:2:0:0:
429,171,91610,1,0,0:2:0:0:
452,171,91704,1,0,0:2:0:0:
404,252,91892,1,8,0:2:0:0:
424,263,91986,1,0,0:2:0:0:
336,304,92173,1,0,0:2:0:0:
347,323,92267,1,0,0:2:0:0:
256,336,92454,1,0,0:2:0:0:
256,356,92548,2,0,B|222:343|222:343|194:355|194:355|180:343|144:344,1,104.500003189087,0|0,0:2|0:2,0:0:0:0:
88,364,92829,1,2,0:2:0:0:
84,348,92923,1,2,0:2:0:0:
80,332,93017,5,0,1:2:0:0:
108,240,93204,1,2,2:2:0:0:
136,148,93392,1,8,2:2:0:0:
201,218,93579,1,2,2:2:0:0:
267,288,93767,1,0,1:2:0:0:
173,309,93954,1,0,2:2:0:0:
136,148,94142,5,8,2:2:0:0:
228,124,94329,1,0,2:2:0:0:
320,100,94517,1,0,1:2:0:0:
253,32,94704,1,2,2:2:0:0:
404,216,94892,5,8,2:2:0:0:
312,240,95080,1,0,2:2:0:0:
379,308,95267,5,2,1:2:0:0:
120,312,95548,1,2,2:2:0:0:
116,296,95642,1,8,2:2:0:0:
48,176,95829,1,2,2:2:0:0:
52,160,95923,1,2,2:2:0:0:
56,144,96017,6,0,L|24:40,1,104.500003189087,4|0,1:2|0:2,0:0:0:0:
128,104,96298,1,0,0:2:0:0:
124,120,96392,2,0,L|156:224,1,104.500003189087,8|0,0:2|0:2,0:0:0:0:
232,248,96673,2,0,L|336:216,1,104.500003189087,0|0,0:2|0:2,0:0:0:0:
269,319,96954,1,0,0:2:0:0:
252,316,97048,2,0,L|148:348,1,104.500003189087,0|0,0:2|0:2,0:0:0:0:
84,336,97329,5,0,0:2:0:0:
66,346,97423,1,0,0:2:0:0:
2,262,97610,1,0,0:2:0:0:
20,272,97704,1,0,0:2:0:0:
134,247,97892,1,8,0:2:0:0:
113,250,97986,1,0,0:2:0:0:
36,161,98173,1,0,0:2:0:0:
48,176,98267,1,2,0:2:0:0:
163,165,98454,1,0,0:2:0:0:
142,160,98548,1,2,0:2:0:0:
48,8,98829,1,2,0:2:0:0:
56,24,98923,1,2,0:2:0:0:
64,40,99017,5,0,1:2:0:0:
168,64,99204,1,2,0:2:0:0:
272,88,99392,1,8,0:2:0:0:
344,9,99579,1,2,0:2:0:0:
376,112,99767,1,0,1:2:0:0:
368,128,99860,1,0,0:2:0:0:
360,144,99954,1,0,0:2:0:0:
368,160,100048,1,0,0:2:0:0:
376,176,100142,5,8,0:2:0:0:
463,147,100329,1,0,0:2:0:0:
445,302,100517,1,0,1:2:0:0:
453,286,100610,1,0,0:2:0:0:
461,269,100704,1,0,0:2:0:0:
453,253,100798,1,0,0:2:0:0:
445,237,100892,5,8,0:2:0:0:
358,267,101079,1,0,0:2:0:0:
271,297,101267,1,0,1:2:0:0:
267,312,101360,1,0,0:2:0:0:
260,326,101454,6,0,B|182:359|134:314|110:266|144:201|221:185|255:237|199:290,1,285.000010871888,4|4,0:2|0:0,0:0:0:0:
112,88,102017,5,4,1:2:0:0:
216,112,102204,1,2,0:2:0:0:
168,44,102392,1,8,0:2:0:0:
160,156,102579,1,2,0:2:0:0:
248,32,102767,1,2,1:2:0:0:
80,168,102954,1,0,0:2:0:0:
436,308,103142,5,8,0:2:0:0:
328,21,103329,1,2,0:2:0:0:
347,271,103517,1,2,1:2:0:0:
417,58,103704,1,0,0:2:0:0:
124,244,103893,5,8,0:2:0:0:
242,176,104079,1,2,0:2:0:0:
145,183,104267,1,2,1:2:0:0:
220,236,104454,1,0,0:2:0:0:
104,88,104642,5,10,0:2:0:0:
252,332,104829,1,2,0:2:0:0:
512,179,105017,5,4,1:2:0:0:
470,79,105204,1,2,0:2:0:0:
438,220,105392,1,8,0:2:0:0:
387,94,105579,1,2,0:2:0:0:
365,262,105767,1,2,1:2:0:0:
304,109,105954,1,0,0:2:0:0:
292,303,106142,5,8,0:2:0:0:
470,79,106329,1,2,0:2:0:0:
511,180,106517,5,2,1:2:0:0:
221,124,106704,1,0,0:2:0:0:
78,166,106892,5,8,0:2:0:0:
143,1,107079,1,2,0:2:0:0:
167,182,107267,1,2,1:2:0:0:
222,46,107454,1,0,0:2:0:0:
247,384,107642,5,10,1:2:0:0:
167,182,107829,1,2,0:2:0:0:
157,359,108017,5,4,1:2:0:0:
247,384,108204,1,2,0:2:0:0:
306,311,108392,1,8,0:2:0:0:
247,384,108579,1,2,0:2:0:0:
117,275,108767,5,2,1:2:0:0:
225,305,108954,1,0,0:2:0:0:
295,217,109142,1,8,0:2:0:0:
225,305,109329,1,2,0:2:0:0:
71,184,109517,5,2,1:2:0:0:
200,220,109704,1,0,0:2:0:0:
284,114,109892,1,8,0:2:0:0:
200,220,110079,1,2,0:2:0:0:
21,85,110267,5,2,1:2:0:0:
175,128,110454,1,0,0:2:0:0:
276,0,110642,1,10,0:2:0:0:
175,128,110829,1,2,0:2:0:0:
21,85,111017,5,4,1:2:0:0:
276,0,111204,1,2,0:2:0:0:
71,184,111392,1,8,0:2:0:0:
284,114,111579,1,2,0:2:0:0:
117,275,111767,1,2,1:2:0:0:
295,217,111954,1,0,0:2:0:0:
157,359,112142,5,8,0:2:0:0:
306,311,112329,1,2,0:2:0:0:
206,311,112517,5,2,1:2:0:0:
355,359,112704,1,0,0:2:0:0:
117,275,112892,5,8,0:2:0:0:
295,217,113079,1,2,0:2:0:0:
217,217,113267,5,2,1:2:0:0:
395,275,113454,1,0,0:2:0:0:
256,88,113642,5,10,0:2:0:0:
256,359,113829,1,2,0:2:0:0:
332,236,114017,5,4,1:2:0:0:
356,248,114110,1,0,3:2:0:0:
380,260,114204,1,0,3:2:0:0:
308,156,114392,1,8,3:2:0:0:
284,144,114485,1,0,3:2:0:0:
404,124,114673,1,0,3:2:0:0:
416,100,114766,1,0,1:2:0:0:
240,240,114954,1,0,3:2:0:0:
228,264,115047,1,0,3:2:0:0:
216,288,115141,5,8,3:2:0:0:
85,342,115329,1,0,3:2:0:0:
102,320,115423,2,0,P|114:264|90:207,1,113.999996520996,0|0,3:2|3:2,0:0:0:0:
68,174,115704,1,0,3:2:0:0:
106,45,115892,1,8,3:2:0:0:
118,65,115985,1,0,3:2:0:0:
218,85,116173,1,0,3:2:0:0:
230,105,116266,1,0,1:2:0:0:
198,225,116454,1,0,3:2:0:0:
210,205,116548,2,0,P|262:185|333:191,1,113.999996520996,0|0,3:2|3:2,0:0:0:0:
353,220,116829,6,0,B|359:193|359:193|351:165|351:165|379:143|375:98,1,113.999996520996,0|4,3:2|1:2,0:0:0:0:
341,58,117110,1,0,3:2:0:0:
328,42,117204,1,0,3:2:0:0:
435,42,117392,1,8,3:2:0:0:
442,22,117486,1,0,3:2:0:0:
492,119,117673,1,0,3:2:0:0:
512,115,117767,1,0,1:2:0:0:
450,203,117954,1,0,3:2:0:0:
463,218,118048,1,0,3:2:0:0:
476,233,118142,5,8,3:2:0:0:
459,348,118329,1,0,3:2:0:0:
440,338,118423,2,0,B|408:322|408:322|385:329|385:329|361:312|322:312,1,113.999996520996,0|0,0:2|3:2,0:0:0:0:
298,310,118704,1,0,3:2:0:0:
128,356,118892,1,8,3:2:0:0:
148,363,118985,2,0,P|187:312|185:261,1,113.999996520996,0|0,3:2|3:2,0:0:0:0:
155,233,119267,2,0,B|193:221|193:221|208:197|208:197|244:198|259:185,1,113.999996520996,0|0,1:2|3:2,0:0:0:0:
307,138,119548,1,0,3:2:0:0:
326,144,119642,1,8,3:2:0:0:
480,197,119829,1,0,3:2:0:0:
422,59,120017,5,4,1:2:0:0:
392,311,120204,1,0,3:2:0:0:
480,197,120392,1,8,3:2:0:0:
502,188,120485,1,0,3:2:0:0:
388,335,120673,1,0,3:2:0:0:
384,359,120766,1,0,1:2:0:0:
327,180,120954,1,0,3:2:0:0:
308,164,121048,2,0,P|250:160|197:108,1,113.999996520996,0|0,3:2|3:2,0:0:0:0:
165,84,121329,6,0,B|163:115|163:115|141:130|141:130|136:168|94:207,1,113.999996520996,0|0,3:2|1:2,0:0:0:0:
76,226,121610,1,0,3:2:0:0:
68,250,121704,1,0,3:2:0:0:
220,54,121892,1,8,3:2:0:0:
203,35,121986,1,0,3:2:0:0:
300,256,122173,1,0,3:2:0:0:
324,260,122267,2,0,P|390:252|440:202,1,113.999996520996,0|0,1:2|3:2,0:0:0:0:
468,180,122548,2,0,B|465:207|465:207|480:230|480:230|466:262|495:303,1,113.999996520996,0|0,3:2|3:2,0:0:0:0:
502,314,122829,1,0,3:2:0:0:
332,352,123017,5,4,1:2:0:0:
324,332,123110,1,0,3:2:0:0:
316,312,123204,1,0,3:2:0:0:
200,292,123392,1,8,3:2:0:0:
192,268,123486,1,0,3:2:0:0:
436,144,123673,5,0,3:2:0:0:
428,168,123767,1,0,1:2:0:0:
312,184,123955,1,0,3:2:0:0:
304,204,124048,1,0,3:2:0:0:
296,224,124142,1,8,3:2:0:0:
136,305,124329,5,0,3:2:0:0:
130,280,124423,1,0,3:2:0:0:
10,269,124610,1,0,3:2:0:0:
28,252,124704,1,0,3:2:0:0:
257,254,124892,5,8,3:2:0:0:
243,234,124986,1,0,3:2:0:0:
312,135,125173,1,0,3:2:0:0:
287,137,125267,1,0,1:2:0:0:
158,190,125454,6,0,B|122:162|80:179|80:179|92:95|92:95|42:19,1,213.750008153916,2|0,3:3|0:0,0:0:0:0:
22,9,125829,1,4,3:3:0:0:
22,9,125923,1,4,3:3:0:0:
22,9,126017,5,4,1:2:0:0:
6,57,126110,1,2,2:2:0:0:
26,104,126204,1,0,3:2:0:0:
75,117,126298,1,2,2:2:0:0:
115,86,126392,1,8,3:2:0:0:
166,89,126485,1,2,2:2:0:0:
199,128,126579,1,0,3:2:0:0:
199,179,126673,1,2,2:2:0:0:
165,217,126767,6,0,B|205:221|205:221|218:241|218:241|254:240|277:272,1,113.999996520996,0|0,1:2|0:2,0:0:0:0:
352,340,127142,1,8,0:2:0:0:
416,251,127329,1,2,0:2:0:0:
248,283,127517,1,2,1:2:0:0:
232,307,127610,1,0,0:2:0:0:
74,363,127799,1,0,0:2:0:0:
89,339,127892,1,8,0:2:0:0:
152,264,128079,5,2,0:2:0:0:
212,191,128267,1,2,1:2:0:0:
228,167,128360,1,0,0:2:0:0:
69,223,128549,1,0,0:2:0:0:
54,247,128642,1,8,0:2:0:0:
136,156,128829,1,2,0:2:0:0:
62,23,129017,6,0,L|118:38,1,56.9999982604981,4|2,1:2|2:2,0:0:0:0:
120,64,129204,2,0,L|208:88,1,56.9999982604981,0|2,3:2|2:2,0:0:0:0:
318,129,129392,2,0,L|263:143,1,56.9999982604981,8|2,2:2|2:2,0:0:0:0:
262,169,129579,2,0,L|174:193,1,56.9999982604981,0|2,3:2|2:2,0:0:0:0:
72,200,129767,1,0,1:2:0:0:
96,208,129860,2,0,B|120:240|120:240|112:264|112:264|136:296|128:328,1,113.999996520996,0|0,0:2|0:2,0:0:0:0:
122,343,130142,5,8,0:2:0:0:
284,315,130329,1,2,0:2:0:0:
194,195,130517,5,2,1:2:0:0:
218,211,130610,1,0,0:2:0:0:
282,83,130798,1,0,0:2:0:0:
280,111,130891,1,8,0:2:0:0:
330,195,131079,1,2,0:2:0:0:
426,107,131267,1,2,1:2:0:0:
400,119,131360,1,0,0:2:0:0:
450,235,131548,1,0,0:2:0:0:
426,218,131641,1,8,0:2:0:0:
361,295,131829,1,2,0:2:0:0:
330,195,132017,5,4,1:2:0:0:
312,147,132110,1,2,2:2:0:0:
269,117,132204,1,0,3:2:0:0:
219,129,132298,1,2,2:2:0:0:
190,172,132392,1,8,3:2:0:0:
161,214,132485,1,2,2:2:0:0:
111,226,132579,1,0,3:2:0:0:
68,197,132673,1,2,2:2:0:0:
50,149,132767,2,0,B|31:187|31:187|42:208|42:208|19:255|35:277,1,113.999996520996,2|0,1:2|0:2,0:0:0:0:
123,142,133142,5,8,0:2:0:0:
256,200,133329,1,2,0:2:0:0:
168,301,133517,1,2,1:2:0:0:
144,312,133610,1,0,0:2:0:0:
279,208,133798,1,0,0:2:0:0:
304,216,133891,1,8,0:2:0:0:
448,256,134079,1,2,0:2:0:0:
416,104,134267,1,2,1:2:0:0:
404,125,134360,2,0,P|352:98|321:53,1,113.999996520996,0|0,0:2|0:2,0:0:0:0:
316,4,134642,2,0,B|298:25|298:25|272:29|272:29|258:64|218:71,1,113.999996520996,8|2,0:2|0:2,0:0:0:0:
180,182,135017,6,0,B|180:207|180:207|156:228,1,56.9999982604981,4|2,1:2|2:2,0:0:0:0:
92,292,135204,2,0,B|68:313|68:313|68:338,1,56.9999982604981,0|2,3:2|2:2,0:0:0:0:
45,204,135392,2,0,B|70:204|70:204|91:228,1,56.9999982604981,8|2,3:2|2:2,0:0:0:0:
156,292,135579,2,0,B|177:316|177:316|202:316,1,56.9999982604981,0|2,3:2|2:2,0:0:0:0:
270,254,135767,2,0,B|285:225|285:225|350:334,1,113.999996520996,0|0,1:2|0:2,0:0:0:0:
399,371,136142,5,8,0:2:0:0:
463,235,136329,1,2,0:2:0:0:
327,295,136517,1,2,1:2:0:0:
340,273,136610,2,0,B|317:245|317:245|318:220|318:220|288:202|278:169,1,113.999996520996,0|0,0:2|0:2,0:0:0:0:
276,142,136892,1,8,0:2:0:0:
399,59,137079,1,2,0:2:0:0:
247,43,137267,1,2,0:2:0:0:
231,27,137360,1,0,0:2:0:0:
215,11,137454,6,0,B|192:37|192:37|167:37|167:37|144:83|70:78,1,142.500005435944,4|8,0:0|0:3,0:0:0:0:
0,38,137829,1,4,0:3:0:0:
95,212,138017,5,4,1:2:0:0:
202,251,138204,1,2,0:2:0:0:
175,158,138392,1,8,0:2:0:0:
122,305,138579,1,2,0:2:0:0:
276,142,138767,5,2,1:2:0:0:
21,321,138954,1,0,0:2:0:0:
359,330,139142,5,8,1:2:0:0:
400,356,139235,1,0,1:0:0:0:
448,355,139329,1,0,1:0:0:0:
485,324,139423,1,0,1:0:0:0:
504,280,139517,2,0,B|505:252|505:252|489:236|489:236|497:204|473:172,1,113.999996520996,2|0,1:2|0:2,0:0:0:0:
384,176,139892,1,8,0:2:0:0:
400,220,139985,1,0,0:2:0:0:
448,84,140173,1,0,0:2:0:0:
432,40,140267,2,0,B|404:56|404:56|383:48|383:48|354:69|306:57,1,113.999996520996,2|0,1:2|0:2,0:0:0:0:
112,26,140642,6,0,P|153:75|137:156,1,113.999996520996,10|0,1:0|0:2,0:0:0:0:
57,218,141017,1,6,1:0:0:0:
63,191,141110,1,0,0:2:0:0:
69,163,141204,1,0,0:2:0:0:
74,135,141298,1,0,0:2:0:0:
80,107,141392,1,8,0:2:0:0:
40,295,141579,1,2,0:2:0:0:
256,264,141767,5,2,1:0:0:0:
241,238,141860,1,0,0:2:0:0:
222,217,141954,1,0,0:2:0:0:
199,201,142048,1,0,0:2:0:0:
172,191,142142,1,8,0:2:0:0:
283,345,142329,1,2,0:2:0:0:
232,128,142517,5,2,1:0:0:0:
262,128,142610,1,0,0:2:0:0:
289,122,142704,1,0,0:2:0:0:
315,110,142798,1,0,0:2:0:0:
337,91,142892,1,8,0:2:0:0:
147,106,143079,1,2,0:2:0:0:
380,187,143267,5,2,1:0:0:0:
364,212,143360,1,0,0:2:0:0:
356,239,143454,1,0,0:2:0:0:
354,267,143548,1,0,0:2:0:0:
359,296,143642,1,8,0:2:0:0:
441,124,143829,1,2,0:2:0:0:
173,187,144017,5,6,1:1:0:0:
199,157,144110,1,0,0:2:0:0:
238,149,144204,1,2,0:2:0:0:
274,164,144298,1,0,0:2:0:0:
313,162,144392,1,10,0:2:0:0:
348,144,144485,1,0,0:2:0:0:
369,110,144579,1,2,0:2:0:0:
374,70,144673,1,0,0:2:0:0:
359,32,144767,1,2,1:2:0:0:
328,6,144860,1,0,0:2:0:0:
288,0,144954,1,0,0:2:0:0:
249,8,145048,1,0,0:2:0:0:
221,36,145142,6,0,L|221:111,1,56.9999982604981,10|0,1:1|0:2,0:0:0:0:
196,118,145329,2,0,L|196:193,1,56.9999982604981,2|0,0:2|0:2,0:0:0:0:
230,204,145517,5,2,1:1:0:0:
230,243,145610,1,0,0:2:0:0:
209,277,145704,1,0,0:2:0:0:
171,291,145798,1,0,0:2:0:0:
132,280,145892,1,10,0:2:0:0:
107,248,145985,1,0,0:2:0:0:
74,223,146079,1,2,0:2:0:0:
34,227,146173,1,0,0:2:0:0:
4,253,146267,6,0,P|36:224|48:133,1,113.999996520996,2|0,1:1|0:2,0:0:0:0:
0,30,146642,1,10,1:1:0:0:
117,99,146829,1,2,1:1:0:0:
224,13,147017,5,6,1:1:0:0:
248,144,147204,1,2,0:2:0:0:
312,48,147392,1,8,0:2:0:0:
336,179,147579,1,2,0:2:0:0:
400,80,147767,1,2,1:2:0:0:
404,104,147860,1,0,0:2:0:0:
424,208,148048,1,0,0:2:0:0:
428,232,148142,2,0,L|448:360,1,113.999996520996,10|2,0:2|0:2,0:0:0:0:
376,376,148423,1,0,0:2:0:0:
364,356,148517,2,0,B|340:340|340:340|316:348|316:348|292:324|244:332,1,113.999996520996,2|0,1:2|0:2,0:0:0:0:
72,336,148892,5,10,0:2:0:0:
144,216,149079,1,2,0:2:0:0:
192,328,149267,1,2,1:2:0:0:
24,224,149454,1,0,0:2:0:0:
144,50,149642,5,10,0:2:0:0:
289,140,149829,1,2,0:2:0:0:
144,216,150017,1,6,1:1:0:0:
136,212,150110,1,0,1:2:0:0:
128,208,150204,1,2,1:2:0:0:
120,204,150298,1,0,1:2:0:0:
112,200,150392,2,0,L|40:228,1,52.2500015945435,8|0,1:2|0:2,0:0:0:0:
48,184,150579,2,0,L|-24:212,1,52.2500015945435,2|0,1:2|0:2,0:0:0:0:
52,336,150767,5,2,1:1:0:0:
60,332,150860,1,0,1:2:0:0:
68,328,150954,1,0,1:2:0:0:
76,324,151048,1,0,1:2:0:0:
84,320,151142,2,0,L|156:348,1,52.2500015945435,8|0,1:2|0:2,0:0:0:0:
148,304,151329,2,0,L|220:332,1,52.2500015945435,2|0,1:2|1:2,0:0:0:0:
256,312,151517,5,2,1:0:0:0:
284,328,151610,1,0,3:2:0:0:
364,368,151798,1,0,3:2:0:0:
392,352,151891,1,10,3:2:0:0:
464,216,152079,5,2,3:2:0:0:
436,232,152172,1,0,3:2:0:0:
356,272,152360,1,0,3:2:0:0:
328,256,152453,1,0,3:2:0:0:
248,224,152642,1,10,3:2:0:0:
160,252,152830,5,2,3:2:0:0:
132,268,152923,1,0,3:2:0:0:
104,284,153017,2,0,L|72:152,1,104.500003189087,6|0,1:1|0:2,0:0:0:0:
9,118,153298,1,0,0:2:0:0:
35,131,153392,2,0,P|87:107|127:47,1,104.500003189087,10|0,1:0|0:2,0:0:0:0:
271,132,153767,5,2,1:0:0:0:
271,146,153860,1,0,0:2:0:0:
271,160,153954,1,0,0:2:0:0:
347,96,154142,1,10,1:0:0:0:
359,88,154235,1,0,0:2:0:0:
371,80,154329,1,0,0:2:0:0:
267,44,154517,1,2,1:0:0:0:
253,39,154610,1,0,0:2:0:0:
239,44,154704,1,0,0:2:0:0:
225,39,154798,1,0,0:2:0:0:
211,44,154892,1,8,0:2:0:0:
197,39,154985,1,0,0:2:0:0:
183,44,155079,1,0,0:2:0:0:
169,39,155173,1,0,0:2:0:0:
155,44,155267,6,0,L|131:173,1,104.500003189087,2|0,1:0|0:2,0:0:0:0:
112,280,155642,1,8,1:0:0:0:
251,168,155829,1,2,1:0:0:0:
224,321,156017,5,4,1:2:0:0:
169,301,156204,1,2,0:2:0:0:
160,244,156392,1,0,0:2:0:0:
204,207,156579,1,2,0:2:0:0:
258,227,156767,2,0,L|288:360,1,118.75,2|0,1:2|2:0,0:0:0:0:
364,244,157142,6,0,B|420:188|508:236|504:316|432:368,1,209.000006378174,2|6,1:2|1:2,0:0:0:0:
466,332,158079,1,2,1:1:0:0:
256,192,158642,5,2,1:1:0:0:
256,192,158829,1,2,0:2:0:0:
160,136,159017,5,6,1:1:0:0:
88,160,159204,1,0,0:2:0:0:
112,80,159392,1,0,0:2:0:0:
136,216,159579,1,0,0:2:0:0:
201,32,159767,5,4,1:2:0:0:
48,263,159954,1,0,0:2:0:0:
399,315,160142,5,0,0:2:0:0:
452,76,160329,1,0,0:2:0:0:
444,248,160517,1,4,1:2:0:0:
405,142,160704,1,0,0:2:0:0:
168,272,160892,5,4,1:2:0:0:
360,240,161079,1,0,0:2:0:0:
256,192,161267,1,4,1:2:0:0:
275,318,161454,1,4,1:2:0:0:
325,10,161642,5,4,1:2:0:0:
133,42,161829,1,4,1:2:0:0:
256,192,162017,1,4,1:0:0:0:
256,192,162110,12,0,163892,0:2:0:0:
